<?xml version="1.0" standalone="no"?>
<!DOCTYPE svg PUBLIC "-//W3C//DTD SVG 1.1//EN" "http://www.w3.org/Graphics/SVG/1.1/DTD/svg11.dtd" >
<svg xmlns="http://www.w3.org/2000/svg" xmlns:xlink="http://www.w3.org/1999/xlink" version="1.1">
<metadata>
Created by FontForge 20190801 at Wed Mar 30 20:57:50 2022
 By www-data
Copyright (c) 2022 by Connary Fagen. All rights reserved.
</metadata>
<defs>
<font id="articulatecfregular" horiz-adv-x="563" >
  <font-face 
    font-family="articulatecfregular"
    font-weight="400"
    font-stretch="normal"
    units-per-em="1000"
    panose-1="0 0 0 0 0 0 0 0 0 0"
    ascent="800"
    descent="-200"
    x-height="520"
    cap-height="700"
    bbox="-165 -241 1051 1070"
    underline-thickness="50"
    underline-position="-125"
    unicode-range="U+0020-A78C"
  />
<missing-glyph horiz-adv-x="725" 
d="M58 0v700h610v-700h-610zM110 52h506v596h-506v-596zM147 90l188 263l-185 257h58l154 -218l154 218h58l-185 -257l188 -263h-58l-157 225l-157 -225h-58z" />
    <glyph glyph-name=".notdef" horiz-adv-x="725" 
d="M58 0v700h610v-700h-610zM110 52h506v596h-506v-596zM147 90l188 263l-185 257h58l154 -218l154 218h58l-185 -257l188 -263h-58l-157 225l-157 -225h-58z" />
    <glyph glyph-name=".null" horiz-adv-x="0" 
 />
    <glyph glyph-name="nonmarkingreturn" horiz-adv-x="333" 
 />
    <glyph glyph-name="space" unicode=" " horiz-adv-x="230" 
 />
    <glyph glyph-name="exclam" unicode="!" horiz-adv-x="228" 
d="M82 198l-9 502h82l-8 -502h-65zM58 46q0 23 16.5 39.5t39.5 16.5t40 -16.5t17 -39.5t-17 -39.5t-40 -16.5t-39.5 16.5t-16.5 39.5z" />
    <glyph glyph-name="quotedbl" unicode="&#x22;" horiz-adv-x="302" 
d="M186 456v244h76v-244h-76zM40 456v244h76v-244h-76z" />
    <glyph glyph-name="numbersign" unicode="#" horiz-adv-x="597" 
d="M344 0l19 191h-161l-19 -191h-53l19 191h-101v54h107l21 211h-103v53h108l19 191h53l-19 -191h161l19 191h53l-19 -191h101v-53h-106l-21 -211h102v-54h-108l-19 -191h-53zM208 245h160l22 211h-161z" />
    <glyph glyph-name="dollar" unicode="$" horiz-adv-x="593" 
d="M279 -10q-114 6 -175 64t-61 150h80q4 -60 42.5 -98.5t113.5 -44.5v269l-35 8q-181 42 -181 184q0 83 56.5 133t159.5 54v81h40v-81q101 -6 156 -56t55 -131h-80q-2 48 -35 79.5t-96 35.5v-242l34 -8q98 -23 147.5 -67.5t49.5 -125.5q0 -92 -61 -145.5t-170 -58.5v-80
h-40v80zM145 523q0 -46 30.5 -75.5t103.5 -45.5v236q-68 -3 -101 -34t-33 -81zM319 61q73 4 111 38.5t38 92.5q0 56 -37 86t-112 45v-262z" />
    <glyph glyph-name="percent" unicode="%" horiz-adv-x="725" 
d="M105 124l-34 48l550 403l34 -49zM43 555q0 71 38 111.5t97 40.5t97 -40.5t38 -111.5q0 -73 -37.5 -113.5t-97.5 -40.5t-97.5 40.5t-37.5 113.5zM103 555q0 -48 20.5 -72.5t54.5 -24.5q33 0 53.5 24.5t20.5 72.5q0 47 -20.5 71t-53.5 24q-34 0 -54.5 -24t-20.5 -71z
M413 145q0 71 38 111.5t97 40.5t97 -40.5t38 -111.5q0 -73 -37.5 -113.5t-97.5 -40.5t-97.5 40.5t-37.5 113.5zM473 145q0 -48 20.5 -72.5t54.5 -24.5q33 0 53.5 24.5t20.5 72.5q0 47 -20.5 71t-53.5 24q-34 0 -54.5 -24t-20.5 -71z" />
    <glyph glyph-name="ampersand" unicode="&#x26;" horiz-adv-x="680" 
d="M285 -10q-106 0 -174 56t-68 146q0 66 40.5 116t120.5 93q-82 92 -82 165q0 60 43 101.5t124 41.5q78 0 121 -40.5t43 -104.5q0 -110 -142 -180l181 -204q38 73 38 182h72q0 -145 -59 -238l110 -124h-91l-63 70q-84 -80 -214 -80zM125 199q0 -62 47 -101.5t122 -39.5
q94 0 158 65l-205 231q-122 -60 -122 -155zM193 566q0 -32 19 -62.5t55 -70.5q61 30 88 61t27 70q0 41 -25.5 63.5t-68.5 22.5t-69 -23.5t-26 -60.5z" />
    <glyph glyph-name="quotesingle" unicode="'" horiz-adv-x="156" 
d="M40 456v244h76v-244h-76z" />
    <glyph glyph-name="parenleft" unicode="(" horiz-adv-x="271" 
d="M151 -130q-106 189 -106 450q0 248 106 425h75q-101 -183 -101 -425q0 -256 101 -450h-75z" />
    <glyph glyph-name="parenright" unicode=")" horiz-adv-x="271" 
d="M45 -130q101 194 101 450q0 242 -101 425h75q106 -177 106 -425q0 -261 -106 -450h-75z" />
    <glyph glyph-name="asterisk" unicode="*" horiz-adv-x="494" 
d="M331 349l-80 120l42 31l85 -117zM63 543l15 54l136 -41l-15 -50zM116 383l86 117l41 -31l-80 -120zM217 700h59l-4 -139h-50zM281 556l135 41l16 -54l-137 -37z" />
    <glyph glyph-name="plus" unicode="+" horiz-adv-x="543" 
d="M234 69v178h-176v71h176v176h75v-176h177v-71h-177v-178h-75z" />
    <glyph glyph-name="comma" unicode="," horiz-adv-x="205" 
d="M54 -67q31 1 44.5 15.5t13.5 42.5q-32 -1 -50.5 15.5t-18.5 41.5q0 24 15.5 39t39.5 15q29 0 47 -22t18 -67q0 -56 -28 -87t-73 -31h-8v38z" />
    <glyph glyph-name="hyphen" unicode="-" horiz-adv-x="355" 
d="M40 249v62h275v-62h-275z" />
    <glyph glyph-name="period" unicode="." horiz-adv-x="198" 
d="M99 -10q-23 0 -39.5 16.5t-16.5 39.5t16.5 39.5t39.5 16.5t40 -16.5t17 -39.5t-17 -39.5t-40 -16.5z" />
    <glyph glyph-name="slash" unicode="/" horiz-adv-x="411" 
d="M30 0l272 700h79l-271 -700h-80z" />
    <glyph glyph-name="zero" unicode="0" horiz-adv-x="625" 
d="M313 -10q-119 0 -194.5 93t-75.5 267q0 173 75.5 266t194.5 93t194.5 -93t75.5 -266q0 -174 -75.5 -267t-194.5 -93zM119 350q0 -135 51.5 -213t142.5 -78t142 78t51 213q0 134 -51 212.5t-142 78.5t-142.5 -78.5t-51.5 -212.5z" />
    <glyph glyph-name="one" unicode="1" horiz-adv-x="328" 
d="M171 592q-47 -53 -128 -56v67q48 4 82.5 31t45.5 66h80v-700h-80v592z" />
    <glyph glyph-name="two" unicode="2" horiz-adv-x="545" 
d="M40 28q0 92 44.5 156.5t152.5 129.5q101 62 130 89q48 47 49 107q0 60 -39.5 95t-102.5 35q-66 0 -106.5 -38.5t-40.5 -111.5v-14h-78v18q0 97 59.5 156t165.5 59q103 0 162.5 -54.5t59.5 -141.5q0 -43 -14 -77.5t-46 -64.5t-58 -48t-75 -48q-89 -53 -131 -98t-42 -102
v-7h370v-68h-460v28z" />
    <glyph glyph-name="three" unicode="3" horiz-adv-x="575" 
d="M282 -10q-118 0 -181 63.5t-63 170.5h76q1 -77 46.5 -120.5t124.5 -43.5q74 0 123 38.5t49 106.5q0 65 -48 101.5t-135 36.5h-30v63h26q82 0 117 34t35 84q0 54 -37.5 84.5t-100.5 30.5q-67 0 -107 -37t-41 -117h-75q0 110 59.5 167t165.5 57q100 0 157 -48.5t57 -126.5
q0 -57 -31.5 -97.5t-86.5 -56.5q63 -11 109.5 -56.5t46.5 -123.5q0 -93 -70.5 -151.5t-185.5 -58.5z" />
    <glyph glyph-name="four" unicode="4" horiz-adv-x="560" 
d="M363 0v186h-325v66l325 448h80v-448h80v-66h-80v-186h-80zM111 252h252v347z" />
    <glyph glyph-name="five" unicode="5" horiz-adv-x="572" 
d="M290 -10q-113 0 -177 62t-65 160h73q2 -71 49 -113t120 -42q75 0 122.5 45.5t47.5 131.5t-47.5 132t-120.5 46q-102 0 -150 -77h-79l58 365h358v-64h-302l-38 -234q23 30 67.5 51.5t103.5 21.5q100 0 164.5 -64.5t64.5 -176.5q0 -113 -67.5 -178.5t-181.5 -65.5z" />
    <glyph glyph-name="six" unicode="6" horiz-adv-x="583" 
d="M299 -10q-118 0 -184.5 88t-66.5 264q0 59 7.5 110t26 99.5t47 82.5t74 54.5t103.5 20.5q100 0 155 -53t57 -125h-71q-5 50 -42.5 81.5t-99.5 31.5q-179 0 -183 -282q28 50 78.5 77.5t113.5 27.5q98 0 162 -62.5t64 -171.5q0 -112 -68.5 -177.5t-172.5 -65.5zM135 234
q0 -79 46 -128t119 -49q74 0 119 49t45 128q0 78 -45 124t-119 46t-119.5 -46t-45.5 -124z" />
    <glyph glyph-name="seven" unicode="7" horiz-adv-x="486" 
d="M127 0q28 296 247 633h-344v67h421v-67q-220 -340 -247 -633h-77z" />
    <glyph glyph-name="eight" unicode="8" horiz-adv-x="565" 
d="M283 -10q-108 0 -176.5 55.5t-68.5 151.5q0 138 137 188q-43 18 -69 58.5t-26 92.5q0 75 54 124t149 49q94 0 148.5 -49t54.5 -124q0 -52 -26 -92.5t-69 -58.5q137 -50 137 -188q0 -96 -68.5 -151.5t-176.5 -55.5zM115 202q0 -66 45.5 -104.5t122.5 -38.5q76 0 122 38.5
t46 104.5q0 67 -46 107t-122 40t-122 -40t-46 -107zM155 531q0 -52 34 -83t94 -31t94 31t34 83q0 51 -33 81t-95 30t-95 -30t-33 -81z" />
    <glyph glyph-name="nine" unicode="9" horiz-adv-x="583" 
d="M284 708q118 0 184.5 -88t66.5 -264q0 -59 -7.5 -110t-26 -99.5t-47.5 -82.5t-74.5 -54.5t-103.5 -20.5q-100 0 -155 53t-57 125h71q5 -50 42.5 -81.5t99.5 -31.5q179 0 183 282q-28 -50 -78.5 -77.5t-113.5 -27.5q-98 0 -161.5 62.5t-63.5 171.5q0 112 68.5 177.5
t172.5 65.5zM118 464q0 -78 45 -124t119 -46t120 46t46 124q0 79 -46 128t-119 49t-118.5 -48.5t-46.5 -128.5z" />
    <glyph glyph-name="colon" unicode=":" horiz-adv-x="198" 
d="M99 -10q-23 0 -39.5 16.5t-16.5 39.5t16.5 39.5t39.5 16.5t40 -16.5t17 -39.5t-17 -39.5t-40 -16.5zM43 464q0 23 16.5 39.5t39.5 16.5t40 -16.5t17 -39.5t-17 -39.5t-40 -16.5t-39.5 16.5t-16.5 39.5z" />
    <glyph glyph-name="semicolon" unicode=";" horiz-adv-x="205" 
d="M99 408q-23 0 -39.5 16.5t-16.5 39.5t16.5 39.5t39.5 16.5t40 -16.5t17 -39.5t-17 -39.5t-40 -16.5zM43 48q0 24 15.5 39t39.5 15q29 0 47 -22t18 -67q0 -56 -28 -87t-73 -31h-8v38q31 1 44.5 15.5t13.5 42.5q-32 -1 -50.5 15.5t-18.5 41.5z" />
    <glyph glyph-name="less" unicode="&#x3c;" horiz-adv-x="507" 
d="M462 0l-417 203v76l417 203v-78l-346 -163l346 -163v-78z" />
    <glyph glyph-name="equal" unicode="=" horiz-adv-x="413" 
d="M58 169v62h297v-62h-297zM58 329v62h297v-62h-297z" />
    <glyph glyph-name="greater" unicode="&#x3e;" horiz-adv-x="507" 
d="M45 0v78l346 163l-346 163v78l417 -203v-76z" />
    <glyph glyph-name="question" unicode="?" horiz-adv-x="524" 
d="M225 238q0 46 18 80.5t43.5 55.5t51 39.5t43.5 44t18 58.5q0 57 -36 89t-98 32q-65 0 -102.5 -39.5t-37.5 -114.5h-80q-1 109 60 166.5t160 57.5q95 0 154.5 -50t59.5 -141q0 -44 -17.5 -75.5t-42.5 -51t-49.5 -38t-42 -47t-17.5 -66.5v-43h-85v43zM213 46
q0 23 16.5 39.5t39.5 16.5t40 -16.5t17 -39.5t-17 -39.5t-40 -16.5t-39.5 16.5t-16.5 39.5z" />
    <glyph glyph-name="at" unicode="@" horiz-adv-x="793" 
d="M415 -10q-160 0 -266 97.5t-106 263.5q0 163 103.5 260.5t256.5 97.5q151 0 249 -96t98 -252q0 -95 -37.5 -144.5t-95.5 -49.5q-43 0 -71 25.5t-34 67.5q-11 -41 -46.5 -67.5t-82.5 -26.5q-62 0 -108 47t-46 132t45 130.5t108 45.5q48 0 82.5 -26t42.5 -68l5 83h42v-203
q0 -45 17.5 -70t46.5 -25q39 0 60.5 40t21.5 108q0 137 -82.5 218.5t-215.5 81.5q-134 0 -221 -83t-87 -225q0 -146 92.5 -229t232.5 -83q65 0 108 14v-49q-43 -15 -112 -15zM279 346q0 -60 31.5 -96.5t77.5 -36.5q47 0 78 36.5t31 96.5q0 59 -31 93.5t-78 34.5t-78 -34
t-31 -94z" />
    <glyph glyph-name="A" unicode="A" horiz-adv-x="682" 
d="M23 0l267 700h102l267 -700h-87l-65 175h-332l-65 -175h-87zM199 239h284l-139 372h-6z" />
    <glyph glyph-name="B" unicode="B" horiz-adv-x="605" 
d="M58 0v700h262q105 0 156.5 -45.5t51.5 -122.5q0 -115 -102 -148q147 -37 147 -182q0 -92 -63.5 -147t-186.5 -55h-265zM140 71h178q83 0 125.5 36.5t42.5 98.5q0 63 -42.5 98.5t-125.5 35.5h-178v-269zM140 411h173q64 0 97 29t33 82q0 107 -130 107h-173v-218z" />
    <glyph glyph-name="C" unicode="C" horiz-adv-x="662" 
d="M359 -10q-143 0 -229.5 93.5t-86.5 266.5t86 266t230 93q110 0 183 -54.5t90 -158.5h-81q-18 68 -68.5 104.5t-124.5 36.5q-107 0 -169.5 -75t-62.5 -212t62.5 -212.5t169.5 -75.5q74 0 124.5 36.5t68.5 106.5h81q-17 -105 -90 -160t-183 -55z" />
    <glyph glyph-name="D" unicode="D" horiz-adv-x="658" 
d="M58 0v700h226q165 0 248 -90t83 -260q0 -169 -83.5 -259.5t-247.5 -90.5h-226zM140 73h137q132 0 193.5 68t61.5 209t-61.5 209t-193.5 68h-137v-554z" />
    <glyph glyph-name="E" unicode="E" horiz-adv-x="545" 
d="M58 0v700h445v-73h-363v-234h333v-67h-333v-253h373v-73h-455z" />
    <glyph glyph-name="F" unicode="F" horiz-adv-x="533" 
d="M58 0v700h445v-73h-363v-243h298v-69h-298v-315h-82z" />
    <glyph glyph-name="G" unicode="G" horiz-adv-x="697" 
d="M360 -10q-147 0 -232 93t-85 266t86 266.5t230 93.5q105 0 175.5 -48.5t91.5 -140.5h-82q-40 117 -185 117q-111 0 -172.5 -74t-61.5 -212q0 -139 62.5 -214t173.5 -75q96 0 152 57.5t56 171.5h-176v68h257v-49q0 -156 -76 -238t-214 -82z" />
    <glyph glyph-name="H" unicode="H" horiz-adv-x="649" 
d="M509 0v309h-369v-309h-82v700h82v-322h369v322h83v-700h-83z" />
    <glyph glyph-name="I" unicode="I" horiz-adv-x="198" 
d="M58 0v700h82v-700h-82z" />
    <glyph glyph-name="J" unicode="J" horiz-adv-x="648" 
d="M323 -10q-124 0 -194.5 70.5t-70.5 200.5h83q0 -95 48.5 -146.5t134.5 -51.5q87 0 135.5 53.5t48.5 153.5v430h82v-436q0 -131 -71 -202.5t-196 -71.5z" />
    <glyph glyph-name="K" unicode="K" horiz-adv-x="635" 
d="M58 0v700h82v-389l349 389h99l-289 -322l314 -378h-97l-269 320l-107 -119v-201h-82z" />
    <glyph glyph-name="L" unicode="L" horiz-adv-x="531" 
d="M58 0v700h82v-627h359v-73h-441z" />
    <glyph glyph-name="M" unicode="M" horiz-adv-x="829" 
d="M58 0v700h99l258 -593l257 593h100v-700h-83v548h-3l-237 -548h-68l-238 548h-3v-548h-82z" />
    <glyph glyph-name="N" unicode="N" horiz-adv-x="662" 
d="M58 0v700h92l370 -573h2v573h83v-700h-95l-367 571h-3v-571h-82z" />
    <glyph glyph-name="O" unicode="O" horiz-adv-x="720" 
d="M360 -10q-141 0 -229 95t-88 265q0 169 88 264t229 95t229.5 -95t88.5 -264t-88.5 -264.5t-229.5 -95.5zM127 350q0 -138 64 -213t169 -75t169.5 74.5t64.5 213.5q0 138 -64 212.5t-170 74.5q-105 0 -169 -74.5t-64 -212.5z" />
    <glyph glyph-name="P" unicode="P" horiz-adv-x="592" 
d="M58 0v700h255q121 0 184 -57t63 -159q0 -101 -63 -157.5t-184 -56.5h-173v-270h-82zM140 343h170q82 0 124 36t42 105q0 143 -166 143h-170v-284z" />
    <glyph glyph-name="Q" unicode="Q" horiz-adv-x="720" 
d="M627 -14l-69 70q-81 -66 -198 -66q-141 0 -229 95t-88 265q0 169 88 264t229 95t229.5 -95t88.5 -264q0 -150 -72 -244l71 -72zM127 350q0 -138 64 -213t169 -75q86 0 144 49l-131 132l50 48l126 -127q45 71 45 186q0 138 -64 212.5t-170 74.5q-105 0 -169 -74.5
t-64 -212.5z" />
    <glyph glyph-name="R" unicode="R" horiz-adv-x="598" 
d="M58 0v700h255q121 0 184 -57t63 -159q0 -80 -40.5 -133t-119.5 -71l165 -280h-83l-159 270h-183v-270h-82zM140 343h170q82 0 124 36t42 105q0 143 -166 143h-170v-284z" />
    <glyph glyph-name="S" unicode="S" horiz-adv-x="613" 
d="M311 -10q-129 0 -198.5 58.5t-69.5 155.5h83q4 -64 50 -103.5t136 -39.5q84 0 128 35.5t44 96.5q0 55 -35.5 84t-102.5 42l-93 19q-190 37 -190 184q0 87 63.5 137t179.5 50q115 0 179 -50.5t64 -136.5h-82q-2 53 -43.5 85t-118.5 32q-79 0 -117.5 -32.5t-38.5 -84.5
q0 -92 127 -117l90 -18q101 -21 152.5 -66t51.5 -127q0 -97 -69 -150.5t-190 -53.5z" />
    <glyph glyph-name="T" unicode="T" horiz-adv-x="580" 
d="M249 0v626h-221v74h524v-74h-221v-626h-82z" />
    <glyph glyph-name="U" unicode="U" horiz-adv-x="654" 
d="M327 -10q-125 0 -197 72t-72 203v435h83v-430q0 -100 49 -153.5t137 -53.5t137 53.5t49 153.5v430h83v-435q0 -131 -72 -203t-197 -72z" />
    <glyph glyph-name="V" unicode="V" horiz-adv-x="692" 
d="M295 0l-267 700h87l228 -611h6l228 611h87l-267 -700h-102z" />
    <glyph glyph-name="W" unicode="W" horiz-adv-x="970" 
d="M215 0l-187 700h84l150 -584h4l175 584h88l175 -584h4l150 584h85l-188 -700h-88l-182 595l-181 -595h-89z" />
    <glyph glyph-name="X" unicode="X" horiz-adv-x="645" 
d="M530 0l-207 295l-207 -295h-93l254 361l-238 339h93l191 -272l191 272h93l-238 -339l254 -361h-93z" />
    <glyph glyph-name="Y" unicode="Y" horiz-adv-x="652" 
d="M284 0v274l-256 426h93l205 -346l206 346h93l-257 -426v-274h-84z" />
    <glyph glyph-name="Z" unicode="Z" horiz-adv-x="610" 
d="M40 0v73l434 554h-417v73h509v-73l-434 -554h438v-73h-530z" />
    <glyph glyph-name="bracketleft" unicode="[" horiz-adv-x="280" 
d="M58 -130v875h165v-70h-85v-735h85v-70h-165z" />
    <glyph glyph-name="backslash" unicode="\" horiz-adv-x="411" 
d="M381 0h-80l-271 700h79z" />
    <glyph glyph-name="bracketright" unicode="]" horiz-adv-x="280" 
d="M222 -130h-165v70h85v735h-85v70h165v-875z" />
    <glyph glyph-name="asciicircum" unicode="^" horiz-adv-x="480" 
d="M45 465l168 235h55l167 -235h-75l-120 169l-120 -169h-75z" />
    <glyph glyph-name="underscore" unicode="_" horiz-adv-x="590" 
d="M45 -70v70h500v-70h-500z" />
    <glyph glyph-name="grave" unicode="`" horiz-adv-x="174" 
d="M101 582l-101 131h73l101 -131h-73z" />
    <glyph glyph-name="a" unicode="a" horiz-adv-x="538" 
d="M204 -10q-78 0 -124.5 36t-46.5 107q0 130 164 149l133 15q70 8 70 34v21q0 64 -31.5 90t-98.5 26q-66 0 -98 -23t-32 -74v-12h-77v19q0 152 210 152q107 0 157 -42.5t50 -135.5v-352h-75v90h-4q-15 -32 -64.5 -66t-132.5 -34zM113 137q0 -83 110 -83q83 0 130 43t47 89
v75q-7 -18 -75 -27l-109 -13q-56 -7 -79.5 -27.5t-23.5 -56.5z" />
    <glyph glyph-name="b" unicode="b" horiz-adv-x="588" 
d="M322 -10q-59 0 -108.5 25.5t-75.5 71.5v-87h-80v700h80v-266q26 46 75.5 71t108.5 25q98 0 166 -68.5t68 -201.5q0 -132 -68 -201t-166 -69zM134 260q0 -98 50.5 -150t122.5 -52t122.5 52t50.5 150t-50.5 150.5t-122.5 52.5t-122.5 -52.5t-50.5 -150.5z" />
    <glyph glyph-name="c" unicode="c" horiz-adv-x="535" 
d="M284 -10q-108 0 -179.5 69t-71.5 200q0 132 71.5 201.5t179.5 69.5q38 0 72 -9t66 -29t54 -58.5t29 -90.5h-73q-11 61 -52 90t-97 29q-78 0 -126 -53t-48 -150q0 -96 48 -148t126 -52q57 0 97.5 29t51.5 92h73q-8 -70 -45 -114.5t-80.5 -60t-95.5 -15.5z" />
    <glyph glyph-name="d" unicode="d" horiz-adv-x="588" 
d="M266 -10q-98 0 -166 69t-68 201q0 133 68 201.5t166 68.5q59 0 108.5 -25t75.5 -71v266h80v-700h-80v87q-26 -46 -75.5 -71.5t-108.5 -25.5zM108 260q0 -98 50.5 -150t122.5 -52t122.5 52t50.5 150t-50.5 150.5t-122.5 52.5t-122.5 -52.5t-50.5 -150.5z" />
    <glyph glyph-name="e" unicode="e" horiz-adv-x="540" 
d="M280 -10q-112 0 -179.5 68.5t-67.5 200.5q0 135 68 203t175 68q105 0 168.5 -66t63.5 -192q0 -22 -3 -37h-395q9 -181 171 -181q115 0 147 92h73q-46 -156 -221 -156zM110 296h321q-1 81 -42.5 126t-113.5 45q-71 0 -115 -43.5t-50 -127.5z" />
    <glyph glyph-name="f" unicode="f" horiz-adv-x="310" 
d="M95 589q0 127 134 127h56v-63h-35q-41 0 -58 -17.5t-17 -59.5v-56h107v-64h-107v-456h-80v456h-72v64h72v69z" />
    <glyph glyph-name="g" unicode="g" horiz-adv-x="583" 
d="M276 -209q-59 0 -107.5 14.5t-84 52.5t-35.5 95h71q2 -46 45.5 -72.5t109.5 -26.5q77 0 124 38t47 116v96h-2q-26 -45 -75.5 -69t-106.5 -24q-97 0 -163 66t-66 194t66.5 193.5t162.5 65.5q57 0 106.5 -24t75.5 -69h2v83h80v-512q0 -50 -15.5 -89t-40 -62.5t-58.5 -39
t-67 -21t-69 -5.5zM109 271q0 -93 49 -142.5t120 -49.5q72 0 122 49.5t50 142.5t-50 142.5t-122 49.5q-71 0 -120 -49.5t-49 -142.5z" />
    <glyph glyph-name="h" unicode="h" 
d="M425 305q0 157 -134 157q-70 0 -111.5 -42t-41.5 -115v-305h-80v700h80v-282h2q10 38 55 75t124 37q84 0 135 -50.5t51 -158.5v-321h-80v305z" />
    <glyph glyph-name="i" unicode="i" horiz-adv-x="195" 
d="M58 0v520h80v-520h-80zM47 674q0 21 15 35.5t36 14.5q20 0 35 -14.5t15 -35.5t-15 -36t-35 -15t-35.5 15t-15.5 36z" />
    <glyph glyph-name="j" unicode="j" horiz-adv-x="213" 
d="M21 -188q-36 0 -56 3v63h33q43 0 60 17.5t17 59.5v565h80v-580q0 -128 -134 -128zM65 674q0 21 15 35.5t35 14.5q21 0 36 -14.5t15 -35.5t-15.5 -36t-35.5 -15t-35 15t-15 36z" />
    <glyph glyph-name="k" unicode="k" horiz-adv-x="540" 
d="M58 0v700h80v-461l269 281h92l-221 -226l250 -294h-92l-208 243l-90 -91v-152h-80z" />
    <glyph glyph-name="l" unicode="l" horiz-adv-x="195" 
d="M58 0v700h80v-700h-80z" />
    <glyph glyph-name="m" unicode="m" horiz-adv-x="880" 
d="M743 305q0 157 -125 157q-63 0 -100.5 -42t-37.5 -115v-305h-80v305q0 157 -124 157q-63 0 -100.5 -42t-37.5 -115v-305h-80v520h80v-102h2q8 37 50.5 74.5t114.5 37.5q127 0 163 -117q14 42 57.5 79.5t118.5 37.5q81 0 130 -50.5t49 -158.5v-321h-80v305z" />
    <glyph glyph-name="n" unicode="n" 
d="M425 305q0 157 -134 157q-70 0 -111.5 -42t-41.5 -115v-305h-80v520h80v-102h2q10 38 55 75t124 37q84 0 135 -50.5t51 -158.5v-321h-80v305z" />
    <glyph glyph-name="o" unicode="o" horiz-adv-x="565" 
d="M283 -10q-105 0 -177.5 69.5t-72.5 200.5t72.5 200.5t177.5 69.5t177.5 -69.5t72.5 -200.5t-72.5 -200.5t-177.5 -69.5zM109 260q0 -99 50 -150.5t124 -51.5q73 0 123 51.5t50 150.5t-50 151t-123 52q-74 0 -124 -52t-50 -151z" />
    <glyph glyph-name="p" unicode="p" horiz-adv-x="588" 
d="M58 -190v710h80v-86q26 46 75.5 71t108.5 25q98 0 166 -68.5t68 -201.5q0 -132 -68 -201t-166 -69q-59 0 -108.5 25.5t-75.5 71.5v-277h-80zM134 260q0 -98 50.5 -150t122.5 -52t122.5 52t50.5 150t-50.5 150.5t-122.5 52.5t-122.5 -52.5t-50.5 -150.5z" />
    <glyph glyph-name="q" unicode="q" horiz-adv-x="588" 
d="M530 -190h-80v277q-26 -46 -75.5 -71.5t-108.5 -25.5q-98 0 -166 69t-68 201q0 133 68 201.5t166 68.5q59 0 108.5 -25t75.5 -71v86h80v-710zM108 260q0 -98 50.5 -150t122.5 -52t122.5 52t50.5 150t-50.5 150.5t-122.5 52.5t-122.5 -52.5t-50.5 -150.5z" />
    <glyph glyph-name="r" unicode="r" horiz-adv-x="365" 
d="M58 0v520h80v-116h2q13 48 54 85t110 37q24 0 39 -5v-68q-19 3 -38 3q-78 0 -122.5 -49t-44.5 -133v-274h-80z" />
    <glyph glyph-name="s" unicode="s" horiz-adv-x="480" 
d="M242 -10q-94 0 -152 39.5t-62 118.5h72q7 -50 46.5 -72.5t96.5 -22.5t92.5 22.5t35.5 68.5q0 36 -22 53t-69 28l-98 23q-138 33 -138 140q0 68 53 105t143 37t143 -39t57 -115h-68q-15 91 -132 91q-118 0 -118 -79q0 -31 20.5 -50t66.5 -29l97 -23q72 -17 109.5 -48.5
t37.5 -92.5q0 -41 -17.5 -72t-48 -48.5t-67 -26t-78.5 -8.5z" />
    <glyph glyph-name="t" unicode="t" horiz-adv-x="325" 
d="M240 -7q-133 0 -133 129v333h-84v65h84v130h80v-130h103v-65h-103v-318q0 -42 16.5 -60t58.5 -18q22 0 36 2v-62q-27 -6 -58 -6z" />
    <glyph glyph-name="u" unicode="u" 
d="M137 215q0 -157 134 -157q66 0 107.5 37.5t45.5 104.5l1 320h80l-1 -520h-80v102h-2q-10 -38 -55 -75t-124 -37q-84 0 -135 50.5t-51 158.5l1 321h80z" />
    <glyph glyph-name="v" unicode="v" horiz-adv-x="548" 
d="M224 0l-201 520h81l169 -444h3l168 444h82l-202 -520h-100z" />
    <glyph glyph-name="w" unicode="w" horiz-adv-x="795" 
d="M171 0l-148 520h77l119 -438h4l139 438h71l140 -438h4l118 438h78l-149 -520h-91l-135 414l-136 -414h-91z" />
    <glyph glyph-name="x" unicode="x" horiz-adv-x="525" 
d="M33 0l185 263l-180 257h89l136 -197l135 197h89l-180 -257l186 -263h-89l-141 204l-141 -204h-89z" />
    <glyph glyph-name="y" unicode="y" horiz-adv-x="535" 
d="M76 -123q103 -15 140 80q15 39 3 68l-196 495h82l163 -426l162 426h83l-224 -563q-36 -90 -86 -124.5t-127 -25.5v70z" />
    <glyph glyph-name="z" unicode="z" horiz-adv-x="498" 
d="M40 0v69l323 383h-313v68h408v-68l-323 -383h323v-69h-418z" />
    <glyph glyph-name="braceleft" unicode="{" horiz-adv-x="285" 
d="M176 -130q-36 0 -61 22t-25 65v278l-45 71l45 73v279q0 43 25 65t61 22h64v-70h-35q-35 0 -35 -33v-268l-45 -68l45 -66v-267q0 -33 35 -33h35v-70h-64z" />
    <glyph glyph-name="bar" unicode="|" horiz-adv-x="220" 
d="M75 -190v990h70v-990h-70z" />
    <glyph glyph-name="braceright" unicode="}" horiz-adv-x="285" 
d="M109 -130h-64v70h35q35 0 35 33v267l45 66l-45 68v268q0 33 -35 33h-35v70h64q36 0 61 -22t25 -65v-279l45 -73l-45 -71v-278q0 -43 -25 -65t-61 -22z" />
    <glyph glyph-name="asciitilde" unicode="~" horiz-adv-x="515" 
d="M356 221q-36 0 -69.5 21.5t-63.5 43.5t-58 22t-42.5 -16.5t-14.5 -38.5h-50q-1 48 28.5 77t73.5 29t101 -43.5t90 -43.5q28 0 42.5 17t14.5 38h50q1 -48 -28.5 -77t-73.5 -29z" />
    <glyph glyph-name="uni00A0" unicode="&#xa0;" horiz-adv-x="230" 
 />
    <glyph glyph-name="exclamdown" unicode="&#xa1;" horiz-adv-x="228" 
d="M82 322h65l8 -502h-82zM58 474q0 23 16.5 39.5t39.5 16.5t40 -16.5t17 -39.5t-17 -39.5t-40 -16.5t-39.5 16.5t-16.5 39.5z" />
    <glyph glyph-name="cent" unicode="&#xa2;" horiz-adv-x="535" 
d="M256 -40v106q-97 9 -160 76.5t-63 186.5q0 120 62.5 187.5t160.5 76.5v107h37v-106q50 -2 92 -17.5t77 -58t43 -107.5h-73q-10 57 -48 86t-91 31v-395q120 6 139 118h73q-12 -96 -72 -139.5t-140 -46.5v-105h-37zM109 329q0 -86 40 -135.5t107 -58.5v391
q-67 -8 -107 -59.5t-40 -137.5z" />
    <glyph glyph-name="sterling" unicode="&#xa3;" horiz-adv-x="545" 
d="M49 45q97 96 96 190q0 29 -10 59h-87v48h67l-10.5 21l-11.5 23t-10 21t-9.5 25t-6.5 24t-5.5 27.5t-1.5 28.5q0 89 61.5 142t157.5 53q97 0 158 -55.5t61 -152.5v-19h-76v17q0 65 -38.5 102.5t-103.5 37.5q-64 0 -103 -35t-39 -93q0 -21 6.5 -45t13 -39.5t20 -42.5
t19.5 -40h134v-48h-117q7 -28 7 -52q0 -93 -93 -181q55 21 120.5 15t113.5 -16t128 10v-70q-52 -13 -107 -10t-96.5 14t-96 9.5t-105.5 -23.5z" />
    <glyph glyph-name="currency" unicode="&#xa4;" horiz-adv-x="565" 
d="M282 252q-74 0 -135 45l-43 -43l-53 52l45 45q-38 57 -38 125t39 127l-46 46l53 52l45 -44q59 43 133 43q75 0 133 -44l46 45l53 -52l-47 -46q39 -56 39 -127q0 -68 -38 -125l46 -45l-53 -52l-44 43q-59 -45 -135 -45zM125 476q0 -61 44.5 -108.5t112.5 -47.5
q67 0 112 48t45 108t-45 108.5t-112 48.5q-68 0 -112.5 -48.5t-44.5 -108.5z" />
    <glyph glyph-name="yen" unicode="&#xa5;" horiz-adv-x="652" 
d="M153 227v46h131v1l-256 426h93l205 -346l206 346h93l-257 -426v-1h133v-46h-133v-50h133v-46h-133v-131h-84v131h-131v46h131v50h-131z" />
    <glyph glyph-name="brokenbar" unicode="&#xa6;" horiz-adv-x="220" 
d="M75 480v320h70v-320h-70zM75 -190v320h70v-320h-70z" />
    <glyph glyph-name="section" unicode="&#xa7;" horiz-adv-x="636" 
d="M314 -236q-121 0 -187 54.5t-77 151.5h88q21 -132 177 -132q87 0 130 32t43 90q0 57 -33.5 86t-98.5 43l-101 21q-187 40 -187 187q0 72 48 119q-38 43 -38 109q0 83 62.5 133t177.5 50q111 0 172 -47t72 -133h-86q-17 106 -158 106q-79 0 -115.5 -31t-36.5 -80
q0 -44 26.5 -72.5t88.5 -42.5l94 -20q104 -22 157.5 -69t53.5 -133q0 -69 -44 -118q34 -43 34 -109q0 -94 -69.5 -144.5t-192.5 -50.5zM156 295q0 -90 115 -115l89 -19q74 -16 116 -46q22 28 22 72q0 56 -33.5 85.5t-96.5 43.5l-97 21q-54 12 -87 34q-28 -29 -28 -76z" />
    <glyph glyph-name="dieresis" unicode="&#xa8;" horiz-adv-x="290" 
d="M240 623q-20 0 -35.5 15t-15.5 35q0 21 15 35.5t36 14.5q20 0 35 -14.5t15 -35.5q0 -20 -15 -35t-35 -15zM0 673q0 21 15 35.5t36 14.5q20 0 35 -14.5t15 -35.5q0 -20 -15 -35t-35 -15t-35.5 15t-15.5 35z" />
    <glyph glyph-name="copyright" unicode="&#xa9;" horiz-adv-x="799" 
d="M400 -7q-150 0 -253.5 101.5t-103.5 255.5q0 153 104 254.5t253 101.5t253 -101.5t104 -254.5q0 -154 -103.5 -255.5t-253.5 -101.5zM94 350q0 -133 88.5 -220t217.5 -87t217.5 87t88.5 220t-89 220t-217 87t-217 -87t-89 -220zM200 350q0 97 58 153.5t144 56.5
q59 0 106.5 -29.5t66.5 -96.5h-54q-26 75 -120 75q-65 0 -106 -41.5t-41 -117.5q0 -75 41 -117t106 -42q95 0 122 77h54q-19 -68 -67.5 -98t-107.5 -30q-86 0 -144 56.5t-58 153.5z" />
    <glyph glyph-name="ordfeminine" unicode="&#xaa;" horiz-adv-x="370" 
d="M140 382q-48 0 -77.5 23t-29.5 70q0 83 110 92l116 9q-1 47 -17.5 67t-60.5 20q-78 0 -78 -55h-51q1 101 129 101q74 0 102.5 -34t28.5 -111v-180h-47l-3 57q-16 -25 -48 -42t-74 -17zM90 480q0 -51 66 -51q42 0 68.5 19.5t34.5 41.5v50l-106 -9q-63 -6 -63 -51z" />
    <glyph glyph-name="guillemotleft" unicode="&#xab;" horiz-adv-x="403" 
d="M363 140l-148 126v65l148 125v-77l-93 -81l93 -80v-78zM40 266v65l148 125v-77l-93 -81l93 -80v-78z" />
    <glyph glyph-name="logicalnot" unicode="&#xac;" horiz-adv-x="515" 
d="M378 133v115h-320v64h400v-179h-80z" />
    <glyph glyph-name="uni00AD" unicode="&#xad;" horiz-adv-x="355" 
d="M40 249v62h275v-62h-275z" />
    <glyph glyph-name="registered" unicode="&#xae;" horiz-adv-x="799" 
d="M400 -7q-150 0 -253.5 101.5t-103.5 255.5q0 153 104 254.5t253 101.5t253 -101.5t104 -254.5q0 -154 -103.5 -255.5t-253.5 -101.5zM94 350q0 -133 88.5 -220t217.5 -87t217.5 87t88.5 220t-89 220t-217 87t-217 -87t-89 -220zM256 163v374h178q64 0 101 -32.5t37 -88.5
q-2 -93 -93 -115l94 -138h-58l-88 133h-118v-133h-53zM309 340h120q47 0 69.5 20.5t22.5 55.5t-22.5 56t-69.5 21h-120v-153z" />
    <glyph glyph-name="macron" unicode="&#xaf;" horiz-adv-x="295" 
d="M0 663v50h295v-50h-295z" />
    <glyph glyph-name="degree" unicode="&#xb0;" horiz-adv-x="369" 
d="M185 423q-63 0 -105 42t-42 105q0 62 42 104t105 42q62 0 104.5 -42t42.5 -104q0 -63 -42.5 -105t-104.5 -42zM95 570q0 -39 25 -64.5t65 -25.5q39 0 64 25.5t25 64.5t-24.5 64t-64.5 25t-65 -25t-25 -64z" />
    <glyph glyph-name="plusminus" unicode="&#xb1;" horiz-adv-x="543" 
d="M234 154v178h-176v71h176v176h75v-176h177v-71h-177v-178h-75zM100 0v63h344v-63h-344z" />
    <glyph glyph-name="uni00B2" unicode="&#xb2;" horiz-adv-x="254" 
d="M40 449q0 37 16.5 64.5t57.5 53.5q23 14 31.5 19.5t16.5 17t8 26.5q0 19 -13 31t-34 12t-34 -13t-13 -36v-7h-36v7q0 37 22 59t61 22t61 -21t22 -54q0 -29 -18 -48.5t-57 -42.5q-52 -31 -52 -64v-3h130v-32h-169v9z" />
    <glyph glyph-name="uni00B3" unicode="&#xb3;" horiz-adv-x="269" 
d="M134 436q-45 0 -69.5 23.5t-24.5 61.5h34q1 -27 17 -41t44 -14q27 0 43 12.5t16 36.5q0 48 -65 48h-11v27h11q26 0 40 13t14 31q0 19 -13 30t-36 11q-52 0 -52 -52h-33q0 39 23 60.5t63 21.5q39 0 60.5 -19.5t21.5 -49.5q0 -44 -46 -57q23 -4 40.5 -20.5t17.5 -45.5
q0 -33 -25.5 -55t-69.5 -22z" />
    <glyph glyph-name="acute" unicode="&#xb4;" horiz-adv-x="174" 
d="M0 582l101 131h73l-101 -131h-73z" />
    <glyph glyph-name="uni00B5" unicode="&#xb5;" 
d="M58 -190v710h80v-304q0 -158 134 -158q71 0 112 42t41 116v304h80v-520h-80v94q-12 -38 -52.5 -71t-109.5 -33q-88 0 -125 63v-243h-80z" />
    <glyph glyph-name="paragraph" unicode="&#xb6;" horiz-adv-x="593" 
d="M310 -220v526h-69q-97 0 -152.5 55.5t-55.5 140.5q0 87 55.5 142.5t152.5 55.5h294v-920h-66v867h-87v-867h-72z" />
    <glyph glyph-name="periodcentered" unicode="&#xb7;" horiz-adv-x="208" 
d="M104 224q-23 0 -39.5 16.5t-16.5 39.5t16.5 39.5t39.5 16.5t40 -16.5t17 -39.5t-17 -39.5t-40 -16.5z" />
    <glyph glyph-name="cedilla" unicode="&#xb8;" horiz-adv-x="160" 
d="M23 -176q36 -1 57 11.5t21 35.5q0 25 -22.5 35t-51.5 -3l-27 32l54 65h61l-45 -50q4 1 12 1q32 0 55 -21.5t23 -57.5q0 -48 -39 -71.5t-98 -23.5v47z" />
    <glyph glyph-name="uni00B9" unicode="&#xb9;" horiz-adv-x="173" 
d="M94 653q-15 -26 -54 -21v32q18 -1 33 10t21 26h34v-261h-34v214z" />
    <glyph glyph-name="ordmasculine" unicode="&#xba;" horiz-adv-x="385" 
d="M193 382q-65 0 -112.5 44t-47.5 120q0 75 47.5 119t112.5 44t112.5 -44t47.5 -119q0 -76 -47.5 -120t-112.5 -44zM88 546q0 -51 30 -81t75 -30t75 29.5t30 81.5q0 51 -30 80t-75 29t-75 -29t-30 -80z" />
    <glyph glyph-name="guillemotright" unicode="&#xbb;" horiz-adv-x="388" 
d="M30 140v78l93 80l-93 81v77l148 -125v-65zM205 140v78l93 80l-93 81v77l148 -125v-65z" />
    <glyph glyph-name="onequarter" unicode="&#xbc;" horiz-adv-x="588" 
d="M94 653q-15 -26 -54 -21v32q18 -1 33 10t21 26h34v-261h-34v214zM47 0l436 700h44l-436 -700h-44zM360 66v28l119 167h34v-167h30v-28h-30v-66h-34v66h-119zM392 94h87v123z" />
    <glyph glyph-name="onehalf" unicode="&#xbd;" horiz-adv-x="585" 
d="M97 653q-15 -26 -54 -21v32q18 -1 33 10t21 26h34v-261h-34v214zM58 0l436 700h44l-436 -700h-44zM372 0v9q0 37 16.5 64.5t57.5 53.5q23 14 31.5 19.5t16.5 17t8 26.5q0 19 -13 31t-34 12t-34 -13t-13 -36v-7h-36v7q0 37 22 59t61 22t61 -21t22 -54q0 -29 -18 -48.5
t-57 -42.5q-52 -31 -52 -64v-3h130v-32h-169z" />
    <glyph glyph-name="threequarters" unicode="&#xbe;" horiz-adv-x="616" 
d="M134 436q-45 0 -69.5 23.5t-24.5 61.5h34q1 -27 17 -41t44 -14q27 0 43 12.5t16 36.5q0 48 -65 48h-11v27h11q26 0 40 13t14 31q0 19 -13 30t-36 11q-52 0 -52 -52h-33q0 39 23 60.5t63 21.5q39 0 60.5 -19.5t21.5 -49.5q0 -44 -46 -57q23 -4 40.5 -20.5t17.5 -45.5
q0 -33 -25.5 -55t-69.5 -22zM88 0l436 700h44l-436 -700h-44zM381 66v28l119 167h34v-167h30v-28h-30v-66h-34v66h-119zM413 94h87v123z" />
    <glyph glyph-name="questiondown" unicode="&#xbf;" horiz-adv-x="524" 
d="M299 282q0 -46 -18 -80.5t-43.5 -55.5t-51 -39.5t-43.5 -44t-18 -58.5q0 -57 36 -89t98 -32q65 0 102.5 39.5t37.5 114.5h80q1 -109 -60 -166.5t-160 -57.5q-95 0 -154.5 50t-59.5 141q0 44 17.5 75.5t42.5 51t49.5 38t42 47t17.5 66.5v43h85v-43zM198 474q0 23 17 39.5
t40 16.5t39.5 -16.5t16.5 -39.5t-16.5 -39.5t-39.5 -16.5t-40 16.5t-17 39.5z" />
    <glyph glyph-name="Agrave" unicode="&#xc0;" horiz-adv-x="682" 
d="M23 0l267 700h102l267 -700h-87l-65 175h-332l-65 -175h-87zM199 239h284l-139 372h-6zM216 893h73l101 -131h-73z" />
    <glyph glyph-name="Aacute" unicode="&#xc1;" horiz-adv-x="682" 
d="M23 0l267 700h102l267 -700h-87l-65 175h-332l-65 -175h-87zM199 239h284l-139 372h-6zM303 762l101 131h73l-101 -131h-73z" />
    <glyph glyph-name="Acircumflex" unicode="&#xc2;" horiz-adv-x="682" 
d="M23 0l267 700h102l267 -700h-87l-65 175h-332l-65 -175h-87zM185 764l101 129h108l101 -129h-74l-80 103l-81 -103h-75zM199 239h284l-139 372h-6z" />
    <glyph glyph-name="Atilde" unicode="&#xc3;" horiz-adv-x="682" 
d="M23 0l267 700h102l267 -700h-87l-65 175h-332l-65 -175h-87zM184 808q0 47 23.5 71.5t62.5 24.5q31 0 54.5 -17t42.5 -34t39 -17t31 13.5t11 30.5h51q0 -47 -23 -71.5t-62 -24.5q-31 0 -54.5 17t-42.5 34t-39 17t-31.5 -13.5t-10.5 -30.5h-52zM199 239h284l-139 372h-6z
" />
    <glyph glyph-name="Adieresis" unicode="&#xc4;" horiz-adv-x="682" 
d="M23 0l267 700h102l267 -700h-87l-65 175h-332l-65 -175h-87zM196 853q0 21 15 35.5t36 14.5q20 0 35 -14.5t15 -35.5q0 -20 -15 -35t-35 -15t-35.5 15t-15.5 35zM199 239h284l-139 372h-6zM385 853q0 21 15 35.5t36 14.5q20 0 35 -14.5t15 -35.5q0 -20 -15 -35t-35 -15
t-35.5 15t-15.5 35z" />
    <glyph glyph-name="Aring" unicode="&#xc5;" horiz-adv-x="682" 
d="M23 0l267 700h102l267 -700h-87l-65 175h-332l-65 -175h-87zM199 239h284l-139 372h-6zM254 836q0 36 25.5 61t62.5 25t62.5 -25t25.5 -61q0 -35 -25.5 -60t-62.5 -25t-62.5 25t-25.5 60zM297 836q0 -19 13 -32t32 -13q20 0 33 13t13 32q0 20 -13 33t-33 13
q-19 0 -32 -13.5t-13 -32.5z" />
    <glyph glyph-name="AE" unicode="&#xc6;" horiz-adv-x="988" 
d="M23 0l456 700h467v-73h-363v-234h333v-67h-333v-253h373v-73h-455v179h-272l-116 -179h-90zM271 244h230v356z" />
    <glyph glyph-name="Ccedilla" unicode="&#xc7;" horiz-adv-x="662" 
d="M299 -176q36 -1 57 11.5t21 35.5q0 25 -22.5 35t-51.5 -3l-27 32l47 57q-129 12 -204.5 104.5t-75.5 253.5q0 173 86 266t230 93q110 0 183 -54.5t90 -158.5h-81q-18 68 -68.5 104.5t-124.5 36.5q-107 0 -169.5 -75t-62.5 -212t62.5 -212.5t169.5 -75.5q74 0 124.5 36.5
t68.5 106.5h81q-16 -99 -82.5 -154t-166.5 -60l-37 -41q4 1 12 1q32 0 55 -21.5t23 -57.5q0 -48 -39 -71.5t-98 -23.5v47z" />
    <glyph glyph-name="Egrave" unicode="&#xc8;" horiz-adv-x="545" 
d="M58 0v700h445v-73h-363v-234h333v-67h-333v-253h373v-73h-455zM156 893h73l101 -131h-73z" />
    <glyph glyph-name="Eacute" unicode="&#xc9;" horiz-adv-x="545" 
d="M58 0v700h445v-73h-363v-234h333v-67h-333v-253h373v-73h-455zM243 762l101 131h73l-101 -131h-73z" />
    <glyph glyph-name="Ecircumflex" unicode="&#xca;" horiz-adv-x="545" 
d="M58 0v700h445v-73h-363v-234h333v-67h-333v-253h373v-73h-455zM125 764l101 129h108l101 -129h-74l-80 103l-81 -103h-75z" />
    <glyph glyph-name="Edieresis" unicode="&#xcb;" horiz-adv-x="545" 
d="M58 0v700h445v-73h-363v-234h333v-67h-333v-253h373v-73h-455zM136 853q0 21 15 35.5t36 14.5q20 0 35 -14.5t15 -35.5q0 -20 -15 -35t-35 -15t-35.5 15t-15.5 35zM325 853q0 21 15 35.5t36 14.5q20 0 35 -14.5t15 -35.5q0 -20 -15 -35t-35 -15t-35.5 15t-15.5 35z" />
    <glyph glyph-name="Igrave" unicode="&#xcc;" horiz-adv-x="198" 
d="M58 0v700h82v-700h-82zM-27 893h74l101 -131h-73z" />
    <glyph glyph-name="Iacute" unicode="&#xcd;" horiz-adv-x="198" 
d="M58 0v700h82v-700h-82zM60 762l101 131h73l-101 -131h-73z" />
    <glyph glyph-name="Icircumflex" unicode="&#xce;" horiz-adv-x="198" 
d="M58 0v700h82v-700h-82zM-58 764l102 129h108l101 -129h-74l-80 103l-81 -103h-76z" />
    <glyph glyph-name="Idieresis" unicode="&#xcf;" horiz-adv-x="198" 
d="M58 0v700h82v-700h-82zM-47 853q0 21 15 35.5t36 14.5q20 0 35 -14.5t15 -35.5q0 -20 -15 -35t-35 -15t-35.5 15t-15.5 35zM142 853q0 21 15 35.5t36 14.5q20 0 35 -14.5t15 -35.5q0 -20 -15 -35t-35 -15t-35.5 15t-15.5 35z" />
    <glyph glyph-name="Eth" unicode="&#xd0;" horiz-adv-x="681" 
d="M81 0v317h-61v62h61v321h226q165 0 248 -90t83 -260q0 -169 -83.5 -259.5t-247.5 -90.5h-226zM163 73h137q132 0 193.5 68t61.5 209t-61.5 209t-193.5 68h-137v-248h132v-62h-132v-244z" />
    <glyph glyph-name="Ntilde" unicode="&#xd1;" horiz-adv-x="662" 
d="M58 0v700h92l370 -573h2v573h83v-700h-95l-367 571h-3v-571h-82zM174 808q0 47 23.5 71.5t62.5 24.5q31 0 54.5 -17t42.5 -34t39 -17t31 13.5t11 30.5h51q0 -47 -23 -71.5t-62 -24.5q-31 0 -54.5 17t-42.5 34t-39 17t-31.5 -13.5t-10.5 -30.5h-52z" />
    <glyph glyph-name="Ograve" unicode="&#xd2;" horiz-adv-x="720" 
d="M360 -10q-141 0 -229 95t-88 265q0 169 88 264t229 95t229.5 -95t88.5 -264t-88.5 -264.5t-229.5 -95.5zM127 350q0 -138 64 -213t169 -75t169.5 74.5t64.5 213.5q0 138 -64 212.5t-170 74.5q-105 0 -169 -74.5t-64 -212.5zM235 893h73l101 -131h-73z" />
    <glyph glyph-name="Oacute" unicode="&#xd3;" horiz-adv-x="720" 
d="M360 -10q-141 0 -229 95t-88 265q0 169 88 264t229 95t229.5 -95t88.5 -264t-88.5 -264.5t-229.5 -95.5zM127 350q0 -138 64 -213t169 -75t169.5 74.5t64.5 213.5q0 138 -64 212.5t-170 74.5q-105 0 -169 -74.5t-64 -212.5zM322 762l101 131h73l-101 -131h-73z" />
    <glyph glyph-name="Ocircumflex" unicode="&#xd4;" horiz-adv-x="720" 
d="M360 -10q-141 0 -229 95t-88 265q0 169 88 264t229 95t229.5 -95t88.5 -264t-88.5 -264.5t-229.5 -95.5zM127 350q0 -138 64 -213t169 -75t169.5 74.5t64.5 213.5q0 138 -64 212.5t-170 74.5q-105 0 -169 -74.5t-64 -212.5zM204 764l101 129h108l101 -129h-74l-80 103
l-81 -103h-75z" />
    <glyph glyph-name="Otilde" unicode="&#xd5;" horiz-adv-x="720" 
d="M360 -10q-141 0 -229 95t-88 265q0 169 88 264t229 95t229.5 -95t88.5 -264t-88.5 -264.5t-229.5 -95.5zM127 350q0 -138 64 -213t169 -75t169.5 74.5t64.5 213.5q0 138 -64 212.5t-170 74.5q-105 0 -169 -74.5t-64 -212.5zM203 808q0 47 23.5 71.5t62.5 24.5
q31 0 54.5 -17t42.5 -34t39 -17t31 13.5t11 30.5h51q0 -47 -23 -71.5t-62 -24.5q-31 0 -54.5 17t-42.5 34t-39 17t-31.5 -13.5t-10.5 -30.5h-52z" />
    <glyph glyph-name="Odieresis" unicode="&#xd6;" horiz-adv-x="720" 
d="M360 -10q-141 0 -229 95t-88 265q0 169 88 264t229 95t229.5 -95t88.5 -264t-88.5 -264.5t-229.5 -95.5zM127 350q0 -138 64 -213t169 -75t169.5 74.5t64.5 213.5q0 138 -64 212.5t-170 74.5q-105 0 -169 -74.5t-64 -212.5zM215 853q0 21 15 35.5t36 14.5q20 0 35 -14.5
t15 -35.5q0 -20 -15 -35t-35 -15t-35.5 15t-15.5 35zM404 853q0 21 15 35.5t36 14.5q20 0 35 -14.5t15 -35.5q0 -20 -15 -35t-35 -15t-35.5 15t-15.5 35z" />
    <glyph glyph-name="multiply" unicode="&#xd7;" horiz-adv-x="452" 
d="M100 75l-50 49l127 127l-127 127l50 49l126 -126l126 126l50 -49l-126 -127l126 -127l-50 -49l-126 126z" />
    <glyph glyph-name="Oslash" unicode="&#xd8;" horiz-adv-x="720" 
d="M127 -50l48 96q-132 96 -132 304q0 169 88 264t229 95q71 0 132 -26l31 62h71l-47 -93q131 -95 131 -302q0 -169 -88.5 -264.5t-229.5 -95.5q-69 0 -130 25l-33 -65h-70zM127 350q0 -158 83 -233l249 500q-46 20 -99 20q-105 0 -169 -74.5t-64 -212.5zM263 82
q45 -20 97 -20q105 0 169.5 74.5t64.5 213.5q0 155 -82 231z" />
    <glyph glyph-name="Ugrave" unicode="&#xd9;" horiz-adv-x="654" 
d="M327 -10q-125 0 -197 72t-72 203v435h83v-430q0 -100 49 -153.5t137 -53.5t137 53.5t49 153.5v430h83v-435q0 -131 -72 -203t-197 -72zM199 893h73l101 -131h-73z" />
    <glyph glyph-name="Uacute" unicode="&#xda;" horiz-adv-x="654" 
d="M327 -10q-125 0 -197 72t-72 203v435h83v-430q0 -100 49 -153.5t137 -53.5t137 53.5t49 153.5v430h83v-435q0 -131 -72 -203t-197 -72zM285 762l101 131h73l-101 -131h-73z" />
    <glyph glyph-name="Ucircumflex" unicode="&#xdb;" horiz-adv-x="654" 
d="M327 -10q-125 0 -197 72t-72 203v435h83v-430q0 -100 49 -153.5t137 -53.5t137 53.5t49 153.5v430h83v-435q0 -131 -72 -203t-197 -72zM168 764l101 129h108l101 -129h-74l-80 103l-81 -103h-75z" />
    <glyph glyph-name="Udieresis" unicode="&#xdc;" horiz-adv-x="654" 
d="M327 -10q-125 0 -197 72t-72 203v435h83v-430q0 -100 49 -153.5t137 -53.5t137 53.5t49 153.5v430h83v-435q0 -131 -72 -203t-197 -72zM182 853q0 21 15 35.5t36 14.5q20 0 35 -14.5t15 -35.5q0 -20 -15 -35t-35 -15t-35.5 15t-15.5 35zM371 853q0 21 15 35.5t36 14.5
q20 0 35 -14.5t15 -35.5q0 -20 -15 -35t-35 -15t-35.5 15t-15.5 35z" />
    <glyph glyph-name="Yacute" unicode="&#xdd;" horiz-adv-x="652" 
d="M284 0v274l-256 426h93l205 -346l206 346h93l-257 -426v-274h-84zM288 762l101 131h73l-101 -131h-73z" />
    <glyph glyph-name="Thorn" unicode="&#xde;" horiz-adv-x="592" 
d="M58 0v700h82v-134h173q121 0 184 -57t63 -159q0 -101 -63 -158t-184 -57h-173v-135h-82zM140 208h170q82 0 124 36.5t42 105.5q0 70 -42 106.5t-124 36.5h-170v-285z" />
    <glyph glyph-name="germandbls" unicode="&#xdf;" horiz-adv-x="578" 
d="M58 512q0 197 222 197q106 0 164 -43.5t58 -128.5q0 -59 -28.5 -96t-80.5 -48q72 -14 112.5 -61.5t40.5 -126.5q0 -205 -263 -205h-62v70h59q186 0 186 141q0 73 -50.5 108.5t-137.5 35.5h-57v64h57q144 0 144 108q0 112 -142 112q-72 0 -107 -30.5t-35 -96.5v-512h-80
v512z" />
    <glyph glyph-name="agrave" unicode="&#xe0;" horiz-adv-x="538" 
d="M204 -10q-78 0 -124.5 36t-46.5 107q0 130 164 149l133 15q70 8 70 34v21q0 64 -31.5 90t-98.5 26q-66 0 -98 -23t-32 -74v-12h-77v19q0 152 210 152q107 0 157 -42.5t50 -135.5v-352h-75v90h-4q-15 -32 -64.5 -66t-132.5 -34zM113 137q0 -83 110 -83q83 0 130 43t47 89
v75q-7 -18 -75 -27l-109 -13q-56 -7 -79.5 -27.5t-23.5 -56.5zM151 713h73l101 -131h-73z" />
    <glyph glyph-name="aacute" unicode="&#xe1;" horiz-adv-x="538" 
d="M204 -10q-78 0 -124.5 36t-46.5 107q0 130 164 149l133 15q70 8 70 34v21q0 64 -31.5 90t-98.5 26q-66 0 -98 -23t-32 -74v-12h-77v19q0 152 210 152q107 0 157 -42.5t50 -135.5v-352h-75v90h-4q-15 -32 -64.5 -66t-132.5 -34zM113 137q0 -83 110 -83q83 0 130 43t47 89
v75q-7 -18 -75 -27l-109 -13q-56 -7 -79.5 -27.5t-23.5 -56.5zM238 582l101 131h73l-101 -131h-73z" />
    <glyph glyph-name="acircumflex" unicode="&#xe2;" horiz-adv-x="538" 
d="M204 -10q-78 0 -124.5 36t-46.5 107q0 130 164 149l133 15q70 8 70 34v21q0 64 -31.5 90t-98.5 26q-66 0 -98 -23t-32 -74v-12h-77v19q0 152 210 152q107 0 157 -42.5t50 -135.5v-352h-75v90h-4q-15 -32 -64.5 -66t-132.5 -34zM113 137q0 -83 110 -83q83 0 130 43t47 89
v75q-7 -18 -75 -27l-109 -13q-56 -7 -79.5 -27.5t-23.5 -56.5zM120 584l101 129h108l101 -129h-74l-80 103l-81 -103h-75z" />
    <glyph glyph-name="atilde" unicode="&#xe3;" horiz-adv-x="538" 
d="M204 -10q-78 0 -124.5 36t-46.5 107q0 130 164 149l133 15q70 8 70 34v21q0 64 -31.5 90t-98.5 26q-66 0 -98 -23t-32 -74v-12h-77v19q0 152 210 152q107 0 157 -42.5t50 -135.5v-352h-75v90h-4q-15 -32 -64.5 -66t-132.5 -34zM113 137q0 -83 110 -83q83 0 130 43t47 89
v75q-7 -18 -75 -27l-109 -13q-56 -7 -79.5 -27.5t-23.5 -56.5zM119 628q0 47 23.5 71.5t62.5 24.5q31 0 54.5 -17t42.5 -34t39 -17t31 13.5t11 30.5h51q0 -47 -23 -71.5t-62 -24.5q-31 0 -54.5 17t-42.5 34t-39 17t-31.5 -13.5t-10.5 -30.5h-52z" />
    <glyph glyph-name="adieresis" unicode="&#xe4;" horiz-adv-x="538" 
d="M204 -10q-78 0 -124.5 36t-46.5 107q0 130 164 149l133 15q70 8 70 34v21q0 64 -31.5 90t-98.5 26q-66 0 -98 -23t-32 -74v-12h-77v19q0 152 210 152q107 0 157 -42.5t50 -135.5v-352h-75v90h-4q-15 -32 -64.5 -66t-132.5 -34zM113 137q0 -83 110 -83q83 0 130 43t47 89
v75q-7 -18 -75 -27l-109 -13q-56 -7 -79.5 -27.5t-23.5 -56.5zM131 673q0 21 15 35.5t36 14.5q20 0 35 -14.5t15 -35.5q0 -20 -15 -35t-35 -15t-35.5 15t-15.5 35zM320 673q0 21 15 35.5t36 14.5q20 0 35 -14.5t15 -35.5q0 -20 -15 -35t-35 -15t-35.5 15t-15.5 35z" />
    <glyph glyph-name="aring" unicode="&#xe5;" horiz-adv-x="538" 
d="M204 -10q-78 0 -124.5 36t-46.5 107q0 130 164 149l133 15q70 8 70 34v21q0 64 -31.5 90t-98.5 26q-66 0 -98 -23t-32 -74v-12h-77v19q0 152 210 152q107 0 157 -42.5t50 -135.5v-352h-75v90h-4q-15 -32 -64.5 -66t-132.5 -34zM113 137q0 -83 110 -83q83 0 130 43t47 89
v75q-7 -18 -75 -27l-109 -13q-56 -7 -79.5 -27.5t-23.5 -56.5zM189 656q0 36 25.5 61t62.5 25t62.5 -25t25.5 -61q0 -35 -25.5 -60t-62.5 -25t-62.5 25t-25.5 60zM232 656q0 -19 13 -32t32 -13q20 0 33 13t13 32q0 20 -13.5 33t-32.5 13t-32 -13.5t-13 -32.5z" />
    <glyph glyph-name="ae" unicode="&#xe6;" horiz-adv-x="903" 
d="M207 -10q-81 0 -127.5 38t-46.5 110q0 73 48.5 111.5t138.5 38.5h175v76q0 104 -128 104t-128 -91v-11h-73v18q0 72 53.5 109t151.5 37q73 0 116.5 -24.5t60.5 -82.5q58 107 191 107q105 0 168.5 -66t63.5 -192q0 -22 -3 -37h-395q2 -89 46.5 -135t124.5 -46
q115 0 147 92h73q-46 -156 -221 -156q-156 0 -208 133q-25 -56 -84.5 -94.5t-143.5 -38.5zM113 143q0 -44 31 -67.5t83 -23.5q78 0 123 45t45 90v50h-155q-67 0 -97 -26.5t-30 -67.5zM473 296h321q-1 81 -42.5 126t-113.5 45q-71 0 -115 -43.5t-50 -127.5z" />
    <glyph glyph-name="ccedilla" unicode="&#xe7;" horiz-adv-x="535" 
d="M223 -176q36 -1 57 11.5t21 35.5q0 25 -22.5 35t-51.5 -3l-27 32l47 57q-94 11 -154 79.5t-60 187.5q0 132 71.5 201.5t179.5 69.5q38 0 72 -9t66 -29t54 -58.5t29 -90.5h-73q-11 61 -52 90t-97 29q-78 0 -126 -53t-48 -150q0 -96 48 -148t126 -52q57 0 97.5 29t51.5 92
h73q-12 -94 -67.5 -139t-130.5 -50l-37 -41q4 1 12 1q32 0 55 -21.5t23 -57.5q0 -48 -39 -71.5t-98 -23.5v47z" />
    <glyph glyph-name="egrave" unicode="&#xe8;" horiz-adv-x="540" 
d="M280 -10q-112 0 -179.5 68.5t-67.5 200.5q0 135 68 203t175 68q105 0 168.5 -66t63.5 -192q0 -22 -3 -37h-395q9 -181 171 -181q115 0 147 92h73q-46 -156 -221 -156zM110 296h321q-1 81 -42.5 126t-113.5 45q-71 0 -115 -43.5t-50 -127.5zM147 713h73l101 -131h-73z" />
    <glyph glyph-name="eacute" unicode="&#xe9;" horiz-adv-x="540" 
d="M280 -10q-112 0 -179.5 68.5t-67.5 200.5q0 135 68 203t175 68q105 0 168.5 -66t63.5 -192q0 -22 -3 -37h-395q9 -181 171 -181q115 0 147 92h73q-46 -156 -221 -156zM110 296h321q-1 81 -42.5 126t-113.5 45q-71 0 -115 -43.5t-50 -127.5zM234 582l101 131h73l-101 -131
h-73z" />
    <glyph glyph-name="ecircumflex" unicode="&#xea;" horiz-adv-x="540" 
d="M280 -10q-112 0 -179.5 68.5t-67.5 200.5q0 135 68 203t175 68q105 0 168.5 -66t63.5 -192q0 -22 -3 -37h-395q9 -181 171 -181q115 0 147 92h73q-46 -156 -221 -156zM110 296h321q-1 81 -42.5 126t-113.5 45q-71 0 -115 -43.5t-50 -127.5zM116 584l101 129h108l101 -129
h-74l-80 103l-81 -103h-75z" />
    <glyph glyph-name="edieresis" unicode="&#xeb;" horiz-adv-x="540" 
d="M280 -10q-112 0 -179.5 68.5t-67.5 200.5q0 135 68 203t175 68q105 0 168.5 -66t63.5 -192q0 -22 -3 -37h-395q9 -181 171 -181q115 0 147 92h73q-46 -156 -221 -156zM110 296h321q-1 81 -42.5 126t-113.5 45q-71 0 -115 -43.5t-50 -127.5zM127 673q0 21 15 35.5t36 14.5
q20 0 35 -14.5t15 -35.5q0 -20 -15 -35t-35 -15t-35.5 15t-15.5 35zM316 673q0 21 15 35.5t36 14.5q20 0 35 -14.5t15 -35.5q0 -20 -15 -35t-35 -15t-35.5 15t-15.5 35z" />
    <glyph glyph-name="igrave" unicode="&#xec;" horiz-adv-x="174" 
d="M47 0v520h80v-520h-80zM-38 713h73l101 -131h-73z" />
    <glyph glyph-name="iacute" unicode="&#xed;" horiz-adv-x="174" 
d="M47 0v520h80v-520h-80zM49 582l101 131h73l-101 -131h-73z" />
    <glyph glyph-name="icircumflex" unicode="&#xee;" horiz-adv-x="174" 
d="M47 0v520h80v-520h-80zM-69 584l101 129h108l101 -129h-74l-80 103l-81 -103h-75z" />
    <glyph glyph-name="idieresis" unicode="&#xef;" horiz-adv-x="174" 
d="M47 0v520h80v-520h-80zM-59 673q0 21 15 35.5t36 14.5t36 -14.5t15 -35.5q0 -20 -15 -35t-36 -15q-20 0 -35.5 15t-15.5 35zM131 673q0 21 15 35.5t36 14.5q20 0 35 -14.5t15 -35.5q0 -20 -15 -35t-35 -15t-35.5 15t-15.5 35z" />
    <glyph glyph-name="eth" unicode="&#xf0;" horiz-adv-x="573" 
d="M274 -10q-104 0 -172.5 70.5t-68.5 201.5q0 122 61.5 190t169.5 68q81 0 130 -46q-44 72 -91 132h-113v42h79q-44 50 -46 52h84l42 -52h135v-42h-103q80 -105 107.5 -175t27.5 -163q0 -135 -68.5 -206.5t-173.5 -71.5zM112 262q0 -100 46.5 -151t116.5 -51t115.5 50.5
t45.5 151.5q0 188 -161 188q-78 0 -120.5 -46.5t-42.5 -141.5z" />
    <glyph glyph-name="ntilde" unicode="&#xf1;" 
d="M425 305q0 157 -134 157q-70 0 -111.5 -42t-41.5 -115v-305h-80v520h80v-102h2q10 38 55 75t124 37q84 0 135 -50.5t51 -158.5v-321h-80v305zM125 628q0 47 23.5 71.5t62.5 24.5q31 0 54.5 -17t42.5 -34t39 -17t31 13.5t11 30.5h51q0 -47 -23 -71.5t-62 -24.5
q-31 0 -54.5 17t-42.5 34t-39 17t-31.5 -13.5t-10.5 -30.5h-52z" />
    <glyph glyph-name="ograve" unicode="&#xf2;" horiz-adv-x="565" 
d="M283 -10q-105 0 -177.5 69.5t-72.5 200.5t72.5 200.5t177.5 69.5t177.5 -69.5t72.5 -200.5t-72.5 -200.5t-177.5 -69.5zM109 260q0 -99 50 -150.5t124 -51.5q73 0 123 51.5t50 150.5t-50 151t-123 52q-74 0 -124 -52t-50 -151zM158 713h73l101 -131h-73z" />
    <glyph glyph-name="oacute" unicode="&#xf3;" horiz-adv-x="565" 
d="M283 -10q-105 0 -177.5 69.5t-72.5 200.5t72.5 200.5t177.5 69.5t177.5 -69.5t72.5 -200.5t-72.5 -200.5t-177.5 -69.5zM109 260q0 -99 50 -150.5t124 -51.5q73 0 123 51.5t50 150.5t-50 151t-123 52q-74 0 -124 -52t-50 -151zM244 582l101 131h73l-101 -131h-73z" />
    <glyph glyph-name="ocircumflex" unicode="&#xf4;" horiz-adv-x="565" 
d="M283 -10q-105 0 -177.5 69.5t-72.5 200.5t72.5 200.5t177.5 69.5t177.5 -69.5t72.5 -200.5t-72.5 -200.5t-177.5 -69.5zM109 260q0 -99 50 -150.5t124 -51.5q73 0 123 51.5t50 150.5t-50 151t-123 52q-74 0 -124 -52t-50 -151zM127 584l101 129h108l101 -129h-74l-80 103
l-81 -103h-75z" />
    <glyph glyph-name="otilde" unicode="&#xf5;" horiz-adv-x="565" 
d="M283 -10q-105 0 -177.5 69.5t-72.5 200.5t72.5 200.5t177.5 69.5t177.5 -69.5t72.5 -200.5t-72.5 -200.5t-177.5 -69.5zM109 260q0 -99 50 -150.5t124 -51.5q73 0 123 51.5t50 150.5t-50 151t-123 52q-74 0 -124 -52t-50 -151zM125 628q0 47 23.5 71.5t62.5 24.5
q31 0 54.5 -17t42.5 -34t39 -17t31 13.5t11 30.5h51q0 -47 -23 -71.5t-62 -24.5q-31 0 -54.5 17t-42.5 34t-39 17t-31.5 -13.5t-10.5 -30.5h-52z" />
    <glyph glyph-name="odieresis" unicode="&#xf6;" horiz-adv-x="565" 
d="M283 -10q-105 0 -177.5 69.5t-72.5 200.5t72.5 200.5t177.5 69.5t177.5 -69.5t72.5 -200.5t-72.5 -200.5t-177.5 -69.5zM109 260q0 -99 50 -150.5t124 -51.5q73 0 123 51.5t50 150.5t-50 151t-123 52q-74 0 -124 -52t-50 -151zM137 673q0 21 15 35.5t36 14.5
q20 0 35 -14.5t15 -35.5q0 -20 -15 -35t-35 -15t-35.5 15t-15.5 35zM326 673q0 21 15 35.5t36 14.5q20 0 35 -14.5t15 -35.5q0 -20 -15 -35t-35 -15t-35.5 15t-15.5 35z" />
    <glyph glyph-name="divide" unicode="&#xf7;" horiz-adv-x="413" 
d="M207 399q-16 0 -27.5 11.5t-11.5 27.5t11.5 27t27.5 11t27.5 -11t11.5 -27t-11.5 -27.5t-27.5 -11.5zM58 249v62h297v-62h-297zM168 122q0 16 11.5 27.5t27.5 11.5t27.5 -11.5t11.5 -27.5t-11.5 -27.5t-27.5 -11.5t-27.5 11.5t-11.5 27.5z" />
    <glyph glyph-name="oslash" unicode="&#xf8;" horiz-adv-x="565" 
d="M100 -50l40 82q-107 71 -107 228q0 131 72.5 200.5t177.5 69.5q48 0 90 -15l31 63h63l-43 -88q109 -72 109 -230q0 -131 -72.5 -200.5t-177.5 -69.5q-50 0 -94 16l-27 -56h-62zM109 260q0 -108 62 -162l172 355q-27 10 -60 10q-74 0 -124 -52t-50 -151zM220 69
q31 -11 63 -11q73 0 123 51.5t50 150.5q0 110 -64 164z" />
    <glyph glyph-name="ugrave" unicode="&#xf9;" 
d="M137 215q0 -157 134 -157q66 0 107.5 37.5t45.5 104.5l1 320h80l-1 -520h-80v102h-2q-10 -38 -55 -75t-124 -37q-84 0 -135 50.5t-51 158.5l1 321h80zM153 713h73l101 -131h-73z" />
    <glyph glyph-name="uacute" unicode="&#xfa;" 
d="M137 215q0 -157 134 -157q66 0 107.5 37.5t45.5 104.5l1 320h80l-1 -520h-80v102h-2q-10 -38 -55 -75t-124 -37q-84 0 -135 50.5t-51 158.5l1 321h80zM239 582l101 131h73l-101 -131h-73z" />
    <glyph glyph-name="ucircumflex" unicode="&#xfb;" 
d="M137 215q0 -157 134 -157q66 0 107.5 37.5t45.5 104.5l1 320h80l-1 -520h-80v102h-2q-10 -38 -55 -75t-124 -37q-84 0 -135 50.5t-51 158.5l1 321h80zM122 584l101 129h108l101 -129h-74l-80 103l-81 -103h-75z" />
    <glyph glyph-name="udieresis" unicode="&#xfc;" 
d="M137 215q0 -157 134 -157q66 0 107.5 37.5t45.5 104.5l1 320h80l-1 -520h-80v102h-2q-10 -38 -55 -75t-124 -37q-84 0 -135 50.5t-51 158.5l1 321h80zM132 673q0 21 15 35.5t36 14.5q20 0 35 -14.5t15 -35.5q0 -20 -15 -35t-35 -15t-35.5 15t-15.5 35zM321 673
q0 21 15 35.5t36 14.5q20 0 35 -14.5t15 -35.5q0 -20 -15 -35t-35 -15t-35.5 15t-15.5 35z" />
    <glyph glyph-name="yacute" unicode="&#xfd;" horiz-adv-x="535" 
d="M76 -123q103 -15 140 80q15 39 3 68l-196 495h82l163 -426l162 426h83l-224 -563q-36 -90 -86 -124.5t-127 -25.5v70zM231 582l101 131h73l-101 -131h-73z" />
    <glyph glyph-name="thorn" unicode="&#xfe;" horiz-adv-x="588" 
d="M58 -190v890h80v-266q27 46 76 71t108 25q98 0 166 -68.5t68 -201.5q0 -132 -68 -201t-166 -69q-59 0 -108.5 25.5t-75.5 71.5v-277h-80zM134 260q0 -98 50.5 -150t122.5 -52t122.5 52t50.5 150t-50.5 150.5t-122.5 52.5t-122.5 -52.5t-50.5 -150.5z" />
    <glyph glyph-name="ydieresis" unicode="&#xff;" horiz-adv-x="535" 
d="M76 -123q103 -15 140 80q15 39 3 68l-196 495h82l163 -426l162 426h83l-224 -563q-36 -90 -86 -124.5t-127 -25.5v70zM124 673q0 21 15 35.5t36 14.5q20 0 35 -14.5t15 -35.5q0 -20 -15 -35t-35 -15t-35.5 15t-15.5 35zM313 673q0 21 15 35.5t36 14.5q20 0 35 -14.5
t15 -35.5q0 -20 -15 -35t-35 -15t-35.5 15t-15.5 35z" />
    <glyph glyph-name="Amacron" unicode="&#x100;" horiz-adv-x="682" 
d="M23 0l267 700h102l267 -700h-87l-65 175h-332l-65 -175h-87zM194 843v50h295v-50h-295zM199 239h284l-139 372h-6z" />
    <glyph glyph-name="amacron" unicode="&#x101;" horiz-adv-x="538" 
d="M204 -10q-78 0 -124.5 36t-46.5 107q0 130 164 149l133 15q70 8 70 34v21q0 64 -31.5 90t-98.5 26q-66 0 -98 -23t-32 -74v-12h-77v19q0 152 210 152q107 0 157 -42.5t50 -135.5v-352h-75v90h-4q-15 -32 -64.5 -66t-132.5 -34zM113 137q0 -83 110 -83q83 0 130 43t47 89
v75q-7 -18 -75 -27l-109 -13q-56 -7 -79.5 -27.5t-23.5 -56.5zM129 663v50h295v-50h-295z" />
    <glyph glyph-name="Abreve" unicode="&#x102;" horiz-adv-x="682" 
d="M23 0l267 700h102l267 -700h-87l-65 175h-332l-65 -175h-87zM199 239h284l-139 372h-6zM201 893h56q3 -78 84 -78q82 0 85 78h55q0 -56 -34.5 -92t-105.5 -36t-105.5 36t-34.5 92z" />
    <glyph glyph-name="abreve" unicode="&#x103;" horiz-adv-x="538" 
d="M204 -10q-78 0 -124.5 36t-46.5 107q0 130 164 149l133 15q70 8 70 34v21q0 64 -31.5 90t-98.5 26q-66 0 -98 -23t-32 -74v-12h-77v19q0 152 210 152q107 0 157 -42.5t50 -135.5v-352h-75v90h-4q-15 -32 -64.5 -66t-132.5 -34zM113 137q0 -83 110 -83q83 0 130 43t47 89
v75q-7 -18 -75 -27l-109 -13q-56 -7 -79.5 -27.5t-23.5 -56.5zM136 713h56q3 -78 84 -78q82 0 85 78h55q0 -56 -34.5 -92t-105.5 -36t-105.5 36t-34.5 92z" />
    <glyph glyph-name="Aogonek" unicode="&#x104;" horiz-adv-x="682" 
d="M23 0l267 700h102l267 -700q-57 0 -87.5 -23t-30.5 -58q0 -32 24.5 -47.5t62.5 -8.5v-48q-52 -13 -100.5 12.5t-48.5 83.5q0 40 24.5 68.5t61.5 39.5l-58 156h-332l-65 -175h-87zM199 239h284l-139 372h-6z" />
    <glyph glyph-name="aogonek" unicode="&#x105;" horiz-adv-x="538" 
d="M204 -10q-78 0 -124.5 36t-46.5 107q0 130 164 149l133 15q70 8 70 34v21q0 64 -31.5 90t-98.5 26q-66 0 -98 -23t-32 -74v-12h-77v19q0 152 210 152q107 0 157 -42.5t50 -135.5v-352h-1q-57 0 -87.5 -23t-30.5 -58q0 -32 24.5 -47.5t62.5 -8.5v-48q-52 -13 -100.5 12.5
t-48.5 83.5q0 45 31 75.5t75 36.5v67h-4q-15 -32 -64.5 -66t-132.5 -34zM113 137q0 -83 110 -83q83 0 130 43t47 89v75q-7 -18 -75 -27l-109 -13q-56 -7 -79.5 -27.5t-23.5 -56.5z" />
    <glyph glyph-name="Cacute" unicode="&#x106;" horiz-adv-x="662" 
d="M359 -10q-143 0 -229.5 93.5t-86.5 266.5t86 266t230 93q110 0 183 -54.5t90 -158.5h-81q-18 68 -68.5 104.5t-124.5 36.5q-107 0 -169.5 -75t-62.5 -212t62.5 -212.5t169.5 -75.5q74 0 124.5 36.5t68.5 106.5h81q-17 -105 -90 -160t-183 -55zM321 762l101 131h73
l-101 -131h-73z" />
    <glyph glyph-name="cacute" unicode="&#x107;" horiz-adv-x="535" 
d="M284 -10q-108 0 -179.5 69t-71.5 200q0 132 71.5 201.5t179.5 69.5q38 0 72 -9t66 -29t54 -58.5t29 -90.5h-73q-11 61 -52 90t-97 29q-78 0 -126 -53t-48 -150q0 -96 48 -148t126 -52q57 0 97.5 29t51.5 92h73q-8 -70 -45 -114.5t-80.5 -60t-95.5 -15.5zM240 582l101 131
h73l-101 -131h-73z" />
    <glyph glyph-name="Ccircumflex" unicode="&#x108;" horiz-adv-x="662" 
d="M359 -10q-143 0 -229.5 93.5t-86.5 266.5t86 266t230 93q110 0 183 -54.5t90 -158.5h-81q-18 68 -68.5 104.5t-124.5 36.5q-107 0 -169.5 -75t-62.5 -212t62.5 -212.5t169.5 -75.5q74 0 124.5 36.5t68.5 106.5h81q-17 -105 -90 -160t-183 -55zM203 764l101 129h108
l101 -129h-74l-80 103l-81 -103h-75z" />
    <glyph glyph-name="ccircumflex" unicode="&#x109;" horiz-adv-x="535" 
d="M284 -10q-108 0 -179.5 69t-71.5 200q0 132 71.5 201.5t179.5 69.5q38 0 72 -9t66 -29t54 -58.5t29 -90.5h-73q-11 61 -52 90t-97 29q-78 0 -126 -53t-48 -150q0 -96 48 -148t126 -52q57 0 97.5 29t51.5 92h73q-8 -70 -45 -114.5t-80.5 -60t-95.5 -15.5zM122 584l101 129
h108l101 -129h-74l-80 103l-81 -103h-75z" />
    <glyph glyph-name="Cdotaccent" unicode="&#x10a;" horiz-adv-x="662" 
d="M359 -10q-143 0 -229.5 93.5t-86.5 266.5t86 266t230 93q110 0 183 -54.5t90 -158.5h-81q-18 68 -68.5 104.5t-124.5 36.5q-107 0 -169.5 -75t-62.5 -212t62.5 -212.5t169.5 -75.5q74 0 124.5 36.5t68.5 106.5h81q-17 -105 -90 -160t-183 -55zM309 853q0 21 15 35.5
t36 14.5q20 0 35 -14.5t15 -35.5q0 -20 -15 -35t-35 -15t-35.5 15t-15.5 35z" />
    <glyph glyph-name="cdotaccent" unicode="&#x10b;" horiz-adv-x="535" 
d="M284 -10q-108 0 -179.5 69t-71.5 200q0 132 71.5 201.5t179.5 69.5q38 0 72 -9t66 -29t54 -58.5t29 -90.5h-73q-11 61 -52 90t-97 29q-78 0 -126 -53t-48 -150q0 -96 48 -148t126 -52q57 0 97.5 29t51.5 92h73q-8 -70 -45 -114.5t-80.5 -60t-95.5 -15.5zM228 673
q0 21 15 35.5t36 14.5q20 0 35 -14.5t15 -35.5q0 -20 -15 -35t-35 -15t-35.5 15t-15.5 35z" />
    <glyph glyph-name="Ccaron" unicode="&#x10c;" horiz-adv-x="662" 
d="M359 -10q-143 0 -229.5 93.5t-86.5 266.5t86 266t230 93q110 0 183 -54.5t90 -158.5h-81q-18 68 -68.5 104.5t-124.5 36.5q-107 0 -169.5 -75t-62.5 -212t62.5 -212.5t169.5 -75.5q74 0 124.5 36.5t68.5 106.5h81q-17 -105 -90 -160t-183 -55zM198 892h75l81 -103l80 103
h74l-101 -129h-108z" />
    <glyph glyph-name="ccaron" unicode="&#x10d;" horiz-adv-x="535" 
d="M284 -10q-108 0 -179.5 69t-71.5 200q0 132 71.5 201.5t179.5 69.5q38 0 72 -9t66 -29t54 -58.5t29 -90.5h-73q-11 61 -52 90t-97 29q-78 0 -126 -53t-48 -150q0 -96 48 -148t126 -52q57 0 97.5 29t51.5 92h73q-8 -70 -45 -114.5t-80.5 -60t-95.5 -15.5zM117 712h75
l81 -103l80 103h74l-101 -129h-108z" />
    <glyph glyph-name="Dcaron" unicode="&#x10e;" horiz-adv-x="658" 
d="M58 0v700h226q165 0 248 -90t83 -260q0 -169 -83.5 -259.5t-247.5 -90.5h-226zM140 73h137q132 0 193.5 68t61.5 209t-61.5 209t-193.5 68h-137v-554zM170 892h75l81 -103l80 103h74l-101 -129h-108z" />
    <glyph glyph-name="dcaron" unicode="&#x10f;" horiz-adv-x="603" 
d="M266 -10q-98 0 -166 69t-68 201q0 133 68 201.5t166 68.5q59 0 108.5 -25t75.5 -71v266h80v-700h-80v87q-26 -46 -75.5 -71.5t-108.5 -25.5zM108 260q0 -98 50.5 -150t122.5 -52t122.5 52t50.5 150t-50.5 150.5t-122.5 52.5t-122.5 -52.5t-50.5 -150.5zM559 569l101 131
h73l-101 -131h-73z" />
    <glyph glyph-name="Dcroat" unicode="&#x110;" horiz-adv-x="681" 
d="M81 0v317h-61v62h61v321h226q165 0 248 -90t83 -260q0 -169 -83.5 -259.5t-247.5 -90.5h-226zM163 73h137q132 0 193.5 68t61.5 209t-61.5 209t-193.5 68h-137v-248h132v-62h-132v-244z" />
    <glyph glyph-name="dcroat" unicode="&#x111;" horiz-adv-x="623" 
d="M299 606v42h151v52h80v-52h63v-42h-63v-606h-80v87q-26 -46 -75.5 -71.5t-108.5 -25.5q-98 0 -166 69t-68 201q0 133 68 201.5t166 68.5q59 0 108.5 -25t75.5 -71v172h-151zM108 260q0 -98 50.5 -150t122.5 -52t122.5 52t50.5 150t-50.5 150.5t-122.5 52.5t-122.5 -52.5
t-50.5 -150.5z" />
    <glyph glyph-name="Emacron" unicode="&#x112;" horiz-adv-x="545" 
d="M58 0v700h445v-73h-363v-234h333v-67h-333v-253h373v-73h-455zM134 843v50h295v-50h-295z" />
    <glyph glyph-name="emacron" unicode="&#x113;" horiz-adv-x="540" 
d="M280 -10q-112 0 -179.5 68.5t-67.5 200.5q0 135 68 203t175 68q105 0 168.5 -66t63.5 -192q0 -22 -3 -37h-395q9 -181 171 -181q115 0 147 92h73q-46 -156 -221 -156zM110 296h321q-1 81 -42.5 126t-113.5 45q-71 0 -115 -43.5t-50 -127.5zM125 663v50h295v-50h-295z" />
    <glyph glyph-name="Edotaccent" unicode="&#x116;" horiz-adv-x="545" 
d="M58 0v700h445v-73h-363v-234h333v-67h-333v-253h373v-73h-455zM231 853q0 21 15 35.5t36 14.5q20 0 35 -14.5t15 -35.5q0 -20 -15 -35t-35 -15t-35.5 15t-15.5 35z" />
    <glyph glyph-name="edotaccent" unicode="&#x117;" horiz-adv-x="540" 
d="M280 -10q-112 0 -179.5 68.5t-67.5 200.5q0 135 68 203t175 68q105 0 168.5 -66t63.5 -192q0 -22 -3 -37h-395q9 -181 171 -181q115 0 147 92h73q-46 -156 -221 -156zM110 296h321q-1 81 -42.5 126t-113.5 45q-71 0 -115 -43.5t-50 -127.5zM222 673q0 21 15 35.5t36 14.5
q20 0 35 -14.5t15 -35.5q0 -20 -15 -35t-35 -15t-35.5 15t-15.5 35z" />
    <glyph glyph-name="Eogonek" unicode="&#x118;" horiz-adv-x="545" 
d="M58 0v700h445v-73h-363v-234h333v-67h-333v-253h373v-73q-57 0 -87.5 -23t-30.5 -58q0 -32 24.5 -47.5t62.5 -8.5v-48q-52 -13 -100.5 12.5t-48.5 83.5q0 56 47 89h-322z" />
    <glyph glyph-name="eogonek" unicode="&#x119;" horiz-adv-x="540" 
d="M359 -185q-52 -13 -100.5 12.5t-48.5 83.5q0 47 37 81q-98 9 -156 77t-58 190q0 135 68 203t175 68q105 0 168.5 -66t63.5 -192q0 -22 -3 -37h-395q9 -181 171 -181q115 0 147 92h73q-36 -122 -153 -149v-1q-37 -8 -56.5 -28.5t-19.5 -48.5q0 -32 24.5 -47.5t62.5 -8.5
v-48zM110 296h321q-1 81 -42.5 126t-113.5 45q-71 0 -115 -43.5t-50 -127.5z" />
    <glyph glyph-name="Ecaron" unicode="&#x11a;" horiz-adv-x="545" 
d="M58 0v700h445v-73h-363v-234h333v-67h-333v-253h373v-73h-455zM120 892h75l81 -103l80 103h74l-101 -129h-108z" />
    <glyph glyph-name="ecaron" unicode="&#x11b;" horiz-adv-x="540" 
d="M280 -10q-112 0 -179.5 68.5t-67.5 200.5q0 135 68 203t175 68q105 0 168.5 -66t63.5 -192q0 -22 -3 -37h-395q9 -181 171 -181q115 0 147 92h73q-46 -156 -221 -156zM110 296h321q-1 81 -42.5 126t-113.5 45q-71 0 -115 -43.5t-50 -127.5zM111 712h75l81 -103l80 103h74
l-101 -129h-108z" />
    <glyph glyph-name="Gcircumflex" unicode="&#x11c;" horiz-adv-x="697" 
d="M360 -10q-147 0 -232 93t-85 266t86 266.5t230 93.5q105 0 175.5 -48.5t91.5 -140.5h-82q-40 117 -185 117q-111 0 -172.5 -74t-61.5 -212q0 -139 62.5 -214t173.5 -75q96 0 152 57.5t56 171.5h-176v68h257v-49q0 -156 -76 -238t-214 -82zM202 764l101 129h108l101 -129
h-74l-80 103l-81 -103h-75z" />
    <glyph glyph-name="gcircumflex" unicode="&#x11d;" horiz-adv-x="583" 
d="M276 -209q-59 0 -107.5 14.5t-84 52.5t-35.5 95h71q2 -46 45.5 -72.5t109.5 -26.5q77 0 124 38t47 116v96h-2q-26 -45 -75.5 -69t-106.5 -24q-97 0 -163 66t-66 194t66.5 193.5t162.5 65.5q57 0 106.5 -24t75.5 -69h2v83h80v-512q0 -50 -15.5 -89t-40 -62.5t-58.5 -39
t-67 -21t-69 -5.5zM109 271q0 -93 49 -142.5t120 -49.5q72 0 122 49.5t50 142.5t-50 142.5t-122 49.5q-71 0 -120 -49.5t-49 -142.5zM130 584l101 129h108l101 -129h-74l-80 103l-81 -103h-75z" />
    <glyph glyph-name="Gbreve" unicode="&#x11e;" horiz-adv-x="697" 
d="M360 -10q-147 0 -232 93t-85 266t86 266.5t230 93.5q105 0 175.5 -48.5t91.5 -140.5h-82q-40 117 -185 117q-111 0 -172.5 -74t-61.5 -212q0 -139 62.5 -214t173.5 -75q96 0 152 57.5t56 171.5h-176v68h257v-49q0 -156 -76 -238t-214 -82zM218 893h56q3 -78 84 -78
q82 0 85 78h55q0 -56 -34.5 -92t-105.5 -36t-105.5 36t-34.5 92z" />
    <glyph glyph-name="gbreve" unicode="&#x11f;" horiz-adv-x="583" 
d="M276 -209q-59 0 -107.5 14.5t-84 52.5t-35.5 95h71q2 -46 45.5 -72.5t109.5 -26.5q77 0 124 38t47 116v96h-2q-26 -45 -75.5 -69t-106.5 -24q-97 0 -163 66t-66 194t66.5 193.5t162.5 65.5q57 0 106.5 -24t75.5 -69h2v83h80v-512q0 -50 -15.5 -89t-40 -62.5t-58.5 -39
t-67 -21t-69 -5.5zM109 271q0 -93 49 -142.5t120 -49.5q72 0 122 49.5t50 142.5t-50 142.5t-122 49.5q-71 0 -120 -49.5t-49 -142.5zM146 713h56q3 -78 84 -78q82 0 85 78h55q0 -56 -34.5 -92t-105.5 -36t-105.5 36t-34.5 92z" />
    <glyph glyph-name="Gdotaccent" unicode="&#x120;" horiz-adv-x="697" 
d="M360 -10q-147 0 -232 93t-85 266t86 266.5t230 93.5q105 0 175.5 -48.5t91.5 -140.5h-82q-40 117 -185 117q-111 0 -172.5 -74t-61.5 -212q0 -139 62.5 -214t173.5 -75q96 0 152 57.5t56 171.5h-176v68h257v-49q0 -156 -76 -238t-214 -82zM308 853q0 21 15 35.5t36 14.5
q20 0 35 -14.5t15 -35.5q0 -20 -15 -35t-35 -15t-35.5 15t-15.5 35z" />
    <glyph glyph-name="gdotaccent" unicode="&#x121;" horiz-adv-x="583" 
d="M276 -209q-59 0 -107.5 14.5t-84 52.5t-35.5 95h71q2 -46 45.5 -72.5t109.5 -26.5q77 0 124 38t47 116v96h-2q-26 -45 -75.5 -69t-106.5 -24q-97 0 -163 66t-66 194t66.5 193.5t162.5 65.5q57 0 106.5 -24t75.5 -69h2v83h80v-512q0 -50 -15.5 -89t-40 -62.5t-58.5 -39
t-67 -21t-69 -5.5zM109 271q0 -93 49 -142.5t120 -49.5q72 0 122 49.5t50 142.5t-50 142.5t-122 49.5q-71 0 -120 -49.5t-49 -142.5zM236 673q0 21 15 35.5t36 14.5q20 0 35 -14.5t15 -35.5q0 -20 -15 -35t-35 -15t-35.5 15t-15.5 35z" />
    <glyph glyph-name="uni0122" unicode="&#x122;" horiz-adv-x="697" 
d="M360 -10q-147 0 -232 93t-85 266t86 266.5t230 93.5q105 0 175.5 -48.5t91.5 -140.5h-82q-40 117 -185 117q-111 0 -172.5 -74t-61.5 -212q0 -139 62.5 -214t173.5 -75q96 0 152 57.5t56 171.5h-176v68h257v-49q0 -156 -76 -238t-214 -82zM306 -77q0 23 15 38.5t40 15.5
q29 0 47 -22t18 -67q0 -56 -28 -87t-73 -31h-8v38q31 1 44.5 15.5t13.5 42.5q-32 -1 -50.5 15.5t-18.5 41.5z" />
    <glyph glyph-name="uni0123" unicode="&#x123;" horiz-adv-x="583" 
d="M276 -209q-59 0 -107.5 14.5t-84 52.5t-35.5 95h71q2 -46 45.5 -72.5t109.5 -26.5q77 0 124 38t47 116v96h-2q-26 -45 -75.5 -69t-106.5 -24q-97 0 -163 66t-66 194t66.5 193.5t162.5 65.5q57 0 106.5 -24t75.5 -69h2v83h80v-512q0 -50 -15.5 -89t-40 -62.5t-58.5 -39
t-67 -21t-69 -5.5zM109 271q0 -93 49 -142.5t120 -49.5q72 0 122 49.5t50 142.5t-50 142.5t-122 49.5q-71 0 -120 -49.5t-49 -142.5zM212 657q0 56 28 87t73 31h8v-38q-31 -1 -44.5 -15.5t-13.5 -42.5q32 1 50.5 -15.5t18.5 -41.5q0 -24 -15 -39t-40 -15q-29 0 -47 22
t-18 67z" />
    <glyph glyph-name="Hcircumflex" unicode="&#x124;" horiz-adv-x="649" 
d="M509 0v309h-369v-309h-82v700h82v-322h369v322h83v-700h-83zM169 764l101 129h108l101 -129h-74l-80 103l-81 -103h-75z" />
    <glyph glyph-name="hcircumflex" unicode="&#x125;" 
d="M425 305q0 157 -134 157q-70 0 -111.5 -42t-41.5 -115v-305h-80v700h80v-282h2q10 38 55 75t124 37q84 0 135 -50.5t51 -158.5v-321h-80v305zM-59 764l101 129h108l101 -129h-74l-80 103l-81 -103h-75z" />
    <glyph glyph-name="Hbar" unicode="&#x126;" horiz-adv-x="649" 
d="M509 0v309h-369v-309h-82v700h82v-157h369v157h83v-700h-83zM140 378h369v96h-369v-96z" />
    <glyph glyph-name="hbar" unicode="&#x127;" 
d="M-8 606v42h66v52h80v-52h149v-42h-149v-188h2q10 38 55 75t124 37q84 0 135 -50.5t51 -158.5v-321h-80v305q0 157 -134 157q-70 0 -111.5 -42t-41.5 -115v-305h-80v606h-66z" />
    <glyph glyph-name="Itilde" unicode="&#x128;" horiz-adv-x="198" 
d="M58 0v700h82v-700h-82zM-59 808q0 47 23.5 71.5t62.5 24.5q31 0 54.5 -17t42.5 -34t39 -17t31 13.5t11 30.5h51q0 -47 -23 -71.5t-62 -24.5q-31 0 -54.5 17t-42.5 34t-39 17t-31.5 -13.5t-10.5 -30.5h-52z" />
    <glyph glyph-name="itilde" unicode="&#x129;" horiz-adv-x="174" 
d="M47 0v520h80v-520h-80zM-71 628q0 47 23.5 71.5t63.5 24.5q31 0 54.5 -17t42.5 -34t39 -17t31 13.5t11 30.5h51q0 -47 -23 -71.5t-62 -24.5q-31 0 -54.5 17t-42.5 34t-39 17q-21 0 -32.5 -13.5t-10.5 -30.5h-52z" />
    <glyph glyph-name="Imacron" unicode="&#x12a;" horiz-adv-x="198" 
d="M58 0v700h82v-700h-82zM-49 843v50h295v-50h-295z" />
    <glyph glyph-name="imacron" unicode="&#x12b;" horiz-adv-x="174" 
d="M47 0v520h80v-520h-80zM-61 663v50h296v-50h-296z" />
    <glyph glyph-name="Iogonek" unicode="&#x12e;" horiz-adv-x="198" 
d="M109 -185q-52 -13 -100.5 12.5t-48.5 83.5q0 43 28.5 72.5t69.5 38.5v678h82v-700q-57 0 -87.5 -23t-30.5 -58q0 -32 24.5 -47.5t62.5 -8.5v-48z" />
    <glyph glyph-name="iogonek" unicode="&#x12f;" horiz-adv-x="174" 
d="M88 623q-20 0 -35.5 15t-15.5 35q0 21 15 35.5t36 14.5q20 0 35 -14.5t15 -35.5q0 -20 -15 -35t-35 -15zM-53 -89q0 44 29 73.5t71 37.5v498h80v-520q-57 0 -87.5 -23t-30.5 -58q0 -32 24.5 -47.5t62.5 -8.5v-48q-52 -13 -100.5 12.5t-48.5 83.5z" />
    <glyph glyph-name="Idotaccent" unicode="&#x130;" horiz-adv-x="198" 
d="M58 0v700h82v-700h-82zM49 853q0 21 15 35.5t36 14.5q20 0 35 -14.5t15 -35.5q0 -20 -15 -35t-35 -15t-35.5 15t-15.5 35z" />
    <glyph glyph-name="dotlessi" unicode="&#x131;" horiz-adv-x="174" 
d="M47 0v520h80v-520h-80z" />
    <glyph glyph-name="IJ" unicode="&#x132;" horiz-adv-x="845" 
d="M58 0v700h82v-700h-82zM256 261h83q0 -95 48.5 -146.5t134.5 -51.5q87 0 135.5 53.5t48.5 153.5v430h82v-436q0 -131 -71 -202.5t-196 -71.5q-124 0 -194.5 70.5t-70.5 200.5z" />
    <glyph glyph-name="ij" unicode="&#x133;" horiz-adv-x="398" 
d="M58 0v520h80v-520h-80zM47 674q0 21 15 35.5t36 14.5q20 0 35 -14.5t15 -35.5t-15 -36t-35 -15t-35.5 15t-15.5 36zM150 -185v63h33q43 0 60 17.5t17 59.5v565h80v-580q0 -128 -134 -128q-36 0 -56 3zM250 674q0 21 15 35.5t35 14.5q21 0 36 -14.5t15 -35.5t-15.5 -36
t-35.5 -15t-35 15t-15 36z" />
    <glyph glyph-name="Jcircumflex" unicode="&#x134;" horiz-adv-x="648" 
d="M323 -10q-124 0 -194.5 70.5t-70.5 200.5h83q0 -95 48.5 -146.5t134.5 -51.5q87 0 135.5 53.5t48.5 153.5v430h82v-436q0 -131 -71 -202.5t-196 -71.5zM395 764l101 129h108l101 -129h-74l-80 103l-81 -103h-75z" />
    <glyph glyph-name="jcircumflex" unicode="&#x135;" horiz-adv-x="202" 
d="M21 -188q-36 0 -56 3v63h33q43 0 60 17.5t17 59.5v565h80v-580q0 -128 -134 -128zM-41 584l101 129h108l101 -129h-74l-80 103l-81 -103h-75z" />
    <glyph glyph-name="uni0136" unicode="&#x136;" horiz-adv-x="635" 
d="M58 0v700h82v-389l349 389h99l-289 -322l314 -378h-97l-269 320l-107 -119v-201h-82zM268 -77q0 23 15 38.5t40 15.5q29 0 47 -22t18 -67q0 -56 -28 -87t-73 -31h-8v38q31 1 44.5 15.5t13.5 42.5q-32 -1 -50.5 15.5t-18.5 41.5z" />
    <glyph glyph-name="uni0137" unicode="&#x137;" horiz-adv-x="540" 
d="M58 0v700h80v-461l269 281h92l-221 -226l250 -294h-92l-208 243l-90 -91v-152h-80zM222 -77q0 23 15 38.5t40 15.5q29 0 47 -22t18 -67q0 -56 -28 -87t-73 -31h-8v38q31 1 44.5 15.5t13.5 42.5q-32 -1 -50.5 15.5t-18.5 41.5z" />
    <glyph glyph-name="Lacute" unicode="&#x139;" horiz-adv-x="531" 
d="M58 0v700h82v-627h359v-73h-441zM60 762l101 131h73l-101 -131h-73z" />
    <glyph glyph-name="lacute" unicode="&#x13a;" horiz-adv-x="195" 
d="M58 0v700h80v-700h-80zM59 762l101 131h73l-101 -131h-73z" />
    <glyph glyph-name="uni013B" unicode="&#x13b;" horiz-adv-x="531" 
d="M58 0v700h82v-627h359v-73h-441zM220 -82q0 24 15 39t40 15q29 0 47 -22t18 -67q0 -56 -28 -87t-73 -31h-8v38q31 1 44.5 15.5t13.5 42.5q-32 -1 -50.5 15.5t-18.5 41.5z" />
    <glyph glyph-name="uni013C" unicode="&#x13c;" horiz-adv-x="195" 
d="M58 0v700h80v-700h-80zM42 -77q0 23 15 38.5t40 15.5q29 0 47 -22t18 -67q0 -56 -28 -87t-73 -31h-8v38q31 1 44.5 15.5t13.5 42.5q-32 -1 -50.5 15.5t-18.5 41.5z" />
    <glyph glyph-name="Lcaron" unicode="&#x13d;" horiz-adv-x="531" 
d="M58 0v700h82v-627h359v-73h-441zM251 656q0 24 15.5 39t39.5 15q29 0 47 -22t18 -67q0 -56 -28 -87t-73 -31h-8v38q31 1 44.5 15.5t13.5 42.5q-32 -1 -50.5 15.5t-18.5 41.5z" />
    <glyph glyph-name="lcaron" unicode="&#x13e;" horiz-adv-x="220" 
d="M183 456l40 244h67l-40 -244h-67zM58 0v700h80v-700h-80z" />
    <glyph glyph-name="Lslash" unicode="&#x141;" horiz-adv-x="562" 
d="M18 167v86l71 74v373h82v-287l116 121v-85l-116 -122v-254h359v-73h-441v241z" />
    <glyph glyph-name="lslash" unicode="&#x142;" horiz-adv-x="221" 
d="M5 170v84l67 90v356h80v-249l63 84h1v-83l-64 -86v-366h-80v260z" />
    <glyph glyph-name="Nacute" unicode="&#x143;" horiz-adv-x="662" 
d="M58 0v700h92l370 -573h2v573h83v-700h-95l-367 571h-3v-571h-82zM293 762l101 131h73l-101 -131h-73z" />
    <glyph glyph-name="nacute" unicode="&#x144;" 
d="M425 305q0 157 -134 157q-70 0 -111.5 -42t-41.5 -115v-305h-80v520h80v-102h2q10 38 55 75t124 37q84 0 135 -50.5t51 -158.5v-321h-80v305zM244 582l101 131h73l-101 -131h-73z" />
    <glyph glyph-name="uni0145" unicode="&#x145;" horiz-adv-x="662" 
d="M58 0v700h92l370 -573h2v573h83v-700h-95l-367 571h-3v-571h-82zM276 -77q0 23 15 38.5t40 15.5q29 0 47 -22t18 -67q0 -56 -28 -87t-73 -31h-8v38q31 1 44.5 15.5t13.5 42.5q-32 -1 -50.5 15.5t-18.5 41.5z" />
    <glyph glyph-name="uni0146" unicode="&#x146;" 
d="M425 305q0 157 -134 157q-70 0 -111.5 -42t-41.5 -115v-305h-80v520h80v-102h2q10 38 55 75t124 37q84 0 135 -50.5t51 -158.5v-321h-80v305zM227 -77q0 23 15.5 38.5t39.5 15.5q29 0 47 -22t18 -67q0 -56 -28 -87t-73 -31h-8v38q31 1 44.5 15.5t13.5 42.5
q-32 -1 -50.5 15.5t-18.5 41.5z" />
    <glyph glyph-name="Ncaron" unicode="&#x147;" horiz-adv-x="662" 
d="M58 0v700h92l370 -573h2v573h83v-700h-95l-367 571h-3v-571h-82zM171 892h75l81 -103l80 103h74l-101 -129h-108z" />
    <glyph glyph-name="ncaron" unicode="&#x148;" 
d="M425 305q0 157 -134 157q-70 0 -111.5 -42t-41.5 -115v-305h-80v520h80v-102h2q10 38 55 75t124 37q84 0 135 -50.5t51 -158.5v-321h-80v305zM122 712h75l81 -103l80 103h74l-101 -129h-108z" />
    <glyph glyph-name="Eng" unicode="&#x14a;" horiz-adv-x="662" 
d="M337 -220q-72 0 -122 25v78q53 -30 120 -30q150 0 181 142l-373 574h-3v-569h-82v700h90l372 -573h2v573h83v-645q0 -131 -72 -203t-196 -72z" />
    <glyph glyph-name="eng" unicode="&#x14b;" 
d="M378 -220q-57 0 -94 21v67q43 -18 78 -18q63 0 63 76v379q0 157 -134 157q-70 0 -111.5 -41.5t-41.5 -115.5v-305h-80v520h80v-93q16 37 61 70t119 33q84 0 135.5 -50.5t51.5 -158.5v-402q0 -139 -127 -139z" />
    <glyph glyph-name="Omacron" unicode="&#x14c;" horiz-adv-x="720" 
d="M360 -10q-141 0 -229 95t-88 265q0 169 88 264t229 95t229.5 -95t88.5 -264t-88.5 -264.5t-229.5 -95.5zM127 350q0 -138 64 -213t169 -75t169.5 74.5t64.5 213.5q0 138 -64 212.5t-170 74.5q-105 0 -169 -74.5t-64 -212.5zM213 843v50h295v-50h-295z" />
    <glyph glyph-name="omacron" unicode="&#x14d;" horiz-adv-x="565" 
d="M283 -10q-105 0 -177.5 69.5t-72.5 200.5t72.5 200.5t177.5 69.5t177.5 -69.5t72.5 -200.5t-72.5 -200.5t-177.5 -69.5zM109 260q0 -99 50 -150.5t124 -51.5q73 0 123 51.5t50 150.5t-50 151t-123 52q-74 0 -124 -52t-50 -151zM135 663v50h295v-50h-295z" />
    <glyph glyph-name="Ohungarumlaut" unicode="&#x150;" horiz-adv-x="720" 
d="M360 -10q-141 0 -229 95t-88 265q0 169 88 264t229 95t229.5 -95t88.5 -264t-88.5 -264.5t-229.5 -95.5zM127 350q0 -138 64 -213t169 -75t169.5 74.5t64.5 213.5q0 138 -64 212.5t-170 74.5q-105 0 -169 -74.5t-64 -212.5zM234 762l101 131h73l-101 -131h-73zM376 762
l101 131h73l-101 -131h-73z" />
    <glyph glyph-name="ohungarumlaut" unicode="&#x151;" horiz-adv-x="565" 
d="M283 -10q-105 0 -177.5 69.5t-72.5 200.5t72.5 200.5t177.5 69.5t177.5 -69.5t72.5 -200.5t-72.5 -200.5t-177.5 -69.5zM109 260q0 -99 50 -150.5t124 -51.5q73 0 123 51.5t50 150.5t-50 151t-123 52q-74 0 -124 -52t-50 -151zM157 582l101 131h73l-101 -131h-73z
M298 582l101 131h73l-101 -131h-73z" />
    <glyph glyph-name="OE" unicode="&#x152;" horiz-adv-x="1083" 
d="M360 -10q-141 0 -229 95t-88 265q0 169 88 264t229 95q149 0 236 -102v93h445v-73h-363v-234h333v-67h-333v-253h373v-73h-455v93q-86 -103 -236 -103zM127 350q0 -138 64 -213t169 -75t169.5 74.5t64.5 213.5q0 138 -64 212.5t-170 74.5q-105 0 -169 -74.5t-64 -212.5z
" />
    <glyph glyph-name="oe" unicode="&#x153;" horiz-adv-x="966" 
d="M283 -10q-105 0 -177.5 69.5t-72.5 200.5t72.5 200.5t177.5 69.5q66 0 122 -28.5t89 -84.5q62 113 208 113q105 0 168.5 -66t63.5 -192q0 -22 -3 -37h-395q9 -181 171 -181q115 0 147 92h73q-46 -156 -221 -156q-150 0 -212 113q-33 -56 -89 -84.5t-122 -28.5zM109 260
q0 -99 50 -150.5t124 -51.5q73 0 123 51.5t50 150.5t-50 151t-123 52q-74 0 -124 -52t-50 -151zM536 296h321q-1 81 -42.5 126t-113.5 45q-71 0 -115 -43.5t-50 -127.5z" />
    <glyph glyph-name="Racute" unicode="&#x154;" horiz-adv-x="623" 
d="M489 0q-10 19 -10 76v96q0 114 -137 114h-202v-286h-82v700h272q117 0 176 -52.5t59 -144.5q0 -135 -118 -177q113 -31 113 -154v-96q0 -54 10 -76h-81zM140 354h186q77 0 116.5 36t39.5 103q0 135 -156 135h-186v-274zM263 762l101 131h73l-101 -131h-73z" />
    <glyph glyph-name="racute" unicode="&#x155;" horiz-adv-x="365" 
d="M58 0v520h80v-116h2q13 48 54 85t110 37q24 0 39 -5v-68q-19 3 -38 3q-78 0 -122.5 -49t-44.5 -133v-274h-80zM155 582l101 131h73l-101 -131h-73z" />
    <glyph glyph-name="uni0156" unicode="&#x156;" horiz-adv-x="623" 
d="M489 0q-10 19 -10 76v96q0 114 -137 114h-202v-286h-82v700h272q117 0 176 -52.5t59 -144.5q0 -135 -118 -177q113 -31 113 -154v-96q0 -54 10 -76h-81zM140 354h186q77 0 116.5 36t39.5 103q0 135 -156 135h-186v-274zM246 -77q0 23 15 38.5t40 15.5q29 0 47 -22t18 -67
q0 -56 -28 -87t-73 -31h-8v38q31 1 44.5 15.5t13.5 42.5q-32 -1 -50.5 15.5t-18.5 41.5z" />
    <glyph glyph-name="uni0157" unicode="&#x157;" horiz-adv-x="365" 
d="M58 0v520h80v-116h2q13 48 54 85t110 37q24 0 39 -5v-68q-19 3 -38 3q-78 0 -122.5 -49t-44.5 -133v-274h-80zM43 -77q0 23 15.5 38.5t39.5 15.5q29 0 47 -22t18 -67q0 -56 -28 -87t-73 -31h-8v38q31 1 44.5 15.5t13.5 42.5q-32 -1 -50.5 15.5t-18.5 41.5z" />
    <glyph glyph-name="Rcaron" unicode="&#x158;" horiz-adv-x="623" 
d="M489 0q-10 19 -10 76v96q0 114 -137 114h-202v-286h-82v700h272q117 0 176 -52.5t59 -144.5q0 -135 -118 -177q113 -31 113 -154v-96q0 -54 10 -76h-81zM140 354h186q77 0 116.5 36t39.5 103q0 135 -156 135h-186v-274zM140 892h75l81 -103l80 103h74l-101 -129h-108z
" />
    <glyph glyph-name="rcaron" unicode="&#x159;" horiz-adv-x="365" 
d="M58 0v520h80v-116h2q13 48 54 85t110 37q24 0 39 -5v-68q-19 3 -38 3q-78 0 -122.5 -49t-44.5 -133v-274h-80zM33 712h75l81 -103l80 103h74l-101 -129h-108z" />
    <glyph glyph-name="Sacute" unicode="&#x15a;" horiz-adv-x="613" 
d="M311 -10q-129 0 -198.5 58.5t-69.5 155.5h83q4 -64 50 -103.5t136 -39.5q84 0 128 35.5t44 96.5q0 55 -35.5 84t-102.5 42l-93 19q-190 37 -190 184q0 87 63.5 137t179.5 50q115 0 179 -50.5t64 -136.5h-82q-2 53 -43.5 85t-118.5 32q-79 0 -117.5 -32.5t-38.5 -84.5
q0 -92 127 -117l90 -18q101 -21 152.5 -66t51.5 -127q0 -97 -69 -150.5t-190 -53.5zM263 762l101 131h73l-101 -131h-73z" />
    <glyph glyph-name="sacute" unicode="&#x15b;" horiz-adv-x="480" 
d="M242 -10q-94 0 -152 39.5t-62 118.5h72q7 -50 46.5 -72.5t96.5 -22.5t92.5 22.5t35.5 68.5q0 36 -22 53t-69 28l-98 23q-138 33 -138 140q0 68 53 105t143 37t143 -39t57 -115h-68q-15 91 -132 91q-118 0 -118 -79q0 -31 20.5 -50t66.5 -29l97 -23q72 -17 109.5 -48.5
t37.5 -92.5q0 -41 -17.5 -72t-48 -48.5t-67 -26t-78.5 -8.5zM202 582l101 131h73l-101 -131h-73z" />
    <glyph glyph-name="Scircumflex" unicode="&#x15c;" horiz-adv-x="613" 
d="M311 -10q-129 0 -198.5 58.5t-69.5 155.5h83q4 -64 50 -103.5t136 -39.5q84 0 128 35.5t44 96.5q0 55 -35.5 84t-102.5 42l-93 19q-190 37 -190 184q0 87 63.5 137t179.5 50q115 0 179 -50.5t64 -136.5h-82q-2 53 -43.5 85t-118.5 32q-79 0 -117.5 -32.5t-38.5 -84.5
q0 -92 127 -117l90 -18q101 -21 152.5 -66t51.5 -127q0 -97 -69 -150.5t-190 -53.5zM145 764l101 129h108l101 -129h-74l-80 103l-81 -103h-75z" />
    <glyph glyph-name="scircumflex" unicode="&#x15d;" horiz-adv-x="480" 
d="M242 -10q-94 0 -152 39.5t-62 118.5h72q7 -50 46.5 -72.5t96.5 -22.5t92.5 22.5t35.5 68.5q0 36 -22 53t-69 28l-98 23q-138 33 -138 140q0 68 53 105t143 37t143 -39t57 -115h-68q-15 91 -132 91q-118 0 -118 -79q0 -31 20.5 -50t66.5 -29l97 -23q72 -17 109.5 -48.5
t37.5 -92.5q0 -41 -17.5 -72t-48 -48.5t-67 -26t-78.5 -8.5zM84 584l101 129h108l101 -129h-74l-80 103l-81 -103h-75z" />
    <glyph glyph-name="Scedilla" unicode="&#x15e;" horiz-adv-x="613" 
d="M244 -176q36 -1 57 11.5t21 35.5q0 25 -22.5 35t-51.5 -3l-27 32l47 57q-108 10 -166.5 67t-58.5 145h83q4 -64 50 -103.5t136 -39.5q84 0 128 35.5t44 96.5q0 55 -35.5 84t-102.5 42l-93 19q-190 37 -190 184q0 87 63.5 137t179.5 50q115 0 179 -50.5t64 -136.5h-82
q-2 53 -43.5 85t-118.5 32q-79 0 -117.5 -32.5t-38.5 -84.5q0 -92 127 -117l90 -18q101 -21 152.5 -66t51.5 -127q0 -94 -64.5 -147t-178.5 -57l-36 -40q4 1 12 1q32 0 55 -21.5t23 -57.5q0 -48 -39 -71.5t-98 -23.5v47z" />
    <glyph glyph-name="scedilla" unicode="&#x15f;" horiz-adv-x="480" 
d="M184 -176q36 -1 57 11.5t21 35.5q0 25 -22.5 35t-51.5 -3l-27 32l47 56q-80 7 -128 46.5t-52 110.5h72q7 -50 46.5 -72.5t96.5 -22.5t92.5 22.5t35.5 68.5q0 36 -22 53t-69 28l-98 23q-138 33 -138 140q0 68 53 105t143 37t143 -39t57 -115h-68q-15 91 -132 91
q-118 0 -118 -79q0 -31 20.5 -50t66.5 -29l97 -23q72 -17 109.5 -48.5t37.5 -92.5q0 -74 -52 -111.5t-133 -42.5l-37 -41q4 1 12 1q32 0 55 -21.5t23 -57.5q0 -48 -39 -71.5t-98 -23.5v47z" />
    <glyph glyph-name="Scaron" unicode="&#x160;" horiz-adv-x="613" 
d="M311 -10q-129 0 -198.5 58.5t-69.5 155.5h83q4 -64 50 -103.5t136 -39.5q84 0 128 35.5t44 96.5q0 55 -35.5 84t-102.5 42l-93 19q-190 37 -190 184q0 87 63.5 137t179.5 50q115 0 179 -50.5t64 -136.5h-82q-2 53 -43.5 85t-118.5 32q-79 0 -117.5 -32.5t-38.5 -84.5
q0 -92 127 -117l90 -18q101 -21 152.5 -66t51.5 -127q0 -97 -69 -150.5t-190 -53.5zM140 892h75l81 -103l80 103h74l-101 -129h-108z" />
    <glyph glyph-name="scaron" unicode="&#x161;" horiz-adv-x="480" 
d="M242 -10q-94 0 -152 39.5t-62 118.5h72q7 -50 46.5 -72.5t96.5 -22.5t92.5 22.5t35.5 68.5q0 36 -22 53t-69 28l-98 23q-138 33 -138 140q0 68 53 105t143 37t143 -39t57 -115h-68q-15 91 -132 91q-118 0 -118 -79q0 -31 20.5 -50t66.5 -29l97 -23q72 -17 109.5 -48.5
t37.5 -92.5q0 -41 -17.5 -72t-48 -48.5t-67 -26t-78.5 -8.5zM79 712h75l81 -103l80 103h74l-101 -129h-108z" />
    <glyph glyph-name="uni0162" unicode="&#x162;" horiz-adv-x="580" 
d="M249 0v626h-221v74h524v-74h-221v-626h-21l-45 -50q4 1 12 1q32 0 55 -21.5t23 -57.5q0 -48 -39 -71.5t-98 -23.5v47q36 -1 57 11.5t21 35.5q0 25 -22.5 35t-51.5 -3l-27 32z" />
    <glyph glyph-name="uni0163" unicode="&#x163;" horiz-adv-x="325" 
d="M240 -7h-3l-39 -43q4 1 12 1q32 0 55 -21.5t23 -57.5q0 -48 -39 -71.5t-98 -23.5v47q36 -1 57 11.5t21 35.5q0 25 -22.5 35t-51.5 -3l-27 32l54 65h3q-78 23 -78 122v333h-84v65h84v130h80v-130h103v-65h-103v-318q0 -42 16.5 -60t58.5 -18q22 0 36 2v-62q-27 -6 -58 -6z
" />
    <glyph glyph-name="Tcaron" unicode="&#x164;" horiz-adv-x="580" 
d="M249 0v626h-221v74h524v-74h-221v-626h-82zM128 892h75l81 -103l80 103h74l-101 -129h-108z" />
    <glyph glyph-name="tcaron" unicode="&#x165;" horiz-adv-x="318" 
d="M240 -7q-133 0 -133 129v333h-84v65h84v130h80v-130h103v-65h-103v-318q0 -42 16.5 -60t58.5 -18q22 0 36 2v-62q-27 -6 -58 -6zM212 579l101 131h73l-101 -131h-73z" />
    <glyph glyph-name="Tbar" unicode="&#x166;" horiz-adv-x="580" 
d="M108 449v59h141v118h-221v74h524v-74h-221v-118h140v-59h-140v-449h-82v449h-141z" />
    <glyph glyph-name="tbar" unicode="&#x167;" horiz-adv-x="325" 
d="M23 314v64h84v77h-84v65h84v130h80v-130h103v-65h-103v-77h103v-64h-103v-177q0 -42 16.5 -60t58.5 -18q22 0 36 2v-62q-27 -6 -58 -6q-133 0 -133 129v192h-84z" />
    <glyph glyph-name="Utilde" unicode="&#x168;" horiz-adv-x="654" 
d="M327 -10q-125 0 -197 72t-72 203v435h83v-430q0 -100 49 -153.5t137 -53.5t137 53.5t49 153.5v430h83v-435q0 -131 -72 -203t-197 -72zM166 808q0 47 23.5 71.5t62.5 24.5q31 0 54.5 -17t42.5 -34t39 -17t31 13.5t11 30.5h51q0 -47 -23 -71.5t-62 -24.5q-31 0 -54.5 17
t-42.5 34t-39 17t-31.5 -13.5t-10.5 -30.5h-52z" />
    <glyph glyph-name="utilde" unicode="&#x169;" 
d="M137 215q0 -157 134 -157q66 0 107.5 37.5t45.5 104.5l1 320h80l-1 -520h-80v102h-2q-10 -38 -55 -75t-124 -37q-84 0 -135 50.5t-51 158.5l1 321h80zM120 628q0 47 23.5 71.5t62.5 24.5q31 0 54.5 -17t42.5 -34t39 -17t31 13.5t11 30.5h51q0 -47 -23 -71.5t-62 -24.5
q-31 0 -54.5 17t-42.5 34t-39 17t-31.5 -13.5t-10.5 -30.5h-52z" />
    <glyph glyph-name="Umacron" unicode="&#x16a;" horiz-adv-x="654" 
d="M327 -10q-125 0 -197 72t-72 203v435h83v-430q0 -100 49 -153.5t137 -53.5t137 53.5t49 153.5v430h83v-435q0 -131 -72 -203t-197 -72zM176 843v50h295v-50h-295z" />
    <glyph glyph-name="umacron" unicode="&#x16b;" 
d="M137 215q0 -157 134 -157q66 0 107.5 37.5t45.5 104.5l1 320h80l-1 -520h-80v102h-2q-10 -38 -55 -75t-124 -37q-84 0 -135 50.5t-51 158.5l1 321h80zM130 663v50h295v-50h-295z" />
    <glyph glyph-name="Ubreve" unicode="&#x16c;" horiz-adv-x="654" 
d="M327 -10q-125 0 -197 72t-72 203v435h83v-430q0 -100 49 -153.5t137 -53.5t137 53.5t49 153.5v430h83v-435q0 -131 -72 -203t-197 -72zM187 893h56q3 -78 84 -78q82 0 85 78h55q0 -56 -34.5 -92t-105.5 -36t-105.5 36t-34.5 92z" />
    <glyph glyph-name="ubreve" unicode="&#x16d;" 
d="M137 215q0 -157 134 -157q66 0 107.5 37.5t45.5 104.5l1 320h80l-1 -520h-80v102h-2q-10 -38 -55 -75t-124 -37q-84 0 -135 50.5t-51 158.5l1 321h80zM138 713h56q3 -78 84 -78q82 0 85 78h55q0 -56 -34.5 -92t-105.5 -36t-105.5 36t-34.5 92z" />
    <glyph glyph-name="Uring" unicode="&#x16e;" horiz-adv-x="654" 
d="M327 -10q-125 0 -197 72t-72 203v435h83v-430q0 -100 49 -153.5t137 -53.5t137 53.5t49 153.5v430h83v-435q0 -131 -72 -203t-197 -72zM236 836q0 36 25.5 61t62.5 25t62.5 -25t25.5 -61q0 -35 -25.5 -60t-62.5 -25t-62.5 25t-25.5 60zM279 836q0 -19 13 -32t32 -13
q20 0 33 13t13 32q0 20 -13 33t-33 13q-19 0 -32 -13.5t-13 -32.5z" />
    <glyph glyph-name="uring" unicode="&#x16f;" 
d="M137 215q0 -157 134 -157q66 0 107.5 37.5t45.5 104.5l1 320h80l-1 -520h-80v102h-2q-10 -38 -55 -75t-124 -37q-84 0 -135 50.5t-51 158.5l1 321h80zM190 656q0 36 25.5 61t62.5 25t62.5 -25t25.5 -61q0 -35 -25.5 -60t-62.5 -25t-62.5 25t-25.5 60zM233 656
q0 -19 13 -32t32 -13q20 0 33 13t13 32q0 20 -13 33t-33 13q-19 0 -32 -13.5t-13 -32.5z" />
    <glyph glyph-name="Uhungarumlaut" unicode="&#x170;" horiz-adv-x="654" 
d="M327 -10q-125 0 -197 72t-72 203v435h83v-430q0 -100 49 -153.5t137 -53.5t137 53.5t49 153.5v430h83v-435q0 -131 -72 -203t-197 -72zM201 762l101 131h73l-101 -131h-73zM343 762l101 131h73l-101 -131h-73z" />
    <glyph glyph-name="uhungarumlaut" unicode="&#x171;" 
d="M137 215q0 -157 134 -157q66 0 107.5 37.5t45.5 104.5l1 320h80l-1 -520h-80v102h-2q-10 -38 -55 -75t-124 -37q-84 0 -135 50.5t-51 158.5l1 321h80zM152 582l101 131h73l-101 -131h-73zM294 582l101 131h73l-101 -131h-73z" />
    <glyph glyph-name="Uogonek" unicode="&#x172;" horiz-adv-x="654" 
d="M406 -185q-53 -13 -101 12.5t-48 83.5q0 49 36 80q-110 10 -172.5 81t-62.5 193v435h83v-430q0 -100 49 -153.5t137 -53.5t137 53.5t49 153.5v430h83v-435q0 -112 -52.5 -181t-147.5 -88q-38 -8 -57.5 -28.5t-19.5 -48.5q0 -32 24 -47.5t63 -8.5v-48z" />
    <glyph glyph-name="uogonek" unicode="&#x173;" 
d="M137 215q0 -157 134 -157q66 0 107.5 37.5t45.5 104.5l1 320h80l-1 -520h1q-57 0 -87.5 -23t-30.5 -58q0 -32 24.5 -47.5t62.5 -8.5v-48q-52 -13 -100.5 12.5t-48.5 83.5q0 44 28.5 73t70.5 38v80h-2q-10 -38 -55 -75t-124 -37q-84 0 -135 50.5t-51 158.5l1 321h80z" />
    <glyph glyph-name="Wcircumflex" unicode="&#x174;" horiz-adv-x="970" 
d="M215 0l-187 700h84l150 -584h4l175 584h88l175 -584h4l150 584h85l-188 -700h-88l-182 595l-181 -595h-89zM329 764l101 129h108l101 -129h-74l-80 103l-81 -103h-75z" />
    <glyph glyph-name="wcircumflex" unicode="&#x175;" horiz-adv-x="795" 
d="M171 0l-148 520h77l119 -438h4l139 438h71l140 -438h4l118 438h78l-149 -520h-91l-135 414l-136 -414h-91zM242 584l101 129h108l101 -129h-74l-80 103l-81 -103h-75z" />
    <glyph glyph-name="Ycircumflex" unicode="&#x176;" horiz-adv-x="652" 
d="M284 0v274l-256 426h93l205 -346l206 346h93l-257 -426v-274h-84zM170 764l101 129h108l101 -129h-74l-80 103l-81 -103h-75z" />
    <glyph glyph-name="ycircumflex" unicode="&#x177;" horiz-adv-x="535" 
d="M76 -123q103 -15 140 80q15 39 3 68l-196 495h82l163 -426l162 426h83l-224 -563q-36 -90 -86 -124.5t-127 -25.5v70zM113 584l101 129h108l101 -129h-74l-80 103l-81 -103h-75z" />
    <glyph glyph-name="Ydieresis" unicode="&#x178;" horiz-adv-x="652" 
d="M284 0v274l-256 426h93l205 -346l206 346h93l-257 -426v-274h-84zM181 853q0 21 15 35.5t36 14.5q20 0 35 -14.5t15 -35.5q0 -20 -15 -35t-35 -15t-35.5 15t-15.5 35zM370 853q0 21 15 35.5t36 14.5q20 0 35 -14.5t15 -35.5q0 -20 -15 -35t-35 -15t-35.5 15t-15.5 35z
" />
    <glyph glyph-name="Zacute" unicode="&#x179;" horiz-adv-x="610" 
d="M40 0v73l434 554h-417v73h509v-73l-434 -554h438v-73h-530zM272 762l101 131h73l-101 -131h-73z" />
    <glyph glyph-name="zacute" unicode="&#x17a;" horiz-adv-x="498" 
d="M40 0v69l323 383h-313v68h408v-68l-323 -383h323v-69h-418zM208 582l101 131h73l-101 -131h-73z" />
    <glyph glyph-name="Zdotaccent" unicode="&#x17b;" horiz-adv-x="610" 
d="M40 0v73l434 554h-417v73h509v-73l-434 -554h438v-73h-530zM261 853q0 21 15 35.5t36 14.5q20 0 35 -14.5t15 -35.5q0 -20 -15 -35t-35 -15t-35.5 15t-15.5 35z" />
    <glyph glyph-name="zdotaccent" unicode="&#x17c;" horiz-adv-x="498" 
d="M40 0v69l323 383h-313v68h408v-68l-323 -383h323v-69h-418zM196 673q0 21 15 35.5t36 14.5q20 0 35 -14.5t15 -35.5q0 -20 -15 -35t-35 -15t-35.5 15t-15.5 35z" />
    <glyph glyph-name="Zcaron" unicode="&#x17d;" horiz-adv-x="610" 
d="M40 0v73l434 554h-417v73h509v-73l-434 -554h438v-73h-530zM150 892h75l81 -103l80 103h74l-101 -129h-108z" />
    <glyph glyph-name="zcaron" unicode="&#x17e;" horiz-adv-x="498" 
d="M40 0v69l323 383h-313v68h408v-68l-323 -383h323v-69h-418zM85 712h75l81 -103l80 103h74l-101 -129h-108z" />
    <glyph glyph-name="uni018F" unicode="&#x18f;" horiz-adv-x="692" 
d="M332 -10q-138 0 -213.5 82t-75.5 238v49h523q-1 135 -62 206.5t-170 71.5q-145 0 -186 -117h-81q21 92 92 140.5t175 48.5q144 0 230 -93.5t86 -266.5t-85 -266t-233 -93zM123 291q0 -114 56 -171.5t153 -57.5q98 0 158 59t73 170h-440z" />
    <glyph glyph-name="florin" unicode="&#x192;" horiz-adv-x="298" 
d="M23 -120q43 0 64 24.5t21 80.5v373h-79v70h79v112q0 89 40.5 126.5t124.5 37.5v-70q-43 0 -64 -24t-21 -81v-101h85v-70h-85v-385q0 -90 -42.5 -126.5t-122.5 -36.5v70z" />
    <glyph glyph-name="Ohorn" unicode="&#x1a0;" horiz-adv-x="720" 
d="M360 -10q-141 0 -229 95t-88 265q0 169 88 264t229 95h239v79h70v-142h-114q123 -95 123 -296q0 -169 -88.5 -264.5t-229.5 -95.5zM127 350q0 -138 64 -213t169 -75t169.5 74.5t64.5 213.5q0 138 -64 212.5t-170 74.5q-105 0 -169 -74.5t-64 -212.5z" />
    <glyph glyph-name="ohorn" unicode="&#x1a1;" horiz-adv-x="565" 
d="M283 -10q-105 0 -177.5 69.5t-72.5 200.5t72.5 200.5t177.5 69.5h174v78h66v-140h-71q81 -73 81 -208q0 -131 -72.5 -200.5t-177.5 -69.5zM109 260q0 -99 50 -150.5t124 -51.5q73 0 123 51.5t50 150.5t-50 151t-123 52q-74 0 -124 -52t-50 -151z" />
    <glyph glyph-name="Uhorn" unicode="&#x1af;" horiz-adv-x="654" 
d="M327 -10q-125 0 -197 72t-72 203v435h83v-430q0 -100 49 -153.5t137 -53.5t137 53.5t49 153.5v430h113v88h70v-153h-100v-370q0 -131 -72 -203t-197 -72z" />
    <glyph glyph-name="uhorn" unicode="&#x1b0;" 
d="M137 215q0 -157 134 -157q66 0 107.5 37.5t45.5 104.5l1 320h113v88h70v-153h-103l-1 -455h-80v102h-2q-10 -38 -55 -75t-124 -37q-84 0 -135 50.5t-51 158.5l1 321h80z" />
    <glyph glyph-name="uni01CD" unicode="&#x1cd;" horiz-adv-x="682" 
d="M23 0l267 700h102l267 -700h-87l-65 175h-332l-65 -175h-87zM180 892h75l81 -103l80 103h74l-101 -129h-108zM199 239h284l-139 372h-6z" />
    <glyph glyph-name="uni01CE" unicode="&#x1ce;" horiz-adv-x="538" 
d="M204 -10q-78 0 -124.5 36t-46.5 107q0 130 164 149l133 15q70 8 70 34v21q0 64 -31.5 90t-98.5 26q-66 0 -98 -23t-32 -74v-12h-77v19q0 152 210 152q107 0 157 -42.5t50 -135.5v-352h-75v90h-4q-15 -32 -64.5 -66t-132.5 -34zM113 137q0 -83 110 -83q83 0 130 43t47 89
v75q-7 -18 -75 -27l-109 -13q-56 -7 -79.5 -27.5t-23.5 -56.5zM115 712h75l81 -103l80 103h74l-101 -129h-108z" />
    <glyph glyph-name="uni01CF" unicode="&#x1cf;" horiz-adv-x="198" 
d="M58 0v700h82v-700h-82zM-63 892h76l81 -103l80 103h74l-101 -129h-108z" />
    <glyph glyph-name="uni01D0" unicode="&#x1d0;" horiz-adv-x="174" 
d="M47 0v520h80v-520h-80zM-74 712h75l81 -103l80 103h74l-101 -129h-108z" />
    <glyph glyph-name="uni01D1" unicode="&#x1d1;" horiz-adv-x="720" 
d="M360 -10q-141 0 -229 95t-88 265q0 169 88 264t229 95t229.5 -95t88.5 -264t-88.5 -264.5t-229.5 -95.5zM127 350q0 -138 64 -213t169 -75t169.5 74.5t64.5 213.5q0 138 -64 212.5t-170 74.5q-105 0 -169 -74.5t-64 -212.5zM199 892h75l81 -103l80 103h74l-101 -129h-108
z" />
    <glyph glyph-name="uni01D2" unicode="&#x1d2;" horiz-adv-x="565" 
d="M283 -10q-105 0 -177.5 69.5t-72.5 200.5t72.5 200.5t177.5 69.5t177.5 -69.5t72.5 -200.5t-72.5 -200.5t-177.5 -69.5zM109 260q0 -99 50 -150.5t124 -51.5q73 0 123 51.5t50 150.5t-50 151t-123 52q-74 0 -124 -52t-50 -151zM122 712h75l81 -103l80 103h74l-101 -129
h-108z" />
    <glyph glyph-name="uni01D3" unicode="&#x1d3;" horiz-adv-x="654" 
d="M327 -10q-125 0 -197 72t-72 203v435h83v-430q0 -100 49 -153.5t137 -53.5t137 53.5t49 153.5v430h83v-435q0 -131 -72 -203t-197 -72zM166 892h75l81 -103l80 103h74l-101 -129h-108z" />
    <glyph glyph-name="uni01D4" unicode="&#x1d4;" 
d="M137 215q0 -157 134 -157q66 0 107.5 37.5t45.5 104.5l1 320h80l-1 -520h-80v102h-2q-10 -38 -55 -75t-124 -37q-84 0 -135 50.5t-51 158.5l1 321h80zM117 712h75l81 -103l80 103h74l-101 -129h-108z" />
    <glyph glyph-name="uni01D5" unicode="&#x1d5;" horiz-adv-x="654" 
d="M327 -10q-125 0 -197 72t-72 203v435h83v-430q0 -100 49 -153.5t137 -53.5t137 53.5t49 153.5v430h83v-435q0 -131 -72 -203t-197 -72zM180 981v50h295v-50h-295zM182 853q0 21 15 35.5t36 14.5q20 0 35 -14.5t15 -35.5q0 -20 -15 -35t-35 -15t-35.5 15t-15.5 35z
M371 853q0 21 15 35.5t36 14.5q20 0 35 -14.5t15 -35.5q0 -20 -15 -35t-35 -15t-35.5 15t-15.5 35z" />
    <glyph glyph-name="uni01D6" unicode="&#x1d6;" 
d="M137 215q0 -157 134 -157q66 0 107.5 37.5t45.5 104.5l1 320h80l-1 -520h-80v102h-2q-10 -38 -55 -75t-124 -37q-84 0 -135 50.5t-51 158.5l1 321h80zM130 801v50h295v-50h-295zM133 673q0 21 15 35.5t36 14.5q20 0 35 -14.5t15 -35.5q0 -20 -15 -35t-35 -15t-35.5 15
t-15.5 35zM322 673q0 21 15 35.5t36 14.5q20 0 35 -14.5t15 -35.5q0 -20 -15 -35t-35 -15t-35.5 15t-15.5 35z" />
    <glyph glyph-name="uni01D7" unicode="&#x1d7;" horiz-adv-x="654" 
d="M327 -10q-125 0 -197 72t-72 203v435h83v-430q0 -100 49 -153.5t137 -53.5t137 53.5t49 153.5v430h83v-435q0 -131 -72 -203t-197 -72zM182 853q0 21 15 35.5t36 14.5q20 0 35 -14.5t15 -35.5q0 -20 -15 -35t-35 -15t-35.5 15t-15.5 35zM285 935l101 131h73l-101 -131
h-73zM371 853q0 21 15 35.5t36 14.5q20 0 35 -14.5t15 -35.5q0 -20 -15 -35t-35 -15t-35.5 15t-15.5 35z" />
    <glyph glyph-name="uni01D8" unicode="&#x1d8;" 
d="M137 215q0 -157 134 -157q66 0 107.5 37.5t45.5 104.5l1 320h80l-1 -520h-80v102h-2q-10 -38 -55 -75t-124 -37q-84 0 -135 50.5t-51 158.5l1 321h80zM133 673q0 21 15 35.5t36 14.5q20 0 35 -14.5t15 -35.5q0 -20 -15 -35t-35 -15t-35.5 15t-15.5 35zM236 755l101 131
h73l-101 -131h-73zM322 673q0 21 15 35.5t36 14.5q20 0 35 -14.5t15 -35.5q0 -20 -15 -35t-35 -15t-35.5 15t-15.5 35z" />
    <glyph glyph-name="uni01D9" unicode="&#x1d9;" horiz-adv-x="654" 
d="M327 -10q-125 0 -197 72t-72 203v435h83v-430q0 -100 49 -153.5t137 -53.5t137 53.5t49 153.5v430h83v-435q0 -131 -72 -203t-197 -72zM171 1065h75l81 -103l80 103h74l-101 -129h-108zM182 853q0 21 15 35.5t36 14.5q20 0 35 -14.5t15 -35.5q0 -20 -15 -35t-35 -15
t-35.5 15t-15.5 35zM371 853q0 21 15 35.5t36 14.5q20 0 35 -14.5t15 -35.5q0 -20 -15 -35t-35 -15t-35.5 15t-15.5 35z" />
    <glyph glyph-name="uni01DA" unicode="&#x1da;" 
d="M137 215q0 -157 134 -157q66 0 107.5 37.5t45.5 104.5l1 320h80l-1 -520h-80v102h-2q-10 -38 -55 -75t-124 -37q-84 0 -135 50.5t-51 158.5l1 321h80zM122 885h75l81 -103l80 103h74l-101 -129h-108zM133 673q0 21 15 35.5t36 14.5q20 0 35 -14.5t15 -35.5q0 -20 -15 -35
t-35 -15t-35.5 15t-15.5 35zM322 673q0 21 15 35.5t36 14.5q20 0 35 -14.5t15 -35.5q0 -20 -15 -35t-35 -15t-35.5 15t-15.5 35z" />
    <glyph glyph-name="uni01DB" unicode="&#x1db;" horiz-adv-x="654" 
d="M327 -10q-125 0 -197 72t-72 203v435h83v-430q0 -100 49 -153.5t137 -53.5t137 53.5t49 153.5v430h83v-435q0 -131 -72 -203t-197 -72zM182 853q0 21 15 35.5t36 14.5q20 0 35 -14.5t15 -35.5q0 -20 -15 -35t-35 -15t-35.5 15t-15.5 35zM192 1066h73l101 -131h-73z
M371 853q0 21 15 35.5t36 14.5q20 0 35 -14.5t15 -35.5q0 -20 -15 -35t-35 -15t-35.5 15t-15.5 35z" />
    <glyph glyph-name="uni01DC" unicode="&#x1dc;" 
d="M137 215q0 -157 134 -157q66 0 107.5 37.5t45.5 104.5l1 320h80l-1 -520h-80v102h-2q-10 -38 -55 -75t-124 -37q-84 0 -135 50.5t-51 158.5l1 321h80zM133 673q0 21 15 35.5t36 14.5q20 0 35 -14.5t15 -35.5q0 -20 -15 -35t-35 -15t-35.5 15t-15.5 35zM143 886h73
l101 -131h-73zM322 673q0 21 15 35.5t36 14.5q20 0 35 -14.5t15 -35.5q0 -20 -15 -35t-35 -15t-35.5 15t-15.5 35z" />
    <glyph glyph-name="Gcaron" unicode="&#x1e6;" horiz-adv-x="697" 
d="M360 -10q-147 0 -232 93t-85 266t86 266.5t230 93.5q105 0 175.5 -48.5t91.5 -140.5h-82q-40 117 -185 117q-111 0 -172.5 -74t-61.5 -212q0 -139 62.5 -214t173.5 -75q96 0 152 57.5t56 171.5h-176v68h257v-49q0 -156 -76 -238t-214 -82zM202 892h75l81 -103l80 103h74
l-101 -129h-108z" />
    <glyph glyph-name="gcaron" unicode="&#x1e7;" horiz-adv-x="583" 
d="M276 -209q-59 0 -107.5 14.5t-84 52.5t-35.5 95h71q2 -46 45.5 -72.5t109.5 -26.5q77 0 124 38t47 116v96h-2q-26 -45 -75.5 -69t-106.5 -24q-97 0 -163 66t-66 194t66.5 193.5t162.5 65.5q57 0 106.5 -24t75.5 -69h2v83h80v-512q0 -50 -15.5 -89t-40 -62.5t-58.5 -39
t-67 -21t-69 -5.5zM109 271q0 -93 49 -142.5t120 -49.5q72 0 122 49.5t50 142.5t-50 142.5t-122 49.5q-71 0 -120 -49.5t-49 -142.5zM130 712h75l81 -103l80 103h74l-101 -129h-108z" />
    <glyph glyph-name="uni01E8" unicode="&#x1e8;" horiz-adv-x="635" 
d="M58 0v700h82v-389l349 389h99l-289 -322l314 -378h-97l-269 320l-107 -119v-201h-82zM167 892h75l81 -103l80 103h74l-101 -129h-108z" />
    <glyph glyph-name="uni01E9" unicode="&#x1e9;" horiz-adv-x="540" 
d="M58 0v700h80v-461l269 281h92l-221 -226l250 -294h-92l-208 243l-90 -91v-152h-80zM-60 892h76l81 -103l80 103h74l-101 -129h-108z" />
    <glyph glyph-name="uni01EA" unicode="&#x1ea;" horiz-adv-x="720" 
d="M438 -185q-53 -13 -101 12.5t-48 83.5q0 48 36 81q-127 12 -204.5 105.5t-77.5 252.5q0 169 88 264t229 95t229.5 -95t88.5 -264q0 -147 -68 -239.5t-182 -114.5q-38 -8 -57.5 -28.5t-19.5 -48.5q0 -32 24 -47.5t63 -8.5v-48zM127 350q0 -138 64 -213t169 -75t169.5 74.5
t64.5 213.5q0 138 -64 212.5t-170 74.5q-105 0 -169 -74.5t-64 -212.5z" />
    <glyph glyph-name="uni01EB" unicode="&#x1eb;" horiz-adv-x="565" 
d="M353 -185q-53 -13 -101 12.5t-48 83.5q0 51 38 82q-91 13 -150 81.5t-59 185.5q0 131 72.5 200.5t177.5 69.5t177.5 -69.5t72.5 -200.5q0 -111 -53 -178t-137 -86q-38 -8 -57.5 -28.5t-19.5 -48.5q0 -32 24 -47.5t63 -8.5v-48zM109 260q0 -99 50 -150.5t124 -51.5
q73 0 123 51.5t50 150.5t-50 151t-123 52q-74 0 -124 -52t-50 -151z" />
    <glyph glyph-name="uni0218" unicode="&#x218;" horiz-adv-x="613" 
d="M311 -10q-129 0 -198.5 58.5t-69.5 155.5h83q4 -64 50 -103.5t136 -39.5q84 0 128 35.5t44 96.5q0 55 -35.5 84t-102.5 42l-93 19q-190 37 -190 184q0 87 63.5 137t179.5 50q115 0 179 -50.5t64 -136.5h-82q-2 53 -43.5 85t-118.5 32q-79 0 -117.5 -32.5t-38.5 -84.5
q0 -92 127 -117l90 -18q101 -21 152.5 -66t51.5 -127q0 -97 -69 -150.5t-190 -53.5zM248 -77q0 23 15 38.5t40 15.5q29 0 47 -22t18 -67q0 -56 -28 -87t-73 -31h-8v38q31 1 44.5 15.5t13.5 42.5q-32 -1 -50.5 15.5t-18.5 41.5z" />
    <glyph glyph-name="uni0219" unicode="&#x219;" horiz-adv-x="480" 
d="M242 -10q-94 0 -152 39.5t-62 118.5h72q7 -50 46.5 -72.5t96.5 -22.5t92.5 22.5t35.5 68.5q0 36 -22 53t-69 28l-98 23q-138 33 -138 140q0 68 53 105t143 37t143 -39t57 -115h-68q-15 91 -132 91q-118 0 -118 -79q0 -31 20.5 -50t66.5 -29l97 -23q72 -17 109.5 -48.5
t37.5 -92.5q0 -41 -17.5 -72t-48 -48.5t-67 -26t-78.5 -8.5zM188 -88q0 24 15 39t40 15q29 0 47 -22t18 -67q0 -56 -28 -87t-73 -31h-8v38q31 1 44.5 15.5t13.5 42.5q-32 -1 -50.5 15.5t-18.5 41.5z" />
    <glyph glyph-name="uni021A" unicode="&#x21a;" horiz-adv-x="580" 
d="M249 0v626h-221v74h524v-74h-221v-626h-82zM222 -77q0 23 15 38.5t40 15.5q29 0 47 -22t18 -67q0 -56 -28 -87t-73 -31h-8v38q31 1 44.5 15.5t13.5 42.5q-32 -1 -50.5 15.5t-18.5 41.5z" />
    <glyph glyph-name="uni021B" unicode="&#x21b;" horiz-adv-x="325" 
d="M240 -7q-133 0 -133 129v333h-84v65h84v130h80v-130h103v-65h-103v-318q0 -42 16.5 -60t58.5 -18q22 0 36 2v-62q-27 -6 -58 -6zM155 -77q0 23 15.5 38.5t39.5 15.5q29 0 47 -22t18 -67q0 -56 -28 -87t-73 -31h-8v38q31 1 44.5 15.5t13.5 42.5q-32 -1 -50.5 15.5
t-18.5 41.5z" />
    <glyph glyph-name="uni0237" unicode="&#x237;" horiz-adv-x="202" 
d="M21 -188q-36 0 -56 3v63h33q43 0 60 17.5t17 59.5v565h80v-580q0 -128 -134 -128z" />
    <glyph glyph-name="uni0259" unicode="&#x259;" horiz-adv-x="540" 
d="M265 -11q-105 0 -168.5 66t-63.5 191q0 22 3 37h395q-9 184 -171 184q-115 0 -148 -93h-72q45 156 220 156q112 0 180 -68t68 -201q0 -135 -68.5 -203.5t-174.5 -68.5zM109 225q1 -82 42.5 -127t114.5 -45q71 0 115 44t49 128h-321z" />
    <glyph glyph-name="circumflex" unicode="&#x2c6;" horiz-adv-x="310" 
d="M0 584l101 129h108l101 -129h-74l-80 103l-81 -103h-75z" />
    <glyph glyph-name="caron" unicode="&#x2c7;" horiz-adv-x="319" 
d="M0 712h75l81 -103l80 103h74l-101 -129h-108z" />
    <glyph glyph-name="breve" unicode="&#x2d8;" horiz-adv-x="290" 
d="M145 585q-71 0 -105.5 36t-34.5 92h56q3 -78 84 -78q82 0 85 78h55q0 -56 -34.5 -92t-105.5 -36z" />
    <glyph glyph-name="dotaccent" unicode="&#x2d9;" horiz-adv-x="101" 
d="M51 623q-20 0 -35.5 15t-15.5 35q0 21 15 35.5t36 14.5q20 0 35 -14.5t15 -35.5q0 -20 -15 -35t-35 -15z" />
    <glyph glyph-name="ring" unicode="&#x2da;" horiz-adv-x="176" 
d="M88 571q-37 0 -62.5 25t-25.5 60q0 36 25.5 61t62.5 25t62.5 -25t25.5 -61q0 -35 -25.5 -60t-62.5 -25zM43 656q0 -19 13 -32t32 -13q20 0 33 13t13 32q0 20 -13 33t-33 13q-19 0 -32 -13.5t-13 -32.5z" />
    <glyph glyph-name="ogonek" unicode="&#x2db;" horiz-adv-x="180" 
d="M149 -185q-52 -13 -100.5 12.5t-48.5 83.5q0 52 39 83t89 31l52 -25q-57 0 -87.5 -23t-30.5 -58q0 -32 24.5 -47.5t62.5 -8.5v-48z" />
    <glyph glyph-name="tilde" unicode="&#x2dc;" horiz-adv-x="325" 
d="M235 604q-31 0 -54.5 17t-42.5 34t-39 17t-31.5 -13.5t-10.5 -30.5h-52q0 47 23.5 71.5t62.5 24.5q31 0 54.5 -17t42.5 -34t39 -17t31 13.5t11 30.5h51q0 -47 -23 -71.5t-62 -24.5z" />
    <glyph glyph-name="hungarumlaut" unicode="&#x2dd;" horiz-adv-x="315" 
d="M142 582l101 131h73l-101 -131h-73zM0 582l101 131h73l-101 -131h-73z" />
    <glyph glyph-name="gravecomb" unicode="&#x300;" horiz-adv-x="0" 
d="M101 582l-101 131h73l101 -131h-73z" />
    <glyph glyph-name="acutecomb" unicode="&#x301;" horiz-adv-x="0" 
d="M0 582l101 131h73l-101 -131h-73z" />
    <glyph glyph-name="uni0302" unicode="&#x302;" horiz-adv-x="0" 
d="M0 584l101 129h108l101 -129h-74l-80 103l-81 -103h-75z" />
    <glyph glyph-name="tildecomb" unicode="&#x303;" horiz-adv-x="0" 
d="M235 604q-31 0 -54.5 17t-42.5 34t-39 17t-31.5 -13.5t-10.5 -30.5h-52q0 47 23.5 71.5t62.5 24.5q31 0 54.5 -17t42.5 -34t39 -17t31 13.5t11 30.5h51q0 -47 -23 -71.5t-62 -24.5z" />
    <glyph glyph-name="uni0304" unicode="&#x304;" horiz-adv-x="0" 
d="M0 663v50h295v-50h-295z" />
    <glyph glyph-name="uni0306" unicode="&#x306;" horiz-adv-x="0" 
d="M145 585q-71 0 -105.5 36t-34.5 92h56q3 -78 84 -78q82 0 85 78h55q0 -56 -34.5 -92t-105.5 -36z" />
    <glyph glyph-name="uni0307" unicode="&#x307;" horiz-adv-x="0" 
d="M51 623q-20 0 -35.5 15t-15.5 35q0 21 15 35.5t36 14.5q20 0 35 -14.5t15 -35.5q0 -20 -15 -35t-35 -15z" />
    <glyph glyph-name="uni0308" unicode="&#x308;" horiz-adv-x="0" 
d="M240 623q-20 0 -35.5 15t-15.5 35q0 21 15 35.5t36 14.5q20 0 35 -14.5t15 -35.5q0 -20 -15 -35t-35 -15zM0 673q0 21 15 35.5t36 14.5q20 0 35 -14.5t15 -35.5q0 -20 -15 -35t-35 -15t-35.5 15t-15.5 35z" />
    <glyph glyph-name="hookabovecomb" unicode="&#x309;" horiz-adv-x="0" 
d="M125 604q62 2 62 55q0 24 -13.5 38t-35.5 14q-20 0 -33.5 -11.5t-14.5 -32.5h-45q0 43 28 66.5t65 23.5q40 0 68.5 -25t28.5 -70q0 -41 -25 -66t-60 -29z" />
    <glyph glyph-name="uni030A" unicode="&#x30a;" horiz-adv-x="0" 
d="M88 571q-37 0 -62.5 25t-25.5 60q0 36 25.5 61t62.5 25t62.5 -25t25.5 -61q0 -35 -25.5 -60t-62.5 -25zM43 656q0 -19 13 -32t32 -13q20 0 33 13t13 32q0 20 -13 33t-33 13q-19 0 -32 -13.5t-13 -32.5z" />
    <glyph glyph-name="uni030B" unicode="&#x30b;" horiz-adv-x="0" 
d="M142 582l101 131h73l-101 -131h-73zM0 582l101 131h73l-101 -131h-73z" />
    <glyph glyph-name="uni030C" unicode="&#x30c;" horiz-adv-x="0" 
d="M0 712h75l81 -103l80 103h74l-101 -129h-108z" />
    <glyph glyph-name="uni0312" unicode="&#x312;" horiz-adv-x="0" 
d="M146 662q-31 -1 -44.5 -15.5t-13.5 -42.5q32 1 50.5 -15.5t18.5 -41.5q0 -23 -15.5 -38.5t-39.5 -15.5q-29 0 -47 22t-18 67q0 56 28 87t73 31h8v-38z" />
    <glyph glyph-name="uni031B" unicode="&#x31b;" horiz-adv-x="0" 
d="M0 455v65h113v88h70v-153h-183z" />
    <glyph glyph-name="dotbelowcomb" unicode="&#x323;" horiz-adv-x="0" 
d="M107 -230q-23 0 -40 16.5t-17 39.5t17 39.5t40 16.5t39.5 -16.5t16.5 -39.5t-16.5 -39.5t-39.5 -16.5z" />
    <glyph glyph-name="uni0326" unicode="&#x326;" horiz-adv-x="0" 
d="M4 -192q31 1 44.5 15.5t13.5 42.5q-32 -1 -50.5 15.5t-18.5 41.5q0 23 15.5 38.5t39.5 15.5q29 0 47 -22t18 -67q0 -56 -28 -87t-73 -31h-8v38z" />
    <glyph glyph-name="uni0327" unicode="&#x327;" horiz-adv-x="0" 
d="M23 -176q36 -1 57 11.5t21 35.5q0 25 -22.5 35t-51.5 -3l-27 32l54 65h61l-45 -50q4 1 12 1q32 0 55 -21.5t23 -57.5q0 -48 -39 -71.5t-98 -23.5v47z" />
    <glyph glyph-name="uni0328" unicode="&#x328;" horiz-adv-x="0" 
d="M149 -185q-52 -13 -100.5 12.5t-48.5 83.5q0 52 39 83t89 31l52 -25q-57 0 -87.5 -23t-30.5 -58q0 -32 24.5 -47.5t62.5 -8.5v-48z" />
    <glyph glyph-name="uni0394" unicode="&#x394;" horiz-adv-x="678" 
d="M23 0l316 713h1l316 -713h-633zM127 66h425l-212 494z" />
    <glyph glyph-name="uni03A9" unicode="&#x3a9;" horiz-adv-x="781" 
d="M66 0v67h159q-86 49 -134 125t-48 173q0 147 102.5 244.5t245.5 97.5q142 0 245 -98t103 -244q0 -97 -48.5 -173t-134.5 -125h159v-67h-220v111q162 86 162 254q0 118 -78.5 192t-187.5 74q-110 0 -188.5 -74t-78.5 -192q0 -167 163 -254v-111h-221z" />
    <glyph glyph-name="uni03BC" unicode="&#x3bc;" 
d="M58 -190v710h80v-304q0 -158 134 -158q71 0 112 42t41 116v304h80v-520h-80v94q-12 -38 -52.5 -71t-109.5 -33q-88 0 -125 63v-243h-80z" />
    <glyph glyph-name="pi" unicode="&#x3c0;" horiz-adv-x="668" 
d="M548 -6q-49 0 -80.5 25t-31.5 83v348h-208v-450h-80v450h-100v70h567v-70h-99v-330q0 -30 13 -43t40 -13q30 0 57 14v-63q-27 -21 -78 -21z" />
    <glyph glyph-name="uni0401" unicode="&#x401;" horiz-adv-x="545" 
d="M58 0v700h445v-73h-363v-234h333v-67h-333v-253h373v-73h-455zM136 853q0 21 15 35.5t36 14.5q20 0 35 -14.5t15 -35.5q0 -20 -15 -35t-35 -15t-35.5 15t-15.5 35zM325 853q0 21 15 35.5t36 14.5q20 0 35 -14.5t15 -35.5q0 -20 -15 -35t-35 -15t-35.5 15t-15.5 35z" />
    <glyph glyph-name="uni0403" unicode="&#x403;" horiz-adv-x="499" 
d="M58 0v700h414v-73h-331v-627h-83zM233 762l101 131h73l-101 -131h-73z" />
    <glyph glyph-name="uni0404" unicode="&#x404;" horiz-adv-x="662" 
d="M359 -10q-143 0 -229.5 93.5t-86.5 266.5t86 266t230 93q110 0 183 -54.5t90 -158.5h-81q-18 68 -68.5 104.5t-124.5 36.5q-98 0 -159 -63t-71 -180h250v-68h-251q5 -126 67 -195t164 -69q74 0 124.5 36.5t68.5 106.5h81q-17 -105 -90 -160t-183 -55z" />
    <glyph glyph-name="uni0407" unicode="&#x407;" horiz-adv-x="198" 
d="M58 0v700h82v-700h-82zM-47 853q0 21 15 35.5t36 14.5q20 0 35 -14.5t15 -35.5q0 -20 -15 -35t-35 -15t-35.5 15t-15.5 35zM142 853q0 21 15 35.5t36 14.5q20 0 35 -14.5t15 -35.5q0 -20 -15 -35t-35 -15t-35.5 15t-15.5 35z" />
    <glyph glyph-name="uni040C" unicode="&#x40c;" horiz-adv-x="635" 
d="M58 0v700h82v-389l349 389h99l-289 -322l314 -378h-97l-269 320l-107 -119v-201h-82zM282 762l101 131h73l-101 -131h-73z" />
    <glyph glyph-name="uni040E" unicode="&#x40e;" horiz-adv-x="565" 
d="M94 68q53 -7 82.5 12.5t48.5 64.5q18 44 1 83l-198 472h90l164 -410l165 410h91l-234 -558q-38 -90 -87 -125t-123 -26v77zM143 893h56q3 -78 84 -78q82 0 85 78h55q0 -56 -34.5 -92t-105.5 -36t-105.5 36t-34.5 92z" />
    <glyph glyph-name="uni0410" unicode="&#x410;" horiz-adv-x="682" 
d="M23 0l267 700h102l267 -700h-87l-65 175h-332l-65 -175h-87zM199 239h284l-139 372h-6z" />
    <glyph glyph-name="uni0411" unicode="&#x411;" horiz-adv-x="592" 
d="M58 0v700h414v-73h-331v-181h173q119 0 182.5 -58.5t63.5 -163.5q0 -106 -63.5 -165t-182.5 -59h-256zM141 74h170q79 0 120 38.5t41 111.5q0 72 -41 110t-120 38h-170v-298z" />
    <glyph glyph-name="uni0412" unicode="&#x412;" horiz-adv-x="605" 
d="M58 0v700h262q105 0 156.5 -45.5t51.5 -122.5q0 -115 -102 -148q147 -37 147 -182q0 -92 -63.5 -147t-186.5 -55h-265zM140 71h178q83 0 125.5 36.5t42.5 98.5q0 63 -42.5 98.5t-125.5 35.5h-178v-269zM140 411h173q64 0 97 29t33 82q0 107 -130 107h-173v-218z" />
    <glyph glyph-name="uni0413" unicode="&#x413;" horiz-adv-x="499" 
d="M58 0v700h414v-73h-331v-627h-83z" />
    <glyph glyph-name="uni0414" unicode="&#x414;" horiz-adv-x="688" 
d="M23 -69v139h34q46 43 64 149.5t18 320.5v160h471v-630h45v-139h-80v69h-472v-69h-80zM147 70h380v557h-305v-87q0 -215 -16 -321.5t-59 -148.5z" />
    <glyph glyph-name="uni0415" unicode="&#x415;" horiz-adv-x="545" 
d="M58 0v700h445v-73h-363v-234h333v-67h-333v-253h373v-73h-455z" />
    <glyph glyph-name="uni0416" unicode="&#x416;" horiz-adv-x="905" 
d="M785 0l-291 322v-322h-83v322l-291 -322h-97l320 357l-305 343h97l276 -307v307h83v-307l276 307h97l-305 -343l320 -357h-97z" />
    <glyph glyph-name="uni0417" unicode="&#x417;" horiz-adv-x="575" 
d="M282 -10q-118 0 -181 63.5t-63 170.5h76q1 -77 46.5 -120.5t124.5 -43.5q74 0 123 38.5t49 106.5q0 65 -48 101.5t-135 36.5h-30v63h26q82 0 117 34t35 84q0 54 -37.5 84.5t-100.5 30.5q-67 0 -107 -37t-41 -117h-75q0 110 59.5 167t165.5 57q100 0 157 -48.5t57 -126.5
q0 -57 -31.5 -97.5t-86.5 -56.5q63 -11 109.5 -56.5t46.5 -123.5q0 -93 -70.5 -151.5t-185.5 -58.5z" />
    <glyph glyph-name="uni0418" unicode="&#x418;" horiz-adv-x="662" 
d="M604 0h-82v571h-3l-367 -571h-95v700h83v-573h2l370 573h92v-700z" />
    <glyph glyph-name="uni0419" unicode="&#x419;" horiz-adv-x="662" 
d="M604 0h-82v571h-3l-367 -571h-95v700h83v-573h2l370 573h92v-700zM191 893h56q3 -78 84 -78q82 0 85 78h55q0 -56 -34.5 -92t-105.5 -36t-105.5 36t-34.5 92z" />
    <glyph glyph-name="uni041A" unicode="&#x41a;" horiz-adv-x="635" 
d="M58 0v700h82v-389l349 389h99l-289 -322l314 -378h-97l-269 320l-107 -119v-201h-82z" />
    <glyph glyph-name="uni041B" unicode="&#x41b;" horiz-adv-x="676" 
d="M15 67q60 -1 93.5 33t33.5 123v477h477v-700h-84v627h-309v-407q0 -123 -57.5 -178t-153.5 -49v74z" />
    <glyph glyph-name="uni041C" unicode="&#x41c;" horiz-adv-x="829" 
d="M58 0v700h99l258 -593l257 593h100v-700h-83v548h-3l-237 -548h-68l-238 548h-3v-548h-82z" />
    <glyph glyph-name="uni041D" unicode="&#x41d;" horiz-adv-x="649" 
d="M509 0v309h-369v-309h-82v700h82v-322h369v322h83v-700h-83z" />
    <glyph glyph-name="uni041E" unicode="&#x41e;" horiz-adv-x="720" 
d="M360 -10q-141 0 -229 95t-88 265q0 169 88 264t229 95t229.5 -95t88.5 -264t-88.5 -264.5t-229.5 -95.5zM127 350q0 -138 64 -213t169 -75t169.5 74.5t64.5 213.5q0 138 -64 212.5t-170 74.5q-105 0 -169 -74.5t-64 -212.5z" />
    <glyph glyph-name="uni041F" unicode="&#x41f;" horiz-adv-x="649" 
d="M58 0v700h534v-700h-84v627h-367v-627h-83z" />
    <glyph glyph-name="uni0420" unicode="&#x420;" horiz-adv-x="592" 
d="M58 0v700h255q121 0 184 -57t63 -159q0 -101 -63 -157.5t-184 -56.5h-173v-270h-82zM140 343h170q82 0 124 36t42 105q0 143 -166 143h-170v-284z" />
    <glyph glyph-name="uni0421" unicode="&#x421;" horiz-adv-x="662" 
d="M359 -10q-143 0 -229.5 93.5t-86.5 266.5t86 266t230 93q110 0 183 -54.5t90 -158.5h-81q-18 68 -68.5 104.5t-124.5 36.5q-107 0 -169.5 -75t-62.5 -212t62.5 -212.5t169.5 -75.5q74 0 124.5 36.5t68.5 106.5h81q-17 -105 -90 -160t-183 -55z" />
    <glyph glyph-name="uni0422" unicode="&#x422;" horiz-adv-x="580" 
d="M249 0v626h-221v74h524v-74h-221v-626h-82z" />
    <glyph glyph-name="uni0423" unicode="&#x423;" horiz-adv-x="565" 
d="M94 68q53 -7 82.5 12.5t48.5 64.5q18 44 1 83l-198 472h90l164 -410l165 410h91l-234 -558q-38 -90 -87 -125t-123 -26v77z" />
    <glyph glyph-name="uni0424" unicode="&#x424;" horiz-adv-x="715" 
d="M316 -15v75q-126 11 -199.5 85.5t-73.5 204.5t73.5 205t199.5 86v74h83v-74q126 -11 199.5 -86t73.5 -205q0 -129 -73.5 -204t-199.5 -86v-75h-83zM123 350q0 -99 51.5 -157t141.5 -69v452q-91 -11 -142 -68.5t-51 -157.5zM399 124q91 12 142 69.5t51 156.5
q0 100 -51 157t-142 69v-452z" />
    <glyph glyph-name="uni0425" unicode="&#x425;" horiz-adv-x="645" 
d="M530 0l-207 295l-207 -295h-93l254 361l-238 339h93l191 -272l191 272h93l-238 -339l254 -361h-93z" />
    <glyph glyph-name="uni0426" unicode="&#x426;" horiz-adv-x="659" 
d="M58 0v700h83v-626h367v626h84v-626h45v-215h-80v141h-499z" />
    <glyph glyph-name="uni0427" unicode="&#x427;" horiz-adv-x="625" 
d="M248 163q-90 0 -147.5 53.5t-57.5 166.5v317h83v-314q0 -77 42 -112.5t112 -35.5q82 0 138.5 46t65.5 92v324h84v-700h-84v297q-12 -40 -77 -87t-159 -47z" />
    <glyph glyph-name="uni0428" unicode="&#x428;" horiz-adv-x="789" 
d="M58 0v700h83v-626h212v626h83v-626h212v626h83v-700h-673z" />
    <glyph glyph-name="uni0429" unicode="&#x429;" horiz-adv-x="801" 
d="M58 0v700h83v-626h212v626h83v-626h212v626h83v-626h47v-215h-80v141h-640z" />
    <glyph glyph-name="uni042A" unicode="&#x42a;" horiz-adv-x="640" 
d="M23 627v73h166v-254h169q122 0 186 -58.5t64 -163.5q0 -106 -64 -165t-186 -59h-252v627h-83zM189 74h170q79 0 120 38.5t41 111.5q0 72 -41 110t-120 38h-170v-298z" />
    <glyph glyph-name="uni042B" unicode="&#x42b;" horiz-adv-x="775" 
d="M58 0v700h83v-254h169q122 0 186 -58.5t64 -163.5q0 -106 -64 -165t-186 -59h-252zM141 74h170q79 0 120 38.5t41 111.5q0 72 -41 110t-120 38h-170v-298zM636 0v700h82v-700h-82z" />
    <glyph glyph-name="uni042C" unicode="&#x42c;" horiz-adv-x="592" 
d="M58 0v700h83v-254h169q122 0 186 -58.5t64 -163.5q0 -106 -64 -165t-186 -59h-252zM141 74h170q79 0 120 38.5t41 111.5q0 72 -41 110t-120 38h-170v-298z" />
    <glyph glyph-name="uni042D" unicode="&#x42d;" horiz-adv-x="665" 
d="M287 326v68h250q-10 117 -71 180t-159 63q-74 0 -124.5 -36.5t-68.5 -104.5h-81q17 104 90 158.5t183 54.5q144 0 230 -93t86 -266t-86.5 -266.5t-229.5 -93.5q-110 0 -183 55t-90 160h81q18 -70 68.5 -106.5t124.5 -36.5q102 0 164 69t67 195h-251z" />
    <glyph glyph-name="uni042E" unicode="&#x42e;" horiz-adv-x="927" 
d="M58 0v700h82v-322h111q7 157 94 244t222 87q141 0 229.5 -95t88.5 -264t-88.5 -264.5t-229.5 -95.5q-131 0 -217.5 84t-98.5 235h-111v-309h-82zM334 350q0 -138 64 -213t169 -75t169.5 74.5t64.5 213.5q0 138 -64 212.5t-170 74.5q-105 0 -169 -74.5t-64 -212.5z" />
    <glyph glyph-name="uni042F" unicode="&#x42f;" horiz-adv-x="598" 
d="M540 0h-82v270h-183l-159 -270h-83l165 280q-79 18 -119.5 71t-40.5 133q0 102 63 159t184 57h255v-700zM122 484q0 -69 42 -105t124 -36h170v284h-170q-166 0 -166 -143z" />
    <glyph glyph-name="uni0430" unicode="&#x430;" horiz-adv-x="530" 
d="M205 -10q-78 0 -125 35.5t-47 105.5q0 66 44 100.5t131 46.5l114 15q75 10 75 33v25q0 64 -32 91t-97 27q-128 0 -128 -98v-11h-76v18q0 152 207 152q105 0 155.5 -42.5t50.5 -135.5v-269q0 -18 7.5 -26.5t23.5 -7.5v-50q-11 -5 -31 -5q-35 0 -55.5 15.5t-20.5 46.5v32
h-3q-6 -12 -18 -26t-34.5 -31.5t-59.5 -29t-81 -11.5zM113 136q0 -82 106 -82q82 0 130 46t48 85v77q-5 -17 -69 -26l-102 -14q-63 -9 -88 -30t-25 -56z" />
    <glyph glyph-name="uni0431" unicode="&#x431;" horiz-adv-x="558" 
d="M284 -9q-45 0 -86.5 17t-77 50.5t-56.5 93t-21 137.5v177q0 117 56.5 175.5t164.5 58.5h70q54 0 76 22h76q-20 -48 -53 -67t-99 -19h-70q-67 0 -106 -38t-39 -103v-75q21 50 70.5 77.5t106.5 27.5q92 0 160.5 -68.5t68.5 -197.5q0 -131 -72.5 -199.5t-168.5 -68.5z
M120 259q0 -97 48 -149t116 -52q69 0 117 51t48 150q0 98 -48 150t-117 52q-68 0 -116 -52t-48 -150z" />
    <glyph glyph-name="uni0432" unicode="&#x432;" horiz-adv-x="553" 
d="M58 0v520h252q81 0 126 -33.5t45 -93.5q0 -78 -75 -105q114 -32 114 -139q0 -72 -54 -110.5t-153 -38.5h-255zM138 68h165q138 0 138 90q0 96 -137 96h-166v-186zM138 306h164q105 0 105 74q0 73 -106 73h-163v-147z" />
    <glyph glyph-name="uni0433" unicode="&#x433;" horiz-adv-x="413" 
d="M58 0v520h332v-64h-252v-456h-80z" />
    <glyph glyph-name="uni0434" unicode="&#x434;" horiz-adv-x="590" 
d="M96 0v-64h-73v129h35q31 36 38.5 108t7.5 232v115h427v-455h36v-129h-73v64h-398zM136 65h315v391h-267v-51q0 -158 -8 -231t-40 -109z" />
    <glyph glyph-name="uni0435" unicode="&#x435;" horiz-adv-x="540" 
d="M280 -10q-112 0 -179.5 68.5t-67.5 200.5q0 135 68 203t175 68q105 0 168.5 -66t63.5 -192q0 -22 -3 -37h-395q9 -181 171 -181q115 0 147 92h73q-46 -156 -221 -156zM110 296h321q-1 81 -42.5 126t-113.5 45q-71 0 -115 -43.5t-50 -127.5z" />
    <glyph glyph-name="uni0436" unicode="&#x436;" horiz-adv-x="747" 
d="M636 0l-222 225v-225h-80v225l-222 -225h-99l262 263l-254 257h99l214 -219v219h80v-219l213 219h99l-253 -257l262 -263h-99z" />
    <glyph glyph-name="uni0437" unicode="&#x437;" horiz-adv-x="505" 
d="M251 -9q-105 0 -161.5 50t-56.5 137h73q0 -56 38.5 -91t108.5 -35q61 0 98.5 27.5t37.5 72.5q0 48 -43 74t-118 25v47q70 1 104.5 24t34.5 61t-32.5 61t-83.5 23q-57 0 -90.5 -28.5t-33.5 -73.5h-74q0 73 52 117.5t146 44.5q87 0 139 -38t52 -99q0 -44 -28 -72.5
t-75 -39.5q52 -8 90.5 -41t38.5 -91q0 -71 -60.5 -113t-156.5 -42z" />
    <glyph glyph-name="uni0438" unicode="&#x438;" horiz-adv-x="581" 
d="M58 0v520h80v-414h2l296 414h87v-520h-80v411h-2l-293 -411h-90z" />
    <glyph glyph-name="uni0439" unicode="&#x439;" horiz-adv-x="581" 
d="M58 0v520h80v-414h2l296 414h87v-520h-80v411h-2l-293 -411h-90zM151 713h56q3 -78 84 -78q82 0 85 78h55q0 -56 -34.5 -92t-105.5 -36t-105.5 36t-34.5 92z" />
    <glyph glyph-name="uni043A" unicode="&#x43a;" horiz-adv-x="539" 
d="M58 0v520h80v-277l262 277h94l-217 -226l249 -294h-91l-209 241l-88 -92v-149h-80z" />
    <glyph glyph-name="uni043B" unicode="&#x43b;" horiz-adv-x="595" 
d="M15 60q59 -1 90.5 33.5t31.5 125.5v301h401v-520h-80v456h-241v-240q0 -124 -53 -175.5t-149 -45.5v65z" />
    <glyph glyph-name="uni043C" unicode="&#x43c;" horiz-adv-x="700" 
d="M58 0v520h90l202 -429l203 429h90v-520h-80v380h-4l-176 -380h-65l-177 380h-3v-380h-80z" />
    <glyph glyph-name="uni043D" unicode="&#x43d;" horiz-adv-x="530" 
d="M58 0v520h80v-217h255v217h80v-520h-80v238h-255v-238h-80z" />
    <glyph glyph-name="uni043E" unicode="&#x43e;" horiz-adv-x="565" 
d="M283 -10q-105 0 -177.5 69.5t-72.5 200.5t72.5 200.5t177.5 69.5t177.5 -69.5t72.5 -200.5t-72.5 -200.5t-177.5 -69.5zM109 260q0 -99 50 -150.5t124 -51.5q73 0 123 51.5t50 150.5t-50 151t-123 52q-74 0 -124 -52t-50 -151z" />
    <glyph glyph-name="uni043F" unicode="&#x43f;" horiz-adv-x="535" 
d="M58 0v520h420v-520h-80v456h-260v-456h-80z" />
    <glyph glyph-name="uni0440" unicode="&#x440;" horiz-adv-x="588" 
d="M58 -190v710h80v-86q26 46 75.5 71t108.5 25q98 0 166 -68.5t68 -201.5q0 -132 -68 -201t-166 -69q-59 0 -108.5 25.5t-75.5 71.5v-277h-80zM134 260q0 -98 50.5 -150t122.5 -52t122.5 52t50.5 150t-50.5 150.5t-122.5 52.5t-122.5 -52.5t-50.5 -150.5z" />
    <glyph glyph-name="uni0441" unicode="&#x441;" horiz-adv-x="535" 
d="M284 -10q-108 0 -179.5 69t-71.5 200q0 132 71.5 201.5t179.5 69.5q38 0 72 -9t66 -29t54 -58.5t29 -90.5h-73q-11 61 -52 90t-97 29q-78 0 -126 -53t-48 -150q0 -96 48 -148t126 -52q57 0 97.5 29t51.5 92h73q-8 -70 -45 -114.5t-80.5 -60t-95.5 -15.5z" />
    <glyph glyph-name="uni0442" unicode="&#x442;" horiz-adv-x="475" 
d="M198 0v456h-168v64h415v-64h-167v-456h-80z" />
    <glyph glyph-name="uni0443" unicode="&#x443;" horiz-adv-x="535" 
d="M76 -123q103 -15 140 80q15 39 3 68l-196 495h82l163 -426l162 426h83l-224 -563q-36 -90 -86 -124.5t-127 -25.5v70z" />
    <glyph glyph-name="uni0444" unicode="&#x444;" horiz-adv-x="588" 
d="M257 -190v183q-96 11 -160 79t-64 187t64 187t160 79v175h75v-175q97 -12 160.5 -80t63.5 -186q0 -119 -63.5 -187t-160.5 -79v-183h-75zM100 259q0 -91 42.5 -142t114.5 -61v406q-72 -10 -114.5 -61t-42.5 -142zM332 56q72 10 114 61t42 142t-42 142t-114 61v-406z" />
    <glyph glyph-name="uni0445" unicode="&#x445;" horiz-adv-x="525" 
d="M33 0l185 263l-180 257h89l136 -197l135 197h89l-180 -257l186 -263h-89l-141 204l-141 -204h-89z" />
    <glyph glyph-name="uni0446" unicode="&#x446;" horiz-adv-x="578" 
d="M58 0v520h80v-455h260v455h80v-455h42v-205h-76v140h-386z" />
    <glyph glyph-name="uni0447" unicode="&#x447;" horiz-adv-x="540" 
d="M214 136q-80 0 -130.5 48t-50.5 150v186h80v-177q0 -139 128 -139q73 0 117.5 44t44.5 95v177h80v-520h-80v248q-11 -36 -60.5 -74t-128.5 -38z" />
    <glyph glyph-name="uni0448" unicode="&#x448;" horiz-adv-x="758" 
d="M58 0v520h80v-455h203v455h76v-455h204v455h80v-520h-643z" />
    <glyph glyph-name="uni0449" unicode="&#x449;" horiz-adv-x="801" 
d="M667 -140v140h-609v520h80v-455h203v455h76v-455h204v455h80v-455h42v-205h-76z" />
    <glyph glyph-name="uni044A" unicode="&#x44a;" horiz-adv-x="585" 
d="M23 456v64h170v-189h161q97 0 148 -43.5t51 -121.5q0 -80 -51 -123t-148 -43h-241v456h-90zM193 65h156q128 0 128 101t-128 101h-156v-202z" />
    <glyph glyph-name="uni044B" unicode="&#x44b;" horiz-adv-x="690" 
d="M58 0v520h80v-189h161q97 0 148 -43.5t51 -121.5q0 -80 -51 -123t-148 -43h-241zM138 65h156q128 0 128 101t-128 101h-156v-202zM552 0v520h80v-520h-80z" />
    <glyph glyph-name="uni044C" unicode="&#x44c;" horiz-adv-x="530" 
d="M58 0v520h80v-189h161q97 0 148 -43.5t51 -121.5q0 -80 -51 -123t-148 -43h-241zM138 65h156q128 0 128 101t-128 101h-156v-202z" />
    <glyph glyph-name="uni044D" unicode="&#x44d;" horiz-adv-x="538" 
d="M248 241v52h179q-8 81 -54.5 125t-117.5 44q-56 0 -97 -29t-52 -90h-73q7 52 29 90.5t54 58.5t66 29t72 9q108 0 179.5 -69.5t71.5 -201.5q0 -131 -71.5 -200t-179.5 -69q-52 0 -95.5 15.5t-80.5 60t-45 114.5h73q11 -63 51.5 -92t97.5 -29q74 0 121.5 47t52.5 135h-181z
" />
    <glyph glyph-name="uni044E" unicode="&#x44e;" horiz-adv-x="730" 
d="M47 0v520h80v-228h72q9 116 80 177t169 61q105 0 177.5 -69.5t72.5 -200.5t-72.5 -200.5t-177.5 -69.5q-97 0 -168 61t-81 176h-72v-227h-80zM274 260q0 -99 50 -150.5t124 -51.5q73 0 123 51.5t50 150.5t-50 151t-123 52q-74 0 -124 -52t-50 -151z" />
    <glyph glyph-name="uni044F" unicode="&#x44f;" horiz-adv-x="535" 
d="M173 195q-135 27 -135 160q0 79 51 122t148 43h241v-520h-80v189h-147l-127 -189h-85zM114 355q0 -101 127 -101h157v202h-157q-127 0 -127 -101z" />
    <glyph glyph-name="uni0451" unicode="&#x451;" horiz-adv-x="540" 
d="M280 -10q-112 0 -179.5 68.5t-67.5 200.5q0 135 68 203t175 68q105 0 168.5 -66t63.5 -192q0 -22 -3 -37h-395q9 -181 171 -181q115 0 147 92h73q-46 -156 -221 -156zM110 296h321q-1 81 -42.5 126t-113.5 45q-71 0 -115 -43.5t-50 -127.5zM127 673q0 21 15 35.5t36 14.5
q20 0 35 -14.5t15 -35.5q0 -20 -15 -35t-35 -15t-35.5 15t-15.5 35zM316 673q0 21 15 35.5t36 14.5q20 0 35 -14.5t15 -35.5q0 -20 -15 -35t-35 -15t-35.5 15t-15.5 35z" />
    <glyph glyph-name="uni0453" unicode="&#x453;" horiz-adv-x="413" 
d="M58 0v520h332v-64h-252v-456h-80zM171 582l101 131h73l-101 -131h-73z" />
    <glyph glyph-name="uni0454" unicode="&#x454;" horiz-adv-x="535" 
d="M284 -10q-108 0 -179.5 69t-71.5 200q0 132 71.5 201.5t179.5 69.5q38 0 72 -9t66 -29t54 -58.5t29 -90.5h-73q-11 61 -52 90t-97 29q-71 0 -117.5 -44t-54.5 -125h179v-52h-181q5 -88 52.5 -135t121.5 -47q57 0 97.5 29t51.5 92h73q-8 -70 -45 -114.5t-80.5 -60
t-95.5 -15.5z" />
    <glyph glyph-name="uni0457" unicode="&#x457;" horiz-adv-x="174" 
d="M47 0v520h80v-520h-80zM-59 673q0 21 15 35.5t36 14.5t36 -14.5t15 -35.5q0 -20 -15 -35t-36 -15q-20 0 -35.5 15t-15.5 35zM131 673q0 21 15 35.5t36 14.5q20 0 35 -14.5t15 -35.5q0 -20 -15 -35t-35 -15t-35.5 15t-15.5 35z" />
    <glyph glyph-name="uni045C" unicode="&#x45c;" horiz-adv-x="539" 
d="M58 0v520h80v-277l262 277h94l-217 -226l249 -294h-91l-209 241l-88 -92v-149h-80zM231 582l101 131h73l-101 -131h-73z" />
    <glyph glyph-name="uni045E" unicode="&#x45e;" horiz-adv-x="535" 
d="M76 -123q103 -15 140 80q15 39 3 68l-196 495h82l163 -426l162 426h83l-224 -563q-36 -90 -86 -124.5t-127 -25.5v70zM128 713h56q3 -78 84 -78q82 0 85 78h55q0 -56 -34.5 -92t-105.5 -36t-105.5 36t-34.5 92z" />
    <glyph glyph-name="uni0490" unicode="&#x490;" horiz-adv-x="499" 
d="M58 0v700h330v100h84v-173h-331v-627h-83z" />
    <glyph glyph-name="uni0491" unicode="&#x491;" horiz-adv-x="413" 
d="M58 0v520h262v66h70v-130h-252v-456h-80z" />
    <glyph glyph-name="uni1E0C" unicode="&#x1e0c;" horiz-adv-x="658" 
d="M58 0v700h226q165 0 248 -90t83 -260q0 -169 -83.5 -259.5t-247.5 -90.5h-226zM140 73h137q132 0 193.5 68t61.5 209t-61.5 209t-193.5 68h-137v-554zM273 -174q0 23 17 39.5t40 16.5t39.5 -16.5t16.5 -39.5t-16.5 -39.5t-39.5 -16.5t-40 16.5t-17 39.5z" />
    <glyph glyph-name="uni1E0D" unicode="&#x1e0d;" horiz-adv-x="588" 
d="M266 -10q-98 0 -166 69t-68 201q0 133 68 201.5t166 68.5q59 0 108.5 -25t75.5 -71v266h80v-700h-80v87q-26 -46 -75.5 -71.5t-108.5 -25.5zM108 260q0 -98 50.5 -150t122.5 -52t122.5 52t50.5 150t-50.5 150.5t-122.5 52.5t-122.5 -52.5t-50.5 -150.5zM237 -174
q0 23 17 39.5t40 16.5t39.5 -16.5t16.5 -39.5t-16.5 -39.5t-39.5 -16.5t-40 16.5t-17 39.5z" />
    <glyph glyph-name="uni1E20" unicode="&#x1e20;" horiz-adv-x="697" 
d="M360 -10q-147 0 -232 93t-85 266t86 266.5t230 93.5q105 0 175.5 -48.5t91.5 -140.5h-82q-40 117 -185 117q-111 0 -172.5 -74t-61.5 -212q0 -139 62.5 -214t173.5 -75q96 0 152 57.5t56 171.5h-176v68h257v-49q0 -156 -76 -238t-214 -82zM211 843v50h295v-50h-295z" />
    <glyph glyph-name="uni1E21" unicode="&#x1e21;" horiz-adv-x="583" 
d="M276 -209q-59 0 -107.5 14.5t-84 52.5t-35.5 95h71q2 -46 45.5 -72.5t109.5 -26.5q77 0 124 38t47 116v96h-2q-26 -45 -75.5 -69t-106.5 -24q-97 0 -163 66t-66 194t66.5 193.5t162.5 65.5q57 0 106.5 -24t75.5 -69h2v83h80v-512q0 -50 -15.5 -89t-40 -62.5t-58.5 -39
t-67 -21t-69 -5.5zM109 271q0 -93 49 -142.5t120 -49.5q72 0 122 49.5t50 142.5t-50 142.5t-122 49.5q-71 0 -120 -49.5t-49 -142.5zM139 663v50h295v-50h-295z" />
    <glyph glyph-name="uni1E24" unicode="&#x1e24;" horiz-adv-x="649" 
d="M509 0v309h-369v-309h-82v700h82v-322h369v322h83v-700h-83zM268 -174q0 23 17 39.5t40 16.5t39.5 -16.5t16.5 -39.5t-16.5 -39.5t-39.5 -16.5t-40 16.5t-17 39.5z" />
    <glyph glyph-name="uni1E25" unicode="&#x1e25;" 
d="M425 305q0 157 -134 157q-70 0 -111.5 -42t-41.5 -115v-305h-80v700h80v-282h2q10 38 55 75t124 37q84 0 135 -50.5t51 -158.5v-321h-80v305zM226 -174q0 23 17 39.5t40 16.5t39.5 -16.5t16.5 -39.5t-16.5 -39.5t-39.5 -16.5t-40 16.5t-17 39.5z" />
    <glyph glyph-name="uni1E62" unicode="&#x1e62;" horiz-adv-x="613" 
d="M311 -10q-129 0 -198.5 58.5t-69.5 155.5h83q4 -64 50 -103.5t136 -39.5q84 0 128 35.5t44 96.5q0 55 -35.5 84t-102.5 42l-93 19q-190 37 -190 184q0 87 63.5 137t179.5 50q115 0 179 -50.5t64 -136.5h-82q-2 53 -43.5 85t-118.5 32q-79 0 -117.5 -32.5t-38.5 -84.5
q0 -92 127 -117l90 -18q101 -21 152.5 -66t51.5 -127q0 -97 -69 -150.5t-190 -53.5zM247 -174q0 23 17 39.5t40 16.5t39.5 -16.5t16.5 -39.5t-16.5 -39.5t-39.5 -16.5t-40 16.5t-17 39.5z" />
    <glyph glyph-name="uni1E63" unicode="&#x1e63;" horiz-adv-x="480" 
d="M242 -10q-94 0 -152 39.5t-62 118.5h72q7 -50 46.5 -72.5t96.5 -22.5t92.5 22.5t35.5 68.5q0 36 -22 53t-69 28l-98 23q-138 33 -138 140q0 68 53 105t143 37t143 -39t57 -115h-68q-15 91 -132 91q-118 0 -118 -79q0 -31 20.5 -50t66.5 -29l97 -23q72 -17 109.5 -48.5
t37.5 -92.5q0 -41 -17.5 -72t-48 -48.5t-67 -26t-78.5 -8.5zM187 -174q0 23 17 39.5t40 16.5t39.5 -16.5t16.5 -39.5t-16.5 -39.5t-39.5 -16.5t-40 16.5t-17 39.5z" />
    <glyph glyph-name="uni1E6C" unicode="&#x1e6c;" horiz-adv-x="580" 
d="M249 0v626h-221v74h524v-74h-221v-626h-82zM221 -174q0 23 17 39.5t40 16.5t39.5 -16.5t16.5 -39.5t-16.5 -39.5t-39.5 -16.5t-40 16.5t-17 39.5z" />
    <glyph glyph-name="uni1E6D" unicode="&#x1e6d;" horiz-adv-x="325" 
d="M240 -7q-133 0 -133 129v333h-84v65h84v130h80v-130h103v-65h-103v-318q0 -42 16.5 -60t58.5 -18q22 0 36 2v-62q-27 -6 -58 -6zM154 -174q0 23 17 39.5t40 16.5t39.5 -16.5t16.5 -39.5t-16.5 -39.5t-39.5 -16.5t-40 16.5t-17 39.5z" />
    <glyph glyph-name="Wgrave" unicode="&#x1e80;" horiz-adv-x="970" 
d="M215 0l-187 700h84l150 -584h4l175 584h88l175 -584h4l150 584h85l-188 -700h-88l-182 595l-181 -595h-89zM360 893h73l101 -131h-73z" />
    <glyph glyph-name="wgrave" unicode="&#x1e81;" horiz-adv-x="795" 
d="M171 0l-148 520h77l119 -438h4l139 438h71l140 -438h4l118 438h78l-149 -520h-91l-135 414l-136 -414h-91zM273 713h73l101 -131h-73z" />
    <glyph glyph-name="Wacute" unicode="&#x1e82;" horiz-adv-x="970" 
d="M215 0l-187 700h84l150 -584h4l175 584h88l175 -584h4l150 584h85l-188 -700h-88l-182 595l-181 -595h-89zM447 762l101 131h73l-101 -131h-73z" />
    <glyph glyph-name="wacute" unicode="&#x1e83;" horiz-adv-x="795" 
d="M171 0l-148 520h77l119 -438h4l139 438h71l140 -438h4l118 438h78l-149 -520h-91l-135 414l-136 -414h-91zM360 582l101 131h73l-101 -131h-73z" />
    <glyph glyph-name="Wdieresis" unicode="&#x1e84;" horiz-adv-x="970" 
d="M215 0l-187 700h84l150 -584h4l175 584h88l175 -584h4l150 584h85l-188 -700h-88l-182 595l-181 -595h-89zM340 853q0 21 15 35.5t36 14.5q20 0 35 -14.5t15 -35.5q0 -20 -15 -35t-35 -15t-35.5 15t-15.5 35zM529 853q0 21 15 35.5t36 14.5q20 0 35 -14.5t15 -35.5
q0 -20 -15 -35t-35 -15t-35.5 15t-15.5 35z" />
    <glyph glyph-name="wdieresis" unicode="&#x1e85;" horiz-adv-x="795" 
d="M171 0l-148 520h77l119 -438h4l139 438h71l140 -438h4l118 438h78l-149 -520h-91l-135 414l-136 -414h-91zM253 673q0 21 15 35.5t36 14.5q20 0 35 -14.5t15 -35.5q0 -20 -15 -35t-35 -15t-35.5 15t-15.5 35zM442 673q0 21 15 35.5t36 14.5q20 0 35 -14.5t15 -35.5
q0 -20 -15 -35t-35 -15t-35.5 15t-15.5 35z" />
    <glyph glyph-name="uni1E92" unicode="&#x1e92;" horiz-adv-x="610" 
d="M40 0v73l434 554h-417v73h509v-73l-434 -554h438v-73h-530zM254 -174q0 23 17 39.5t40 16.5t39.5 -16.5t16.5 -39.5t-16.5 -39.5t-39.5 -16.5t-40 16.5t-17 39.5z" />
    <glyph glyph-name="uni1E93" unicode="&#x1e93;" horiz-adv-x="498" 
d="M40 0v69l323 383h-313v68h408v-68l-323 -383h323v-69h-418zM193 -174q0 23 17 39.5t40 16.5t39.5 -16.5t16.5 -39.5t-16.5 -39.5t-39.5 -16.5t-40 16.5t-17 39.5z" />
    <glyph glyph-name="uni1E9E" unicode="&#x1e9e;" horiz-adv-x="673" 
d="M412 -10q-97 0 -150.5 53t-53.5 149h77q0 -54 32.5 -91.5t94.5 -37.5q64 0 98 40.5t34 100.5q0 73 -51 116.5t-141 43.5h-62l169 272h-224q-53 0 -73.5 -23t-20.5 -74v-539h-83v544q0 90 41 128t131 38h354l-179 -280q101 -7 163 -65.5t62 -160.5q0 -98 -58 -156
t-160 -58z" />
    <glyph glyph-name="uni1EA0" unicode="&#x1ea0;" horiz-adv-x="682" 
d="M23 0l267 700h102l267 -700h-87l-65 175h-332l-65 -175h-87zM199 239h284l-139 372h-6zM285 -174q0 23 17 39.5t40 16.5t39.5 -16.5t16.5 -39.5t-16.5 -39.5t-39.5 -16.5t-40 16.5t-17 39.5z" />
    <glyph glyph-name="uni1EA1" unicode="&#x1ea1;" horiz-adv-x="538" 
d="M204 -10q-78 0 -124.5 36t-46.5 107q0 130 164 149l133 15q70 8 70 34v21q0 64 -31.5 90t-98.5 26q-66 0 -98 -23t-32 -74v-12h-77v19q0 152 210 152q107 0 157 -42.5t50 -135.5v-352h-75v90h-4q-15 -32 -64.5 -66t-132.5 -34zM113 137q0 -83 110 -83q83 0 130 43t47 89
v75q-7 -18 -75 -27l-109 -13q-56 -7 -79.5 -27.5t-23.5 -56.5zM213 -174q0 23 17 39.5t40 16.5t39.5 -16.5t16.5 -39.5t-16.5 -39.5t-39.5 -16.5t-40 16.5t-17 39.5z" />
    <glyph glyph-name="uni1EA2" unicode="&#x1ea2;" horiz-adv-x="682" 
d="M23 0l267 700h102l267 -700h-87l-65 175h-332l-65 -175h-87zM199 239h284l-139 372h-6zM254 847q0 43 28 66.5t65 23.5q40 0 68.5 -25t28.5 -70q0 -41 -25 -66t-60 -29l-25 37q62 2 62 55q0 24 -13.5 38t-35.5 14q-20 0 -33.5 -11.5t-14.5 -32.5h-45z" />
    <glyph glyph-name="uni1EA3" unicode="&#x1ea3;" horiz-adv-x="538" 
d="M204 -10q-78 0 -124.5 36t-46.5 107q0 130 164 149l133 15q70 8 70 34v21q0 64 -31.5 90t-98.5 26q-66 0 -98 -23t-32 -74v-12h-77v19q0 152 210 152q107 0 157 -42.5t50 -135.5v-352h-75v90h-4q-15 -32 -64.5 -66t-132.5 -34zM113 137q0 -83 110 -83q83 0 130 43t47 89
v75q-7 -18 -75 -27l-109 -13q-56 -7 -79.5 -27.5t-23.5 -56.5zM189 667q0 43 28 66.5t65 23.5q40 0 68.5 -25t28.5 -70q0 -41 -25 -66t-60 -29l-25 37q62 2 62 55q0 24 -13.5 38t-35.5 14q-20 0 -33.5 -11.5t-14.5 -32.5h-45z" />
    <glyph glyph-name="uni1EA4" unicode="&#x1ea4;" horiz-adv-x="682" 
d="M23 0l267 700h102l267 -700h-87l-65 175h-332l-65 -175h-87zM185 764l101 129h108l101 -129h-74l-80 103l-81 -103h-75zM199 239h284l-139 372h-6zM449 861l101 131h73l-101 -131h-73z" />
    <glyph glyph-name="uni1EA5" unicode="&#x1ea5;" horiz-adv-x="538" 
d="M204 -10q-78 0 -124.5 36t-46.5 107q0 130 164 149l133 15q70 8 70 34v21q0 64 -31.5 90t-98.5 26q-66 0 -98 -23t-32 -74v-12h-77v19q0 152 210 152q107 0 157 -42.5t50 -135.5v-352h-75v90h-4q-15 -32 -64.5 -66t-132.5 -34zM113 137q0 -83 110 -83q83 0 130 43t47 89
v75q-7 -18 -75 -27l-109 -13q-56 -7 -79.5 -27.5t-23.5 -56.5zM120 584l101 129h108l101 -129h-74l-80 103l-81 -103h-75zM384 681l101 131h73l-101 -131h-73z" />
    <glyph glyph-name="uni1EA6" unicode="&#x1ea6;" horiz-adv-x="682" 
d="M23 0l267 700h102l267 -700h-87l-65 175h-332l-65 -175h-87zM185 764l101 129h108l101 -129h-74l-80 103l-81 -103h-75zM199 239h284l-139 372h-6zM382 991h73l95 -131h-73z" />
    <glyph glyph-name="uni1EA7" unicode="&#x1ea7;" horiz-adv-x="538" 
d="M204 -10q-78 0 -124.5 36t-46.5 107q0 130 164 149l133 15q70 8 70 34v21q0 64 -31.5 90t-98.5 26q-66 0 -98 -23t-32 -74v-12h-77v19q0 152 210 152q107 0 157 -42.5t50 -135.5v-352h-75v90h-4q-15 -32 -64.5 -66t-132.5 -34zM113 137q0 -83 110 -83q83 0 130 43t47 89
v75q-7 -18 -75 -27l-109 -13q-56 -7 -79.5 -27.5t-23.5 -56.5zM120 584l101 129h108l101 -129h-74l-80 103l-81 -103h-75zM317 811h73l95 -131h-73z" />
    <glyph glyph-name="uni1EA8" unicode="&#x1ea8;" horiz-adv-x="682" 
d="M23 0l267 700h102l267 -700h-87l-65 175h-332l-65 -175h-87zM185 764l101 129h108l101 -129h-74l-80 103l-81 -103h-75zM199 239h284l-139 372h-6zM365 980q0 43 28 66.5t65 23.5q40 0 68.5 -25t28.5 -70q0 -41 -25 -66t-60 -29l-25 37q62 2 62 55q0 24 -13.5 38
t-35.5 14q-20 0 -33.5 -11.5t-14.5 -32.5h-45z" />
    <glyph glyph-name="uni1EA9" unicode="&#x1ea9;" horiz-adv-x="538" 
d="M204 -10q-78 0 -124.5 36t-46.5 107q0 130 164 149l133 15q70 8 70 34v21q0 64 -31.5 90t-98.5 26q-66 0 -98 -23t-32 -74v-12h-77v19q0 152 210 152q107 0 157 -42.5t50 -135.5v-352h-75v90h-4q-15 -32 -64.5 -66t-132.5 -34zM113 137q0 -83 110 -83q83 0 130 43t47 89
v75q-7 -18 -75 -27l-109 -13q-56 -7 -79.5 -27.5t-23.5 -56.5zM120 584l101 129h108l101 -129h-74l-80 103l-81 -103h-75zM300 800q0 43 28 66.5t65 23.5q40 0 68.5 -25t28.5 -70q0 -41 -25 -66t-60 -29l-25 37q62 2 62 55q0 24 -13.5 38t-35.5 14q-20 0 -33.5 -11.5
t-14.5 -32.5h-45z" />
    <glyph glyph-name="uni1EAA" unicode="&#x1eaa;" horiz-adv-x="682" 
d="M23 0l267 700h102l267 -700h-87l-65 175h-332l-65 -175h-87zM184 966q0 47 23.5 71.5t62.5 24.5q31 0 54.5 -17t42.5 -34t39 -17t31 13.5t11 30.5h51q0 -47 -23 -71.5t-62 -24.5q-31 0 -54.5 17t-42.5 34t-39 17t-31.5 -13.5t-10.5 -30.5h-52zM185 764l101 129h108
l101 -129h-74l-80 103l-81 -103h-75zM199 239h284l-139 372h-6z" />
    <glyph glyph-name="uni1EAB" unicode="&#x1eab;" horiz-adv-x="538" 
d="M204 -10q-78 0 -124.5 36t-46.5 107q0 130 164 149l133 15q70 8 70 34v21q0 64 -31.5 90t-98.5 26q-66 0 -98 -23t-32 -74v-12h-77v19q0 152 210 152q107 0 157 -42.5t50 -135.5v-352h-75v90h-4q-15 -32 -64.5 -66t-132.5 -34zM113 137q0 -83 110 -83q83 0 130 43t47 89
v75q-7 -18 -75 -27l-109 -13q-56 -7 -79.5 -27.5t-23.5 -56.5zM119 786q0 47 23.5 71.5t62.5 24.5q31 0 54.5 -17t42.5 -34t39 -17t31 13.5t11 30.5h51q0 -47 -23 -71.5t-62 -24.5q-31 0 -54.5 17t-42.5 34t-39 17t-31.5 -13.5t-10.5 -30.5h-52zM120 584l101 129h108
l101 -129h-74l-80 103l-81 -103h-75z" />
    <glyph glyph-name="uni1EAC" unicode="&#x1eac;" horiz-adv-x="682" 
d="M23 0l267 700h102l267 -700h-87l-65 175h-332l-65 -175h-87zM185 764l101 129h108l101 -129h-74l-80 103l-81 -103h-75zM199 239h284l-139 372h-6zM285 -174q0 23 17 39.5t40 16.5t39.5 -16.5t16.5 -39.5t-16.5 -39.5t-39.5 -16.5t-40 16.5t-17 39.5z" />
    <glyph glyph-name="uni1EAD" unicode="&#x1ead;" horiz-adv-x="538" 
d="M204 -10q-78 0 -124.5 36t-46.5 107q0 130 164 149l133 15q70 8 70 34v21q0 64 -31.5 90t-98.5 26q-66 0 -98 -23t-32 -74v-12h-77v19q0 152 210 152q107 0 157 -42.5t50 -135.5v-352h-75v90h-4q-15 -32 -64.5 -66t-132.5 -34zM113 137q0 -83 110 -83q83 0 130 43t47 89
v75q-7 -18 -75 -27l-109 -13q-56 -7 -79.5 -27.5t-23.5 -56.5zM120 584l101 129h108l101 -129h-74l-80 103l-81 -103h-75zM213 -174q0 23 17 39.5t40 16.5t39.5 -16.5t16.5 -39.5t-16.5 -39.5t-39.5 -16.5t-40 16.5t-17 39.5z" />
    <glyph glyph-name="uni1EAE" unicode="&#x1eae;" horiz-adv-x="682" 
d="M23 0l267 700h102l267 -700h-87l-65 175h-332l-65 -175h-87zM199 239h284l-139 372h-6zM201 893h56q3 -78 84 -78q82 0 85 78h55q0 -56 -34.5 -92t-105.5 -36t-105.5 36t-34.5 92zM299 925l101 131h73l-101 -131h-73z" />
    <glyph glyph-name="uni1EAF" unicode="&#x1eaf;" horiz-adv-x="538" 
d="M204 -10q-78 0 -124.5 36t-46.5 107q0 130 164 149l133 15q70 8 70 34v21q0 64 -31.5 90t-98.5 26q-66 0 -98 -23t-32 -74v-12h-77v19q0 152 210 152q107 0 157 -42.5t50 -135.5v-352h-75v90h-4q-15 -32 -64.5 -66t-132.5 -34zM113 137q0 -83 110 -83q83 0 130 43t47 89
v75q-7 -18 -75 -27l-109 -13q-56 -7 -79.5 -27.5t-23.5 -56.5zM136 713h56q3 -78 84 -78q82 0 85 78h55q0 -56 -34.5 -92t-105.5 -36t-105.5 36t-34.5 92zM234 745l101 131h73l-101 -131h-73z" />
    <glyph glyph-name="uni1EB0" unicode="&#x1eb0;" horiz-adv-x="682" 
d="M23 0l267 700h102l267 -700h-87l-65 175h-332l-65 -175h-87zM199 239h284l-139 372h-6zM201 893h56q3 -78 84 -78q82 0 85 78h55q0 -56 -34.5 -92t-105.5 -36t-105.5 36t-34.5 92zM206 1056h73l101 -131h-73z" />
    <glyph glyph-name="uni1EB1" unicode="&#x1eb1;" horiz-adv-x="538" 
d="M204 -10q-78 0 -124.5 36t-46.5 107q0 130 164 149l133 15q70 8 70 34v21q0 64 -31.5 90t-98.5 26q-66 0 -98 -23t-32 -74v-12h-77v19q0 152 210 152q107 0 157 -42.5t50 -135.5v-352h-75v90h-4q-15 -32 -64.5 -66t-132.5 -34zM113 137q0 -83 110 -83q83 0 130 43t47 89
v75q-7 -18 -75 -27l-109 -13q-56 -7 -79.5 -27.5t-23.5 -56.5zM136 713h56q3 -78 84 -78q82 0 85 78h55q0 -56 -34.5 -92t-105.5 -36t-105.5 36t-34.5 92zM141 876h73l101 -131h-73z" />
    <glyph glyph-name="uni1EB2" unicode="&#x1eb2;" horiz-adv-x="682" 
d="M23 0l267 700h102l267 -700h-87l-65 175h-332l-65 -175h-87zM199 239h284l-139 372h-6zM201 893h56q3 -78 84 -78q82 0 85 78h55q0 -56 -34.5 -92t-105.5 -36t-105.5 36t-34.5 92zM224 980q0 43 28 66.5t65 23.5q40 0 68.5 -25t28.5 -70q0 -41 -25 -66t-60 -29l-25 37
q62 2 62 55q0 24 -13.5 38t-35.5 14q-20 0 -33.5 -11.5t-14.5 -32.5h-45z" />
    <glyph glyph-name="uni1EB3" unicode="&#x1eb3;" horiz-adv-x="538" 
d="M204 -10q-78 0 -124.5 36t-46.5 107q0 130 164 149l133 15q70 8 70 34v21q0 64 -31.5 90t-98.5 26q-66 0 -98 -23t-32 -74v-12h-77v19q0 152 210 152q107 0 157 -42.5t50 -135.5v-352h-75v90h-4q-15 -32 -64.5 -66t-132.5 -34zM113 137q0 -83 110 -83q83 0 130 43t47 89
v75q-7 -18 -75 -27l-109 -13q-56 -7 -79.5 -27.5t-23.5 -56.5zM136 713h56q3 -78 84 -78q82 0 85 78h55q0 -56 -34.5 -92t-105.5 -36t-105.5 36t-34.5 92zM159 800q0 43 28 66.5t65 23.5q40 0 68.5 -25t28.5 -70q0 -41 -25 -66t-60 -29l-25 37q62 2 62 55q0 24 -13.5 38
t-35.5 14q-20 0 -33.5 -11.5t-14.5 -32.5h-45z" />
    <glyph glyph-name="uni1EB4" unicode="&#x1eb4;" horiz-adv-x="682" 
d="M23 0l267 700h102l267 -700h-87l-65 175h-332l-65 -175h-87zM184 971q0 47 23.5 71.5t62.5 24.5q31 0 54.5 -17t42.5 -34t39 -17t31 13.5t11 30.5h51q0 -47 -23 -71.5t-62 -24.5q-31 0 -54.5 17t-42.5 34t-39 17t-31.5 -13.5t-10.5 -30.5h-52zM199 239h284l-139 372h-6z
M201 893h56q3 -78 84 -78q82 0 85 78h55q0 -56 -34.5 -92t-105.5 -36t-105.5 36t-34.5 92z" />
    <glyph glyph-name="uni1EB5" unicode="&#x1eb5;" horiz-adv-x="538" 
d="M204 -10q-78 0 -124.5 36t-46.5 107q0 130 164 149l133 15q70 8 70 34v21q0 64 -31.5 90t-98.5 26q-66 0 -98 -23t-32 -74v-12h-77v19q0 152 210 152q107 0 157 -42.5t50 -135.5v-352h-75v90h-4q-15 -32 -64.5 -66t-132.5 -34zM113 137q0 -83 110 -83q83 0 130 43t47 89
v75q-7 -18 -75 -27l-109 -13q-56 -7 -79.5 -27.5t-23.5 -56.5zM119 791q0 47 23.5 71.5t62.5 24.5q31 0 54.5 -17t42.5 -34t39 -17t31 13.5t11 30.5h51q0 -47 -23 -71.5t-62 -24.5q-31 0 -54.5 17t-42.5 34t-39 17t-31.5 -13.5t-10.5 -30.5h-52zM136 713h56q3 -78 84 -78
q82 0 85 78h55q0 -56 -34.5 -92t-105.5 -36t-105.5 36t-34.5 92z" />
    <glyph glyph-name="uni1EB6" unicode="&#x1eb6;" horiz-adv-x="682" 
d="M23 0l267 700h102l267 -700h-87l-65 175h-332l-65 -175h-87zM199 239h284l-139 372h-6zM201 893h56q3 -78 84 -78q82 0 85 78h55q0 -56 -34.5 -92t-105.5 -36t-105.5 36t-34.5 92zM285 -174q0 23 17 39.5t40 16.5t39.5 -16.5t16.5 -39.5t-16.5 -39.5t-39.5 -16.5
t-40 16.5t-17 39.5z" />
    <glyph glyph-name="uni1EB7" unicode="&#x1eb7;" horiz-adv-x="538" 
d="M204 -10q-78 0 -124.5 36t-46.5 107q0 130 164 149l133 15q70 8 70 34v21q0 64 -31.5 90t-98.5 26q-66 0 -98 -23t-32 -74v-12h-77v19q0 152 210 152q107 0 157 -42.5t50 -135.5v-352h-75v90h-4q-15 -32 -64.5 -66t-132.5 -34zM113 137q0 -83 110 -83q83 0 130 43t47 89
v75q-7 -18 -75 -27l-109 -13q-56 -7 -79.5 -27.5t-23.5 -56.5zM136 713h56q3 -78 84 -78q82 0 85 78h55q0 -56 -34.5 -92t-105.5 -36t-105.5 36t-34.5 92zM213 -174q0 23 17 39.5t40 16.5t39.5 -16.5t16.5 -39.5t-16.5 -39.5t-39.5 -16.5t-40 16.5t-17 39.5z" />
    <glyph glyph-name="uni1EB8" unicode="&#x1eb8;" horiz-adv-x="545" 
d="M58 0v700h445v-73h-363v-234h333v-67h-333v-253h373v-73h-455zM225 -174q0 23 17 39.5t40 16.5t39.5 -16.5t16.5 -39.5t-16.5 -39.5t-39.5 -16.5t-40 16.5t-17 39.5z" />
    <glyph glyph-name="uni1EB9" unicode="&#x1eb9;" horiz-adv-x="540" 
d="M280 -10q-112 0 -179.5 68.5t-67.5 200.5q0 135 68 203t175 68q105 0 168.5 -66t63.5 -192q0 -22 -3 -37h-395q9 -181 171 -181q115 0 147 92h73q-46 -156 -221 -156zM110 296h321q-1 81 -42.5 126t-113.5 45q-71 0 -115 -43.5t-50 -127.5zM214 -174q0 23 17 39.5
t40 16.5t39.5 -16.5t16.5 -39.5t-16.5 -39.5t-39.5 -16.5t-40 16.5t-17 39.5z" />
    <glyph glyph-name="uni1EBA" unicode="&#x1eba;" horiz-adv-x="545" 
d="M58 0v700h445v-73h-363v-234h333v-67h-333v-253h373v-73h-455zM194 847q0 43 28 66.5t65 23.5q40 0 68.5 -25t28.5 -70q0 -41 -25 -66t-60 -29l-25 37q62 2 62 55q0 24 -13.5 38t-35.5 14q-20 0 -33.5 -11.5t-14.5 -32.5h-45z" />
    <glyph glyph-name="uni1EBB" unicode="&#x1ebb;" horiz-adv-x="540" 
d="M280 -10q-112 0 -179.5 68.5t-67.5 200.5q0 135 68 203t175 68q105 0 168.5 -66t63.5 -192q0 -22 -3 -37h-395q9 -181 171 -181q115 0 147 92h73q-46 -156 -221 -156zM110 296h321q-1 81 -42.5 126t-113.5 45q-71 0 -115 -43.5t-50 -127.5zM185 667q0 43 28 66.5t65 23.5
q40 0 68.5 -25t28.5 -70q0 -41 -25 -66t-60 -29l-25 37q62 2 62 55q0 24 -13.5 38t-35.5 14q-20 0 -33.5 -11.5t-14.5 -32.5h-45z" />
    <glyph glyph-name="uni1EBC" unicode="&#x1ebc;" horiz-adv-x="545" 
d="M58 0v700h445v-73h-363v-234h333v-67h-333v-253h373v-73h-455zM124 808q0 47 23.5 71.5t62.5 24.5q31 0 54.5 -17t42.5 -34t39 -17t31 13.5t11 30.5h51q0 -47 -23 -71.5t-62 -24.5q-31 0 -54.5 17t-42.5 34t-39 17t-31.5 -13.5t-10.5 -30.5h-52z" />
    <glyph glyph-name="uni1EBD" unicode="&#x1ebd;" horiz-adv-x="540" 
d="M280 -10q-112 0 -179.5 68.5t-67.5 200.5q0 135 68 203t175 68q105 0 168.5 -66t63.5 -192q0 -22 -3 -37h-395q9 -181 171 -181q115 0 147 92h73q-46 -156 -221 -156zM110 296h321q-1 81 -42.5 126t-113.5 45q-71 0 -115 -43.5t-50 -127.5zM115 628q0 47 23.5 71.5
t62.5 24.5q31 0 54.5 -17t42.5 -34t39 -17t31 13.5t11 30.5h51q0 -47 -23 -71.5t-62 -24.5q-31 0 -54.5 17t-42.5 34t-39 17t-31.5 -13.5t-10.5 -30.5h-52z" />
    <glyph glyph-name="uni1EBE" unicode="&#x1ebe;" horiz-adv-x="545" 
d="M58 0v700h445v-73h-363v-234h333v-67h-333v-253h373v-73h-455zM125 764l101 129h108l101 -129h-74l-80 103l-81 -103h-75zM389 861l101 131h73l-101 -131h-73z" />
    <glyph glyph-name="uni1EBF" unicode="&#x1ebf;" horiz-adv-x="540" 
d="M280 -10q-112 0 -179.5 68.5t-67.5 200.5q0 135 68 203t175 68q105 0 168.5 -66t63.5 -192q0 -22 -3 -37h-395q9 -181 171 -181q115 0 147 92h73q-46 -156 -221 -156zM110 296h321q-1 81 -42.5 126t-113.5 45q-71 0 -115 -43.5t-50 -127.5zM116 584l101 129h108l101 -129
h-74l-80 103l-81 -103h-75zM380 681l101 131h73l-101 -131h-73z" />
    <glyph glyph-name="uni1EC0" unicode="&#x1ec0;" horiz-adv-x="545" 
d="M58 0v700h445v-73h-363v-234h333v-67h-333v-253h373v-73h-455zM125 764l101 129h108l101 -129h-74l-80 103l-81 -103h-75zM322 991h73l95 -131h-73z" />
    <glyph glyph-name="uni1EC1" unicode="&#x1ec1;" horiz-adv-x="540" 
d="M280 -10q-112 0 -179.5 68.5t-67.5 200.5q0 135 68 203t175 68q105 0 168.5 -66t63.5 -192q0 -22 -3 -37h-395q9 -181 171 -181q115 0 147 92h73q-46 -156 -221 -156zM110 296h321q-1 81 -42.5 126t-113.5 45q-71 0 -115 -43.5t-50 -127.5zM116 584l101 129h108l101 -129
h-74l-80 103l-81 -103h-75zM313 811h73l95 -131h-73z" />
    <glyph glyph-name="uni1EC2" unicode="&#x1ec2;" horiz-adv-x="545" 
d="M58 0v700h445v-73h-363v-234h333v-67h-333v-253h373v-73h-455zM125 764l101 129h108l101 -129h-74l-80 103l-81 -103h-75zM305 980q0 43 28 66.5t65 23.5q40 0 68.5 -25t28.5 -70q0 -41 -25 -66t-60 -29l-25 37q62 2 62 55q0 24 -13.5 38t-35.5 14q-20 0 -33.5 -11.5
t-14.5 -32.5h-45z" />
    <glyph glyph-name="uni1EC3" unicode="&#x1ec3;" horiz-adv-x="540" 
d="M280 -10q-112 0 -179.5 68.5t-67.5 200.5q0 135 68 203t175 68q105 0 168.5 -66t63.5 -192q0 -22 -3 -37h-395q9 -181 171 -181q115 0 147 92h73q-46 -156 -221 -156zM110 296h321q-1 81 -42.5 126t-113.5 45q-71 0 -115 -43.5t-50 -127.5zM116 584l101 129h108l101 -129
h-74l-80 103l-81 -103h-75zM296 800q0 43 28 66.5t65 23.5q40 0 68.5 -25t28.5 -70q0 -41 -25 -66t-60 -29l-25 37q62 2 62 55q0 24 -13.5 38t-35.5 14q-20 0 -33.5 -11.5t-14.5 -32.5h-45z" />
    <glyph glyph-name="uni1EC4" unicode="&#x1ec4;" horiz-adv-x="545" 
d="M58 0v700h445v-73h-363v-234h333v-67h-333v-253h373v-73h-455zM124 966q0 47 23.5 71.5t62.5 24.5q31 0 54.5 -17t42.5 -34t39 -17t31 13.5t11 30.5h51q0 -47 -23 -71.5t-62 -24.5q-31 0 -54.5 17t-42.5 34t-39 17t-31.5 -13.5t-10.5 -30.5h-52zM125 764l101 129h108
l101 -129h-74l-80 103l-81 -103h-75z" />
    <glyph glyph-name="uni1EC5" unicode="&#x1ec5;" horiz-adv-x="540" 
d="M280 -10q-112 0 -179.5 68.5t-67.5 200.5q0 135 68 203t175 68q105 0 168.5 -66t63.5 -192q0 -22 -3 -37h-395q9 -181 171 -181q115 0 147 92h73q-46 -156 -221 -156zM110 296h321q-1 81 -42.5 126t-113.5 45q-71 0 -115 -43.5t-50 -127.5zM115 786q0 47 23.5 71.5
t62.5 24.5q31 0 54.5 -17t42.5 -34t39 -17t31 13.5t11 30.5h51q0 -47 -23 -71.5t-62 -24.5q-31 0 -54.5 17t-42.5 34t-39 17t-31.5 -13.5t-10.5 -30.5h-52zM116 584l101 129h108l101 -129h-74l-80 103l-81 -103h-75z" />
    <glyph glyph-name="uni1EC6" unicode="&#x1ec6;" horiz-adv-x="545" 
d="M58 0v700h445v-73h-363v-234h333v-67h-333v-253h373v-73h-455zM125 764l101 129h108l101 -129h-74l-80 103l-81 -103h-75zM225 -174q0 23 17 39.5t40 16.5t39.5 -16.5t16.5 -39.5t-16.5 -39.5t-39.5 -16.5t-40 16.5t-17 39.5z" />
    <glyph glyph-name="uni1EC7" unicode="&#x1ec7;" horiz-adv-x="540" 
d="M280 -10q-112 0 -179.5 68.5t-67.5 200.5q0 135 68 203t175 68q105 0 168.5 -66t63.5 -192q0 -22 -3 -37h-395q9 -181 171 -181q115 0 147 92h73q-46 -156 -221 -156zM110 296h321q-1 81 -42.5 126t-113.5 45q-71 0 -115 -43.5t-50 -127.5zM116 584l101 129h108l101 -129
h-74l-80 103l-81 -103h-75zM214 -174q0 23 17 39.5t40 16.5t39.5 -16.5t16.5 -39.5t-16.5 -39.5t-39.5 -16.5t-40 16.5t-17 39.5z" />
    <glyph glyph-name="uni1EC8" unicode="&#x1ec8;" horiz-adv-x="198" 
d="M58 0v700h82v-700h-82zM11 847q0 43 28 66.5t65 23.5q40 0 68.5 -25t28.5 -70q0 -41 -25 -66t-60 -29l-25 37q62 2 62 55q0 24 -13.5 38t-35.5 14q-20 0 -33.5 -11.5t-14.5 -32.5h-45z" />
    <glyph glyph-name="uni1EC9" unicode="&#x1ec9;" horiz-adv-x="174" 
d="M47 0v520h80v-520h-80zM-1 667q0 43 28 66.5t66 23.5q40 0 68.5 -25t28.5 -70q0 -41 -25 -66t-60 -29l-25 37q62 2 62 55q0 24 -13.5 38t-35.5 14q-20 0 -33.5 -11.5t-14.5 -32.5h-46z" />
    <glyph glyph-name="uni1ECA" unicode="&#x1eca;" horiz-adv-x="198" 
d="M58 0v700h82v-700h-82zM42 -174q0 23 17 39.5t40 16.5t39.5 -16.5t16.5 -39.5t-16.5 -39.5t-39.5 -16.5t-40 16.5t-17 39.5z" />
    <glyph glyph-name="uni1ECB" unicode="&#x1ecb;" horiz-adv-x="195" 
d="M58 0v520h80v-520h-80zM47 674q0 21 15 35.5t36 14.5q20 0 35 -14.5t15 -35.5t-15 -36t-35 -15t-35.5 15t-15.5 36zM50 -174q0 23 17 39.5t40 16.5t39.5 -16.5t16.5 -39.5t-16.5 -39.5t-39.5 -16.5t-40 16.5t-17 39.5z" />
    <glyph glyph-name="uni1ECC" unicode="&#x1ecc;" horiz-adv-x="720" 
d="M360 -10q-141 0 -229 95t-88 265q0 169 88 264t229 95t229.5 -95t88.5 -264t-88.5 -264.5t-229.5 -95.5zM127 350q0 -138 64 -213t169 -75t169.5 74.5t64.5 213.5q0 138 -64 212.5t-170 74.5q-105 0 -169 -74.5t-64 -212.5zM304 -174q0 23 17 39.5t40 16.5t39.5 -16.5
t16.5 -39.5t-16.5 -39.5t-39.5 -16.5t-40 16.5t-17 39.5z" />
    <glyph glyph-name="uni1ECD" unicode="&#x1ecd;" horiz-adv-x="565" 
d="M283 -10q-105 0 -177.5 69.5t-72.5 200.5t72.5 200.5t177.5 69.5t177.5 -69.5t72.5 -200.5t-72.5 -200.5t-177.5 -69.5zM109 260q0 -99 50 -150.5t124 -51.5q73 0 123 51.5t50 150.5t-50 151t-123 52q-74 0 -124 -52t-50 -151zM226 -174q0 23 17 39.5t40 16.5t39.5 -16.5
t16.5 -39.5t-16.5 -39.5t-39.5 -16.5t-40 16.5t-17 39.5z" />
    <glyph glyph-name="uni1ECE" unicode="&#x1ece;" horiz-adv-x="720" 
d="M360 -10q-141 0 -229 95t-88 265q0 169 88 264t229 95t229.5 -95t88.5 -264t-88.5 -264.5t-229.5 -95.5zM127 350q0 -138 64 -213t169 -75t169.5 74.5t64.5 213.5q0 138 -64 212.5t-170 74.5q-105 0 -169 -74.5t-64 -212.5zM273 847q0 43 28 66.5t65 23.5q40 0 68.5 -25
t28.5 -70q0 -41 -25 -66t-60 -29l-25 37q62 2 62 55q0 24 -13.5 38t-35.5 14q-20 0 -33.5 -11.5t-14.5 -32.5h-45z" />
    <glyph glyph-name="uni1ECF" unicode="&#x1ecf;" horiz-adv-x="565" 
d="M283 -10q-105 0 -177.5 69.5t-72.5 200.5t72.5 200.5t177.5 69.5t177.5 -69.5t72.5 -200.5t-72.5 -200.5t-177.5 -69.5zM109 260q0 -99 50 -150.5t124 -51.5q73 0 123 51.5t50 150.5t-50 151t-123 52q-74 0 -124 -52t-50 -151zM195 667q0 43 28 66.5t65 23.5
q40 0 68.5 -25t28.5 -70q0 -41 -25 -66t-60 -29l-25 37q62 2 62 55q0 24 -13.5 38t-35.5 14q-20 0 -33.5 -11.5t-14.5 -32.5h-45z" />
    <glyph glyph-name="uni1ED0" unicode="&#x1ed0;" horiz-adv-x="720" 
d="M360 -10q-141 0 -229 95t-88 265q0 169 88 264t229 95t229.5 -95t88.5 -264t-88.5 -264.5t-229.5 -95.5zM127 350q0 -138 64 -213t169 -75t169.5 74.5t64.5 213.5q0 138 -64 212.5t-170 74.5q-105 0 -169 -74.5t-64 -212.5zM204 764l101 129h108l101 -129h-74l-80 103
l-81 -103h-75zM468 861l101 131h73l-101 -131h-73z" />
    <glyph glyph-name="uni1ED1" unicode="&#x1ed1;" horiz-adv-x="565" 
d="M283 -10q-105 0 -177.5 69.5t-72.5 200.5t72.5 200.5t177.5 69.5t177.5 -69.5t72.5 -200.5t-72.5 -200.5t-177.5 -69.5zM109 260q0 -99 50 -150.5t124 -51.5q73 0 123 51.5t50 150.5t-50 151t-123 52q-74 0 -124 -52t-50 -151zM127 584l101 129h108l101 -129h-74l-80 103
l-81 -103h-75zM390 681l101 131h73l-101 -131h-73z" />
    <glyph glyph-name="uni1ED2" unicode="&#x1ed2;" horiz-adv-x="720" 
d="M360 -10q-141 0 -229 95t-88 265q0 169 88 264t229 95t229.5 -95t88.5 -264t-88.5 -264.5t-229.5 -95.5zM127 350q0 -138 64 -213t169 -75t169.5 74.5t64.5 213.5q0 138 -64 212.5t-170 74.5q-105 0 -169 -74.5t-64 -212.5zM204 764l101 129h108l101 -129h-74l-80 103
l-81 -103h-75zM401 991h73l95 -131h-73z" />
    <glyph glyph-name="uni1ED3" unicode="&#x1ed3;" horiz-adv-x="565" 
d="M283 -10q-105 0 -177.5 69.5t-72.5 200.5t72.5 200.5t177.5 69.5t177.5 -69.5t72.5 -200.5t-72.5 -200.5t-177.5 -69.5zM109 260q0 -99 50 -150.5t124 -51.5q73 0 123 51.5t50 150.5t-50 151t-123 52q-74 0 -124 -52t-50 -151zM127 584l101 129h108l101 -129h-74l-80 103
l-81 -103h-75zM324 811h73l95 -131h-73z" />
    <glyph glyph-name="uni1ED4" unicode="&#x1ed4;" horiz-adv-x="720" 
d="M360 -10q-141 0 -229 95t-88 265q0 169 88 264t229 95t229.5 -95t88.5 -264t-88.5 -264.5t-229.5 -95.5zM127 350q0 -138 64 -213t169 -75t169.5 74.5t64.5 213.5q0 138 -64 212.5t-170 74.5q-105 0 -169 -74.5t-64 -212.5zM204 764l101 129h108l101 -129h-74l-80 103
l-81 -103h-75zM384 980q0 43 28 66.5t65 23.5q40 0 68.5 -25t28.5 -70q0 -41 -25 -66t-60 -29l-25 37q62 2 62 55q0 24 -13.5 38t-35.5 14q-20 0 -33.5 -11.5t-14.5 -32.5h-45z" />
    <glyph glyph-name="uni1ED5" unicode="&#x1ed5;" horiz-adv-x="565" 
d="M283 -10q-105 0 -177.5 69.5t-72.5 200.5t72.5 200.5t177.5 69.5t177.5 -69.5t72.5 -200.5t-72.5 -200.5t-177.5 -69.5zM109 260q0 -99 50 -150.5t124 -51.5q73 0 123 51.5t50 150.5t-50 151t-123 52q-74 0 -124 -52t-50 -151zM127 584l101 129h108l101 -129h-74l-80 103
l-81 -103h-75zM306 800q0 43 28 66.5t65 23.5q40 0 68.5 -25t28.5 -70q0 -41 -25 -66t-60 -29l-25 37q62 2 62 55q0 24 -13.5 38t-35.5 14q-20 0 -33.5 -11.5t-14.5 -32.5h-45z" />
    <glyph glyph-name="uni1ED6" unicode="&#x1ed6;" horiz-adv-x="720" 
d="M360 -10q-141 0 -229 95t-88 265q0 169 88 264t229 95t229.5 -95t88.5 -264t-88.5 -264.5t-229.5 -95.5zM127 350q0 -138 64 -213t169 -75t169.5 74.5t64.5 213.5q0 138 -64 212.5t-170 74.5q-105 0 -169 -74.5t-64 -212.5zM203 966q0 47 23.5 71.5t62.5 24.5
q31 0 54.5 -17t42.5 -34t39 -17t31 13.5t11 30.5h51q0 -47 -23 -71.5t-62 -24.5q-31 0 -54.5 17t-42.5 34t-39 17t-31.5 -13.5t-10.5 -30.5h-52zM204 764l101 129h108l101 -129h-74l-80 103l-81 -103h-75z" />
    <glyph glyph-name="uni1ED7" unicode="&#x1ed7;" horiz-adv-x="565" 
d="M283 -10q-105 0 -177.5 69.5t-72.5 200.5t72.5 200.5t177.5 69.5t177.5 -69.5t72.5 -200.5t-72.5 -200.5t-177.5 -69.5zM109 260q0 -99 50 -150.5t124 -51.5q73 0 123 51.5t50 150.5t-50 151t-123 52q-74 0 -124 -52t-50 -151zM125 786q0 47 23.5 71.5t62.5 24.5
q31 0 54.5 -17t42.5 -34t39 -17t31 13.5t11 30.5h51q0 -47 -23 -71.5t-62 -24.5q-31 0 -54.5 17t-42.5 34t-39 17t-31.5 -13.5t-10.5 -30.5h-52zM127 584l101 129h108l101 -129h-74l-80 103l-81 -103h-75z" />
    <glyph glyph-name="uni1ED8" unicode="&#x1ed8;" horiz-adv-x="720" 
d="M360 -10q-141 0 -229 95t-88 265q0 169 88 264t229 95t229.5 -95t88.5 -264t-88.5 -264.5t-229.5 -95.5zM127 350q0 -138 64 -213t169 -75t169.5 74.5t64.5 213.5q0 138 -64 212.5t-170 74.5q-105 0 -169 -74.5t-64 -212.5zM204 764l101 129h108l101 -129h-74l-80 103
l-81 -103h-75zM304 -174q0 23 17 39.5t40 16.5t39.5 -16.5t16.5 -39.5t-16.5 -39.5t-39.5 -16.5t-40 16.5t-17 39.5z" />
    <glyph glyph-name="uni1ED9" unicode="&#x1ed9;" horiz-adv-x="565" 
d="M283 -10q-105 0 -177.5 69.5t-72.5 200.5t72.5 200.5t177.5 69.5t177.5 -69.5t72.5 -200.5t-72.5 -200.5t-177.5 -69.5zM109 260q0 -99 50 -150.5t124 -51.5q73 0 123 51.5t50 150.5t-50 151t-123 52q-74 0 -124 -52t-50 -151zM127 584l101 129h108l101 -129h-74l-80 103
l-81 -103h-75zM226 -174q0 23 17 39.5t40 16.5t39.5 -16.5t16.5 -39.5t-16.5 -39.5t-39.5 -16.5t-40 16.5t-17 39.5z" />
    <glyph glyph-name="uni1EDA" unicode="&#x1eda;" horiz-adv-x="720" 
d="M360 -10q-141 0 -229 95t-88 265q0 169 88 264t229 95h239v79h70v-142h-114q123 -95 123 -296q0 -169 -88.5 -264.5t-229.5 -95.5zM127 350q0 -138 64 -213t169 -75t169.5 74.5t64.5 213.5q0 138 -64 212.5t-170 74.5q-105 0 -169 -74.5t-64 -212.5zM318 762l101 131h73
l-101 -131h-73z" />
    <glyph glyph-name="uni1EDB" unicode="&#x1edb;" horiz-adv-x="565" 
d="M283 -10q-105 0 -177.5 69.5t-72.5 200.5t72.5 200.5t177.5 69.5h174v78h66v-140h-71q81 -73 81 -208q0 -131 -72.5 -200.5t-177.5 -69.5zM109 260q0 -99 50 -150.5t124 -51.5q73 0 123 51.5t50 150.5t-50 151t-123 52q-74 0 -124 -52t-50 -151zM241 582l101 131h73
l-101 -131h-73z" />
    <glyph glyph-name="uni1EDC" unicode="&#x1edc;" horiz-adv-x="720" 
d="M360 -10q-141 0 -229 95t-88 265q0 169 88 264t229 95h239v79h70v-142h-114q123 -95 123 -296q0 -169 -88.5 -264.5t-229.5 -95.5zM127 350q0 -138 64 -213t169 -75t169.5 74.5t64.5 213.5q0 138 -64 212.5t-170 74.5q-105 0 -169 -74.5t-64 -212.5zM225 893h73l101 -131
h-73z" />
    <glyph glyph-name="uni1EDD" unicode="&#x1edd;" horiz-adv-x="565" 
d="M283 -10q-105 0 -177.5 69.5t-72.5 200.5t72.5 200.5t177.5 69.5h174v78h66v-140h-71q81 -73 81 -208q0 -131 -72.5 -200.5t-177.5 -69.5zM109 260q0 -99 50 -150.5t124 -51.5q73 0 123 51.5t50 150.5t-50 151t-123 52q-74 0 -124 -52t-50 -151zM148 713h73l101 -131h-73
z" />
    <glyph glyph-name="uni1EDE" unicode="&#x1ede;" horiz-adv-x="720" 
d="M360 -10q-141 0 -229 95t-88 265q0 169 88 264t229 95h239v79h70v-142h-114q123 -95 123 -296q0 -169 -88.5 -264.5t-229.5 -95.5zM127 350q0 -138 64 -213t169 -75t169.5 74.5t64.5 213.5q0 138 -64 212.5t-170 74.5q-105 0 -169 -74.5t-64 -212.5zM273 847
q0 43 28 66.5t65 23.5q40 0 68.5 -25t28.5 -70q0 -41 -25 -66t-60 -29l-25 37q62 2 62 55q0 24 -13.5 38t-35.5 14q-20 0 -33.5 -11.5t-14.5 -32.5h-45z" />
    <glyph glyph-name="uni1EDF" unicode="&#x1edf;" horiz-adv-x="565" 
d="M283 -10q-105 0 -177.5 69.5t-72.5 200.5t72.5 200.5t177.5 69.5h174v78h66v-140h-71q81 -73 81 -208q0 -131 -72.5 -200.5t-177.5 -69.5zM109 260q0 -99 50 -150.5t124 -51.5q73 0 123 51.5t50 150.5t-50 151t-123 52q-74 0 -124 -52t-50 -151zM195 667q0 43 28 66.5
t65 23.5q40 0 68.5 -25t28.5 -70q0 -41 -25 -66t-60 -29l-25 37q62 2 62 55q0 24 -13.5 38t-35.5 14q-20 0 -33.5 -11.5t-14.5 -32.5h-45z" />
    <glyph glyph-name="uni1EE0" unicode="&#x1ee0;" horiz-adv-x="720" 
d="M360 -10q-141 0 -229 95t-88 265q0 169 88 264t229 95h239v79h70v-142h-114q123 -95 123 -296q0 -169 -88.5 -264.5t-229.5 -95.5zM127 350q0 -138 64 -213t169 -75t169.5 74.5t64.5 213.5q0 138 -64 212.5t-170 74.5q-105 0 -169 -74.5t-64 -212.5zM203 808
q0 47 23.5 71.5t62.5 24.5q31 0 54.5 -17t42.5 -34t39 -17t31 13.5t11 30.5h51q0 -47 -23 -71.5t-62 -24.5q-31 0 -54.5 17t-42.5 34t-39 17t-31.5 -13.5t-10.5 -30.5h-52z" />
    <glyph glyph-name="uni1EE1" unicode="&#x1ee1;" horiz-adv-x="565" 
d="M283 -10q-105 0 -177.5 69.5t-72.5 200.5t72.5 200.5t177.5 69.5h174v78h66v-140h-71q81 -73 81 -208q0 -131 -72.5 -200.5t-177.5 -69.5zM109 260q0 -99 50 -150.5t124 -51.5q73 0 123 51.5t50 150.5t-50 151t-123 52q-74 0 -124 -52t-50 -151zM125 628q0 47 23.5 71.5
t62.5 24.5q31 0 54.5 -17t42.5 -34t39 -17t31 13.5t11 30.5h51q0 -47 -23 -71.5t-62 -24.5q-31 0 -54.5 17t-42.5 34t-39 17t-31.5 -13.5t-10.5 -30.5h-52z" />
    <glyph glyph-name="uni1EE2" unicode="&#x1ee2;" horiz-adv-x="720" 
d="M360 -10q-141 0 -229 95t-88 265q0 169 88 264t229 95h239v79h70v-142h-114q123 -95 123 -296q0 -169 -88.5 -264.5t-229.5 -95.5zM127 350q0 -138 64 -213t169 -75t169.5 74.5t64.5 213.5q0 138 -64 212.5t-170 74.5q-105 0 -169 -74.5t-64 -212.5zM304 -174
q0 23 17 39.5t40 16.5t39.5 -16.5t16.5 -39.5t-16.5 -39.5t-39.5 -16.5t-40 16.5t-17 39.5z" />
    <glyph glyph-name="uni1EE3" unicode="&#x1ee3;" horiz-adv-x="565" 
d="M283 -10q-105 0 -177.5 69.5t-72.5 200.5t72.5 200.5t177.5 69.5h174v78h66v-140h-71q81 -73 81 -208q0 -131 -72.5 -200.5t-177.5 -69.5zM109 260q0 -99 50 -150.5t124 -51.5q73 0 123 51.5t50 150.5t-50 151t-123 52q-74 0 -124 -52t-50 -151zM226 -174q0 23 17 39.5
t40 16.5t39.5 -16.5t16.5 -39.5t-16.5 -39.5t-39.5 -16.5t-40 16.5t-17 39.5z" />
    <glyph glyph-name="uni1EE4" unicode="&#x1ee4;" horiz-adv-x="654" 
d="M327 -10q-125 0 -197 72t-72 203v435h83v-430q0 -100 49 -153.5t137 -53.5t137 53.5t49 153.5v430h83v-435q0 -131 -72 -203t-197 -72zM271 -174q0 23 17 39.5t40 16.5t39.5 -16.5t16.5 -39.5t-16.5 -39.5t-39.5 -16.5t-40 16.5t-17 39.5z" />
    <glyph glyph-name="uni1EE5" unicode="&#x1ee5;" 
d="M137 215q0 -157 134 -157q66 0 107.5 37.5t45.5 104.5l1 320h80l-1 -520h-80v102h-2q-10 -38 -55 -75t-124 -37q-84 0 -135 50.5t-51 158.5l1 321h80zM225 -174q0 23 17 39.5t40 16.5t39.5 -16.5t16.5 -39.5t-16.5 -39.5t-39.5 -16.5t-40 16.5t-17 39.5z" />
    <glyph glyph-name="uni1EE6" unicode="&#x1ee6;" horiz-adv-x="654" 
d="M327 -10q-125 0 -197 72t-72 203v435h83v-430q0 -100 49 -153.5t137 -53.5t137 53.5t49 153.5v430h83v-435q0 -131 -72 -203t-197 -72zM236 847q0 43 28 66.5t65 23.5q40 0 68.5 -25t28.5 -70q0 -41 -25 -66t-60 -29l-25 37q62 2 62 55q0 24 -13.5 38t-35.5 14
q-20 0 -33.5 -11.5t-14.5 -32.5h-45z" />
    <glyph glyph-name="uni1EE7" unicode="&#x1ee7;" 
d="M137 215q0 -157 134 -157q66 0 107.5 37.5t45.5 104.5l1 320h80l-1 -520h-80v102h-2q-10 -38 -55 -75t-124 -37q-84 0 -135 50.5t-51 158.5l1 321h80zM190 667q0 43 28 66.5t65 23.5q40 0 68.5 -25t28.5 -70q0 -41 -25 -66t-60 -29l-25 37q62 2 62 55q0 24 -13.5 38
t-35.5 14q-20 0 -33.5 -11.5t-14.5 -32.5h-45z" />
    <glyph glyph-name="uni1EE8" unicode="&#x1ee8;" horiz-adv-x="654" 
d="M327 -10q-125 0 -197 72t-72 203v435h83v-430q0 -100 49 -153.5t137 -53.5t137 53.5t49 153.5v430h113v88h70v-153h-100v-370q0 -131 -72 -203t-197 -72zM285 762l101 131h73l-101 -131h-73z" />
    <glyph glyph-name="uni1EE9" unicode="&#x1ee9;" 
d="M137 215q0 -157 134 -157q66 0 107.5 37.5t45.5 104.5l1 320h113v88h70v-153h-103l-1 -455h-80v102h-2q-10 -38 -55 -75t-124 -37q-84 0 -135 50.5t-51 158.5l1 321h80zM240 582l101 131h73l-101 -131h-73z" />
    <glyph glyph-name="uni1EEA" unicode="&#x1eea;" horiz-adv-x="654" 
d="M327 -10q-125 0 -197 72t-72 203v435h83v-430q0 -100 49 -153.5t137 -53.5t137 53.5t49 153.5v430h113v88h70v-153h-100v-370q0 -131 -72 -203t-197 -72zM192 893h73l101 -131h-73z" />
    <glyph glyph-name="uni1EEB" unicode="&#x1eeb;" 
d="M137 215q0 -157 134 -157q66 0 107.5 37.5t45.5 104.5l1 320h113v88h70v-153h-103l-1 -455h-80v102h-2q-10 -38 -55 -75t-124 -37q-84 0 -135 50.5t-51 158.5l1 321h80zM147 713h73l101 -131h-73z" />
    <glyph glyph-name="uni1EEC" unicode="&#x1eec;" horiz-adv-x="654" 
d="M327 -10q-125 0 -197 72t-72 203v435h83v-430q0 -100 49 -153.5t137 -53.5t137 53.5t49 153.5v430h113v88h70v-153h-100v-370q0 -131 -72 -203t-197 -72zM240 847q0 43 28 66.5t65 23.5q40 0 68.5 -25t28.5 -70q0 -41 -25 -66t-60 -29l-25 37q62 2 62 55q0 24 -13.5 38
t-35.5 14q-20 0 -33.5 -11.5t-14.5 -32.5h-45z" />
    <glyph glyph-name="uni1EED" unicode="&#x1eed;" 
d="M137 215q0 -157 134 -157q66 0 107.5 37.5t45.5 104.5l1 320h113v88h70v-153h-103l-1 -455h-80v102h-2q-10 -38 -55 -75t-124 -37q-84 0 -135 50.5t-51 158.5l1 321h80zM194 667q0 43 28 66.5t65 23.5q40 0 68.5 -25t28.5 -70q0 -41 -25 -66t-60 -29l-25 37q62 2 62 55
q0 24 -13.5 38t-35.5 14q-20 0 -33.5 -11.5t-14.5 -32.5h-45z" />
    <glyph glyph-name="uni1EEE" unicode="&#x1eee;" horiz-adv-x="654" 
d="M327 -10q-125 0 -197 72t-72 203v435h83v-430q0 -100 49 -153.5t137 -53.5t137 53.5t49 153.5v430h113v88h70v-153h-100v-370q0 -131 -72 -203t-197 -72zM170 808q0 47 23.5 71.5t62.5 24.5q31 0 54.5 -17t42.5 -34t39 -17t31 13.5t11 30.5h51q0 -47 -23 -71.5t-62 -24.5
q-31 0 -54.5 17t-42.5 34t-39 17t-31.5 -13.5t-10.5 -30.5h-52z" />
    <glyph glyph-name="uni1EEF" unicode="&#x1eef;" 
d="M137 215q0 -157 134 -157q66 0 107.5 37.5t45.5 104.5l1 320h113v88h70v-153h-103l-1 -455h-80v102h-2q-10 -38 -55 -75t-124 -37q-84 0 -135 50.5t-51 158.5l1 321h80zM124 628q0 47 23.5 71.5t62.5 24.5q31 0 54.5 -17t42.5 -34t39 -17t31 13.5t11 30.5h51
q0 -47 -23 -71.5t-62 -24.5q-31 0 -54.5 17t-42.5 34t-39 17t-31.5 -13.5t-10.5 -30.5h-52z" />
    <glyph glyph-name="uni1EF0" unicode="&#x1ef0;" horiz-adv-x="654" 
d="M327 -10q-125 0 -197 72t-72 203v435h83v-430q0 -100 49 -153.5t137 -53.5t137 53.5t49 153.5v430h113v88h70v-153h-100v-370q0 -131 -72 -203t-197 -72zM271 -174q0 23 17 39.5t40 16.5t39.5 -16.5t16.5 -39.5t-16.5 -39.5t-39.5 -16.5t-40 16.5t-17 39.5z" />
    <glyph glyph-name="uni1EF1" unicode="&#x1ef1;" 
d="M137 215q0 -157 134 -157q66 0 107.5 37.5t45.5 104.5l1 320h113v88h70v-153h-103l-1 -455h-80v102h-2q-10 -38 -55 -75t-124 -37q-84 0 -135 50.5t-51 158.5l1 321h80zM225 -174q0 23 17 39.5t40 16.5t39.5 -16.5t16.5 -39.5t-16.5 -39.5t-39.5 -16.5t-40 16.5t-17 39.5
z" />
    <glyph glyph-name="Ygrave" unicode="&#x1ef2;" horiz-adv-x="652" 
d="M284 0v274l-256 426h93l205 -346l206 346h93l-257 -426v-274h-84zM201 893h73l101 -131h-73z" />
    <glyph glyph-name="ygrave" unicode="&#x1ef3;" horiz-adv-x="535" 
d="M76 -123q103 -15 140 80q15 39 3 68l-196 495h82l163 -426l162 426h83l-224 -563q-36 -90 -86 -124.5t-127 -25.5v70zM144 713h73l101 -131h-73z" />
    <glyph glyph-name="uni1EF4" unicode="&#x1ef4;" horiz-adv-x="652" 
d="M284 0v274l-256 426h93l205 -346l206 346h93l-257 -426v-274h-84zM270 -174q0 23 17 39.5t40 16.5t39.5 -16.5t16.5 -39.5t-16.5 -39.5t-39.5 -16.5t-40 16.5t-17 39.5z" />
    <glyph glyph-name="uni1EF5" unicode="&#x1ef5;" horiz-adv-x="535" 
d="M76 -123q103 -15 140 80q15 39 3 68l-196 495h82l163 -426l162 426h83l-224 -563q-36 -90 -86 -124.5t-127 -25.5v70zM314 -174q0 23 17 39.5t40 16.5t39.5 -16.5t16.5 -39.5t-16.5 -39.5t-39.5 -16.5t-40 16.5t-17 39.5z" />
    <glyph glyph-name="uni1EF6" unicode="&#x1ef6;" horiz-adv-x="652" 
d="M284 0v274l-256 426h93l205 -346l206 346h93l-257 -426v-274h-84zM239 847q0 43 28 66.5t65 23.5q40 0 68.5 -25t28.5 -70q0 -41 -25 -66t-60 -29l-25 37q62 2 62 55q0 24 -13.5 38t-35.5 14q-20 0 -33.5 -11.5t-14.5 -32.5h-45z" />
    <glyph glyph-name="uni1EF7" unicode="&#x1ef7;" horiz-adv-x="535" 
d="M76 -123q103 -15 140 80q15 39 3 68l-196 495h82l163 -426l162 426h83l-224 -563q-36 -90 -86 -124.5t-127 -25.5v70zM182 667q0 43 28 66.5t65 23.5q40 0 68.5 -25t28.5 -70q0 -41 -25 -66t-60 -29l-25 37q62 2 62 55q0 24 -13.5 38t-35.5 14q-20 0 -33.5 -11.5
t-14.5 -32.5h-45z" />
    <glyph glyph-name="uni1EF8" unicode="&#x1ef8;" horiz-adv-x="652" 
d="M284 0v274l-256 426h93l205 -346l206 346h93l-257 -426v-274h-84zM169 808q0 47 23.5 71.5t62.5 24.5q31 0 54.5 -17t42.5 -34t39 -17t31 13.5t11 30.5h51q0 -47 -23 -71.5t-62 -24.5q-31 0 -54.5 17t-42.5 34t-39 17t-31.5 -13.5t-10.5 -30.5h-52z" />
    <glyph glyph-name="uni1EF9" unicode="&#x1ef9;" horiz-adv-x="535" 
d="M76 -123q103 -15 140 80q15 39 3 68l-196 495h82l163 -426l162 426h83l-224 -563q-36 -90 -86 -124.5t-127 -25.5v70zM112 628q0 47 23.5 71.5t62.5 24.5q31 0 54.5 -17t42.5 -34t39 -17t31 13.5t11 30.5h51q0 -47 -23 -71.5t-62 -24.5q-31 0 -54.5 17t-42.5 34t-39 17
t-31.5 -13.5t-10.5 -30.5h-52z" />
    <glyph glyph-name="endash" unicode="&#x2013;" horiz-adv-x="600" 
d="M45 249v62h510v-62h-510z" />
    <glyph glyph-name="emdash" unicode="&#x2014;" horiz-adv-x="660" 
d="M45 249v62h570v-62h-570z" />
    <glyph glyph-name="quoteleft" unicode="&#x2018;" horiz-adv-x="200" 
d="M146 669q-31 -1 -44.5 -15.5t-13.5 -42.5q32 1 50.5 -15.5t18.5 -41.5q0 -24 -15.5 -39t-39.5 -15q-29 0 -47 22t-18 67q0 56 28 87t73 31h8v-38z" />
    <glyph glyph-name="quoteright" unicode="&#x2019;" horiz-adv-x="200" 
d="M54 540q31 1 44.5 15.5t13.5 42.5q-32 -1 -50.5 15.5t-18.5 41.5q0 23 15.5 38.5t39.5 15.5q29 0 47 -22t18 -67q0 -56 -28 -87t-73 -31h-8v38z" />
    <glyph glyph-name="quotesinglbase" unicode="&#x201a;" horiz-adv-x="205" 
d="M54 -67q31 1 44.5 15.5t13.5 42.5q-32 -1 -50.5 15.5t-18.5 41.5q0 24 15.5 39t39.5 15q29 0 47 -22t18 -67q0 -56 -28 -87t-73 -31h-8v38z" />
    <glyph glyph-name="quotedblleft" unicode="&#x201c;" horiz-adv-x="356" 
d="M146 669q-31 -1 -44.5 -15.5t-13.5 -42.5q32 1 50.5 -15.5t18.5 -41.5q0 -24 -15.5 -39t-39.5 -15q-29 0 -47 22t-18 67q0 56 28 87t73 31h8v-38zM193 589q0 56 28 87t73 31h8v-38q-31 -1 -44.5 -15.5t-13.5 -42.5q32 1 50.5 -15.5t18.5 -41.5q0 -24 -15.5 -39t-39.5 -15
q-29 0 -47 22t-18 67z" />
    <glyph glyph-name="quotedblright" unicode="&#x201d;" horiz-adv-x="356" 
d="M54 540q31 1 44.5 15.5t13.5 42.5q-32 -1 -50.5 15.5t-18.5 41.5q0 23 15.5 38.5t39.5 15.5q29 0 47 -22t18 -67q0 -56 -28 -87t-73 -31h-8v38zM199 655q0 23 15.5 38.5t39.5 15.5q29 0 47 -22t18 -67q0 -56 -28 -87t-73 -31h-8v38q31 1 44.5 15.5t13.5 42.5
q-32 -1 -50.5 15.5t-18.5 41.5z" />
    <glyph glyph-name="quotedblbase" unicode="&#x201e;" horiz-adv-x="361" 
d="M210 -74q31 1 44.5 15.5t13.5 42.5q-32 -1 -50.5 15.5t-18.5 41.5q0 23 15.5 38.5t39.5 15.5q29 0 47 -22t18 -67q0 -56 -28 -87t-73 -31h-8v38zM43 41q0 23 15.5 38.5t39.5 15.5q29 0 47 -22t18 -67q0 -56 -28 -87t-73 -31h-8v38q31 1 44.5 15.5t13.5 42.5
q-32 -1 -50.5 15.5t-18.5 41.5z" />
    <glyph glyph-name="dagger" unicode="&#x2020;" horiz-adv-x="339" 
d="M138 262v255h-88v62h88v121h65v-121h86v-62h-86v-255h-65z" />
    <glyph glyph-name="daggerdbl" unicode="&#x2021;" horiz-adv-x="339" 
d="M138 0v152h-88v62h88v273h-88v62h88v151h65v-151h86v-62h-86v-273h86v-62h-86v-152h-65z" />
    <glyph glyph-name="bullet" unicode="&#x2022;" horiz-adv-x="261" 
d="M131 183q-34 0 -57.5 23.5t-23.5 57.5q0 33 23.5 56.5t57.5 23.5q33 0 56.5 -23.5t23.5 -56.5q0 -34 -23.5 -57.5t-56.5 -23.5z" />
    <glyph glyph-name="ellipsis" unicode="&#x2026;" horiz-adv-x="610" 
d="M305 -10q-23 0 -39.5 16.5t-16.5 39.5t16.5 39.5t39.5 16.5t40 -16.5t17 -39.5t-17 -39.5t-40 -16.5zM43 46q0 23 16.5 39.5t39.5 16.5t40 -16.5t17 -39.5t-17 -39.5t-40 -16.5t-39.5 16.5t-16.5 39.5zM455 46q0 23 16.5 39.5t39.5 16.5t40 -16.5t17 -39.5t-17 -39.5
t-40 -16.5t-39.5 16.5t-16.5 39.5z" />
    <glyph glyph-name="perthousand" unicode="&#x2030;" horiz-adv-x="1045" 
d="M868 -9q-60 0 -97.5 40.5t-37.5 113.5q0 71 38 111.5t97 40.5t97 -40.5t38 -111.5q0 -73 -37.5 -113.5t-97.5 -40.5zM43 555q0 71 38 111.5t97 40.5t97 -40.5t38 -111.5q0 -73 -37.5 -113.5t-97.5 -40.5t-97.5 40.5t-37.5 113.5zM71 172l550 403l34 -49l-550 -402z
M103 555q0 -48 20.5 -72.5t54.5 -24.5q33 0 53.5 24.5t20.5 72.5q0 47 -20.5 71t-53.5 24q-34 0 -54.5 -24t-20.5 -71zM413 145q0 71 38 111.5t97 40.5t97 -40.5t38 -111.5q0 -73 -37.5 -113.5t-97.5 -40.5t-97.5 40.5t-37.5 113.5zM473 145q0 -48 20.5 -72.5t54.5 -24.5
q33 0 53.5 24.5t20.5 72.5q0 47 -20.5 71t-53.5 24q-34 0 -54.5 -24t-20.5 -71zM793 145q0 -48 20.5 -72.5t54.5 -24.5q33 0 53.5 24.5t20.5 72.5q0 47 -20.5 71t-53.5 24q-34 0 -54.5 -24t-20.5 -71z" />
    <glyph glyph-name="guilsinglleft" unicode="&#x2039;" horiz-adv-x="228" 
d="M188 141l-148 125v63l148 127v-77l-93 -80l93 -81v-77z" />
    <glyph glyph-name="guilsinglright" unicode="&#x203a;" horiz-adv-x="213" 
d="M30 141v77l93 81l-93 80v77l148 -127v-63z" />
    <glyph glyph-name="fraction" unicode="&#x2044;" horiz-adv-x="150" 
d="M-165 0l436 700h44l-436 -700h-44z" />
    <glyph glyph-name="Euro" unicode="&#x20ac;" horiz-adv-x="707" 
d="M35 370v46h57q16 142 99.5 217.5t212.5 75.5q110 0 183 -54.5t90 -158.5h-81q-18 68 -68.5 104.5t-124.5 36.5q-93 0 -153 -57t-75 -164h188v-46h-192v-20q0 -14 2 -40h190v-46h-185q19 -97 78 -149.5t147 -52.5q74 0 124.5 36.5t68.5 106.5h81q-17 -105 -90 -160
t-183 -55q-124 0 -206.5 70.5t-103.5 203.5h-59v46h54q-1 13 -1 40v20h-53z" />
    <glyph glyph-name="trademark" unicode="&#x2122;" horiz-adv-x="494" 
d="M242 520v180h41l65 -142l64 142h42v-180h-39v112l-51 -112h-32l-51 112v-112h-39zM40 666v34h166v-34h-63v-146h-39v146h-64z" />
    <glyph glyph-name="partialdiff" unicode="&#x2202;" horiz-adv-x="583" 
d="M289 -10q-104 0 -172.5 65.5t-68.5 177.5q0 109 64 171.5t162 62.5q63 0 113.5 -27.5t78.5 -77.5q-4 282 -183 282q-62 0 -99.5 -31.5t-42.5 -81.5h-71q2 72 57 125t155 53q58 0 103.5 -20.5t74 -54.5t47 -82.5t26 -99.5t7.5 -110q0 -176 -66.5 -264t-184.5 -88zM124 234
q0 -79 45 -128t119 -49q73 0 119 49t46 128q0 78 -45.5 124t-119.5 46t-119 -46t-45 -124z" />
    <glyph glyph-name="product" unicode="&#x220f;" horiz-adv-x="678" 
d="M45 -190v990h588v-990h-75v918h-437v-918h-76z" />
    <glyph glyph-name="summation" unicode="&#x2211;" horiz-adv-x="663" 
d="M45 -190l275 495l-275 495h573v-73h-444l234 -422l-234 -422h444v-73h-573z" />
    <glyph glyph-name="minus" unicode="&#x2212;" horiz-adv-x="413" 
d="M58 229v62h297v-62h-297z" />
    <glyph glyph-name="radical" unicode="&#x221a;" horiz-adv-x="740" 
d="M336 -190l-179 459h-112v84h164l166 -434l242 881h78l-272 -990h-87z" />
    <glyph glyph-name="infinity" unicode="&#x221e;" horiz-adv-x="807" 
d="M210 94q-70 0 -118.5 47.5t-48.5 120.5t48.5 119.5t118.5 46.5q100 0 194 -114q94 114 194 114q70 0 118.5 -46.5t48.5 -119.5t-48.5 -120.5t-118.5 -47.5q-100 0 -194 115q-94 -115 -194 -115zM115 262q0 -44 28.5 -74t72.5 -30q74 0 146 104q-72 102 -146 102
q-45 0 -73 -29t-28 -73zM446 262q71 -104 145 -104q44 0 73 30t29 74t-28.5 73t-73.5 29q-75 0 -145 -102z" />
    <glyph glyph-name="integral" unicode="&#x222b;" horiz-adv-x="298" 
d="M23 -120q43 0 64 24.5t21 80.5v555q0 89 40.5 126.5t124.5 37.5v-70q-43 0 -64 -24t-21 -81v-556q0 -90 -42.5 -126.5t-122.5 -36.5v70z" />
    <glyph glyph-name="approxequal" unicode="&#x2248;" horiz-adv-x="515" 
d="M356 129q-36 0 -69.5 21.5t-63.5 43.5t-58 22t-42.5 -16.5t-14.5 -38.5h-50q-1 48 28.5 77t73.5 29t101 -43.5t90 -43.5q28 0 42.5 17t14.5 38h50q1 -48 -28.5 -77t-73.5 -29zM58 321q-1 48 28.5 77t73.5 29t101 -43.5t90 -43.5q28 0 42.5 17t14.5 38h50q1 -48 -28.5 -77
t-73.5 -29q-36 0 -69.5 21.5t-63.5 43.5t-58 22t-42.5 -16.5t-14.5 -38.5h-50z" />
    <glyph glyph-name="notequal" unicode="&#x2260;" horiz-adv-x="413" 
d="M70 0l67 169h-79v62h103l39 98h-142v62h166l67 170h52l-67 -170h79v-62h-103l-38 -98h141v-62h-166l-66 -169h-53z" />
    <glyph glyph-name="lessequal" unicode="&#x2264;" horiz-adv-x="444" 
d="M393 157l-343 184v69l343 184v-71l-285 -148l285 -147v-71zM50 0v63h344v-63h-344z" />
    <glyph glyph-name="greaterequal" unicode="&#x2265;" horiz-adv-x="444" 
d="M51 157v71l285 147l-285 148v71l343 -184v-69zM51 0v63h343v-63h-343z" />
    <glyph glyph-name="lozenge" unicode="&#x25ca;" horiz-adv-x="507" 
d="M200 0l-155 350l155 350h107l155 -350l-155 -350h-107zM127 350l127 -286l126 286l-126 286z" />
    <glyph glyph-name="uniA78B" unicode="&#xa78b;" horiz-adv-x="198" 
d="M58 240v460h82v-460h-82z" />
    <glyph glyph-name="uniA78C" unicode="&#xa78c;" horiz-adv-x="195" 
d="M58 298v402h80v-402h-80z" />
    <glyph glyph-name="uni004A0301" horiz-adv-x="648" 
d="M323 -10q-124 0 -194.5 70.5t-70.5 200.5h83q0 -95 48.5 -146.5t134.5 -51.5q87 0 135.5 53.5t48.5 153.5v430h82v-436q0 -131 -71 -202.5t-196 -71.5zM509 762l101 131h73l-101 -131h-73z" />
    <glyph glyph-name="G.ss01" horiz-adv-x="693" 
d="M347 -10q-135 0 -219.5 94t-84.5 266q0 173 88 266t233 93q103 0 172 -48t90 -141h-83q-41 117 -178 117q-110 0 -174 -74t-64 -213q0 -138 65 -212.5t171 -75.5q90 0 147 52.5t57 137.5v39h-178v68h256v-359h-77v112q-66 -122 -221 -122z" />
    <glyph glyph-name="R.ss01" horiz-adv-x="623" 
d="M489 0q-10 19 -10 76v96q0 114 -137 114h-202v-286h-82v700h272q117 0 176 -52.5t59 -144.5q0 -135 -118 -177q113 -31 113 -154v-96q0 -54 10 -76h-81zM140 354h186q77 0 116.5 36t39.5 103q0 135 -156 135h-186v-274z" />
    <glyph glyph-name="G.ss05" horiz-adv-x="693" 
d="M347 -10q-135 0 -219.5 94t-84.5 266q0 173 88 266t233 93q103 0 172 -48t90 -141h-83q-41 117 -178 117q-110 0 -174 -74t-64 -213q0 -138 65 -212.5t171 -75.5q90 0 147 52.5t57 137.5v39h-178v68h256v-359h-77v112q-66 -122 -221 -122z" />
    <glyph glyph-name="i.loclTRK" horiz-adv-x="174" 
d="M47 0v520h80v-520h-80zM37 673q0 21 15 35.5t36 14.5q20 0 35 -14.5t15 -35.5q0 -20 -15 -35t-35 -15t-35.5 15t-15.5 35z" />
    <glyph glyph-name="uni006A0301" horiz-adv-x="202" 
d="M21 -188q-36 0 -56 3v63h33q43 0 60 17.5t17 59.5v565h80v-580q0 -128 -134 -128zM77 582l101 131h73l-101 -131h-73z" />
    <glyph glyph-name="a.ss01" horiz-adv-x="588" 
d="M267 -10q-98 0 -166 69t-68 201q0 133 68 201.5t166 68.5q59 0 108.5 -25t75.5 -71v86h80v-520h-80v87q-26 -46 -75.5 -71.5t-108.5 -25.5zM109 260q0 -98 50 -149.5t122 -51.5t123 52t51 149q0 98 -51 150t-123 52t-122 -52t-50 -150z" />
    <glyph glyph-name="aacute.ss01" horiz-adv-x="588" 
d="M267 -10q-98 0 -166 69t-68 201q0 133 68 201.5t166 68.5q59 0 108.5 -25t75.5 -71v86h80v-520h-80v87q-26 -46 -75.5 -71.5t-108.5 -25.5zM109 260q0 -98 50 -149.5t122 -51.5t123 52t51 149q0 98 -51 150t-123 52t-122 -52t-50 -150zM256 582l101 131h73l-101 -131h-73
z" />
    <glyph glyph-name="abreve.ss01" horiz-adv-x="588" 
d="M267 -10q-98 0 -166 69t-68 201q0 133 68 201.5t166 68.5q59 0 108.5 -25t75.5 -71v86h80v-520h-80v87q-26 -46 -75.5 -71.5t-108.5 -25.5zM109 260q0 -98 50 -149.5t122 -51.5t123 52t51 149q0 98 -51 150t-123 52t-122 -52t-50 -150zM154 713h56q3 -78 84 -78
q82 0 85 78h55q0 -56 -34.5 -92t-105.5 -36t-105.5 36t-34.5 92z" />
    <glyph glyph-name="uni01CE.ss01" horiz-adv-x="588" 
d="M267 -10q-98 0 -166 69t-68 201q0 133 68 201.5t166 68.5q59 0 108.5 -25t75.5 -71v86h80v-520h-80v87q-26 -46 -75.5 -71.5t-108.5 -25.5zM109 260q0 -98 50 -149.5t122 -51.5t123 52t51 149q0 98 -51 150t-123 52t-122 -52t-50 -150zM133 712h75l81 -103l80 103h74
l-101 -129h-108z" />
    <glyph glyph-name="acircumflex.ss01" horiz-adv-x="588" 
d="M267 -10q-98 0 -166 69t-68 201q0 133 68 201.5t166 68.5q59 0 108.5 -25t75.5 -71v86h80v-520h-80v87q-26 -46 -75.5 -71.5t-108.5 -25.5zM109 260q0 -98 50 -149.5t122 -51.5t123 52t51 149q0 98 -51 150t-123 52t-122 -52t-50 -150zM138 584l101 129h108l101 -129h-74
l-80 103l-81 -103h-75z" />
    <glyph glyph-name="adieresis.ss01" horiz-adv-x="588" 
d="M267 -10q-98 0 -166 69t-68 201q0 133 68 201.5t166 68.5q59 0 108.5 -25t75.5 -71v86h80v-520h-80v87q-26 -46 -75.5 -71.5t-108.5 -25.5zM109 260q0 -98 50 -149.5t122 -51.5t123 52t51 149q0 98 -51 150t-123 52t-122 -52t-50 -150zM149 673q0 21 15 35.5t36 14.5
q20 0 35 -14.5t15 -35.5q0 -20 -15 -35t-35 -15t-35.5 15t-15.5 35zM338 673q0 21 15 35.5t36 14.5q20 0 35 -14.5t15 -35.5q0 -20 -15 -35t-35 -15t-35.5 15t-15.5 35z" />
    <glyph glyph-name="agrave.ss01" horiz-adv-x="588" 
d="M267 -10q-98 0 -166 69t-68 201q0 133 68 201.5t166 68.5q59 0 108.5 -25t75.5 -71v86h80v-520h-80v87q-26 -46 -75.5 -71.5t-108.5 -25.5zM109 260q0 -98 50 -149.5t122 -51.5t123 52t51 149q0 98 -51 150t-123 52t-122 -52t-50 -150zM169 713h73l101 -131h-73z" />
    <glyph glyph-name="amacron.ss01" horiz-adv-x="588" 
d="M267 -10q-98 0 -166 69t-68 201q0 133 68 201.5t166 68.5q59 0 108.5 -25t75.5 -71v86h80v-520h-80v87q-26 -46 -75.5 -71.5t-108.5 -25.5zM109 260q0 -98 50 -149.5t122 -51.5t123 52t51 149q0 98 -51 150t-123 52t-122 -52t-50 -150zM147 663v50h295v-50h-295z" />
    <glyph glyph-name="aogonek.ss01" horiz-adv-x="588" 
d="M267 -10q-98 0 -166 69t-68 201q0 133 68 201.5t166 68.5q59 0 108.5 -25t75.5 -71v86h80v-520q-57 0 -87.5 -23t-30.5 -58q0 -32 24.5 -47.5t62.5 -8.5v-48q-52 -13 -100.5 12.5t-48.5 83.5q0 44 29 73.5t71 37.5v65q-26 -46 -75.5 -71.5t-108.5 -25.5zM109 260
q0 -98 50 -149.5t122 -51.5t123 52t51 149q0 98 -51 150t-123 52t-122 -52t-50 -150z" />
    <glyph glyph-name="aring.ss01" horiz-adv-x="588" 
d="M267 -10q-98 0 -166 69t-68 201q0 133 68 201.5t166 68.5q59 0 108.5 -25t75.5 -71v86h80v-520h-80v87q-26 -46 -75.5 -71.5t-108.5 -25.5zM109 260q0 -98 50 -149.5t122 -51.5t123 52t51 149q0 98 -51 150t-123 52t-122 -52t-50 -150zM207 656q0 36 25.5 61t62.5 25
t62.5 -25t25.5 -61q0 -35 -25.5 -60t-62.5 -25t-62.5 25t-25.5 60zM250 656q0 -19 13 -32t32 -13q20 0 33 13t13 32q0 20 -13.5 33t-32.5 13t-32 -13.5t-13 -32.5z" />
    <glyph glyph-name="atilde.ss01" horiz-adv-x="588" 
d="M267 -10q-98 0 -166 69t-68 201q0 133 68 201.5t166 68.5q59 0 108.5 -25t75.5 -71v86h80v-520h-80v87q-26 -46 -75.5 -71.5t-108.5 -25.5zM109 260q0 -98 50 -149.5t122 -51.5t123 52t51 149q0 98 -51 150t-123 52t-122 -52t-50 -150zM137 628q0 47 23.5 71.5t62.5 24.5
q31 0 54.5 -17t42.5 -34t39 -17t31 13.5t11 30.5h51q0 -47 -23 -71.5t-62 -24.5q-31 0 -54.5 17t-42.5 34t-39 17t-31.5 -13.5t-10.5 -30.5h-52z" />
    <glyph glyph-name="g.ss01" horiz-adv-x="528" 
d="M261 -200q-96 0 -162 40.5t-66 122.5q0 53 27.5 87t71.5 49q-37 0 -63.5 21t-26.5 56q0 28 17.5 47.5t48.5 25.5q-39 42 -39 110q0 78 52.5 122.5t136.5 44.5q87 0 139 -47q26 42 88 41v-60q-36 0 -58 -18q20 -37 20 -83q0 -79 -52.5 -123.5t-136.5 -44.5q-61 0 -106 24
q-44 -3 -44 -38q0 -43 93 -43h63q95 0 162 -40.5t67 -125.5q0 -44 -20 -77.5t-53.5 -52.5t-73.5 -28.5t-85 -9.5zM109 -32q0 -53 42.5 -80.5t110.5 -27.5q69 0 111.5 27t42.5 81t-42 81t-111 27t-111.5 -27t-42.5 -81zM137 359q0 -49 31.5 -79t89.5 -30q59 0 90 30t31 79
q0 48 -31 78t-90 30q-58 0 -89.5 -30t-31.5 -78z" />
    <glyph glyph-name="i.ss01" horiz-adv-x="195" 
d="M58 0v520h80v-520h-80zM58 635v74h80v-74h-80z" />
    <glyph glyph-name="l.ss01" horiz-adv-x="208" 
d="M185 -2q-66 -8 -96.5 14t-30.5 84v609h80v-608q0 -39 47 -38v-61z" />
    <glyph glyph-name="a.ss02" horiz-adv-x="588" 
d="M267 -10q-98 0 -166 69t-68 201q0 133 68 201.5t166 68.5q59 0 108.5 -25t75.5 -71v86h80v-520h-80v87q-26 -46 -75.5 -71.5t-108.5 -25.5zM109 260q0 -98 50 -149.5t122 -51.5t123 52t51 149q0 98 -51 150t-123 52t-122 -52t-50 -150z" />
    <glyph glyph-name="aacute.ss02" horiz-adv-x="588" 
d="M267 -10q-98 0 -166 69t-68 201q0 133 68 201.5t166 68.5q59 0 108.5 -25t75.5 -71v86h80v-520h-80v87q-26 -46 -75.5 -71.5t-108.5 -25.5zM109 260q0 -98 50 -149.5t122 -51.5t123 52t51 149q0 98 -51 150t-123 52t-122 -52t-50 -150zM256 582l101 131h73l-101 -131h-73
z" />
    <glyph glyph-name="abreve.ss02" horiz-adv-x="588" 
d="M267 -10q-98 0 -166 69t-68 201q0 133 68 201.5t166 68.5q59 0 108.5 -25t75.5 -71v86h80v-520h-80v87q-26 -46 -75.5 -71.5t-108.5 -25.5zM109 260q0 -98 50 -149.5t122 -51.5t123 52t51 149q0 98 -51 150t-123 52t-122 -52t-50 -150zM154 713h56q3 -78 84 -78
q82 0 85 78h55q0 -56 -34.5 -92t-105.5 -36t-105.5 36t-34.5 92z" />
    <glyph glyph-name="uni01CE.ss02" horiz-adv-x="588" 
d="M267 -10q-98 0 -166 69t-68 201q0 133 68 201.5t166 68.5q59 0 108.5 -25t75.5 -71v86h80v-520h-80v87q-26 -46 -75.5 -71.5t-108.5 -25.5zM109 260q0 -98 50 -149.5t122 -51.5t123 52t51 149q0 98 -51 150t-123 52t-122 -52t-50 -150zM133 712h75l81 -103l80 103h74
l-101 -129h-108z" />
    <glyph glyph-name="acircumflex.ss02" horiz-adv-x="588" 
d="M267 -10q-98 0 -166 69t-68 201q0 133 68 201.5t166 68.5q59 0 108.5 -25t75.5 -71v86h80v-520h-80v87q-26 -46 -75.5 -71.5t-108.5 -25.5zM109 260q0 -98 50 -149.5t122 -51.5t123 52t51 149q0 98 -51 150t-123 52t-122 -52t-50 -150zM138 584l101 129h108l101 -129h-74
l-80 103l-81 -103h-75z" />
    <glyph glyph-name="adieresis.ss02" horiz-adv-x="588" 
d="M267 -10q-98 0 -166 69t-68 201q0 133 68 201.5t166 68.5q59 0 108.5 -25t75.5 -71v86h80v-520h-80v87q-26 -46 -75.5 -71.5t-108.5 -25.5zM109 260q0 -98 50 -149.5t122 -51.5t123 52t51 149q0 98 -51 150t-123 52t-122 -52t-50 -150zM149 673q0 21 15 35.5t36 14.5
q20 0 35 -14.5t15 -35.5q0 -20 -15 -35t-35 -15t-35.5 15t-15.5 35zM338 673q0 21 15 35.5t36 14.5q20 0 35 -14.5t15 -35.5q0 -20 -15 -35t-35 -15t-35.5 15t-15.5 35z" />
    <glyph glyph-name="agrave.ss02" horiz-adv-x="588" 
d="M267 -10q-98 0 -166 69t-68 201q0 133 68 201.5t166 68.5q59 0 108.5 -25t75.5 -71v86h80v-520h-80v87q-26 -46 -75.5 -71.5t-108.5 -25.5zM109 260q0 -98 50 -149.5t122 -51.5t123 52t51 149q0 98 -51 150t-123 52t-122 -52t-50 -150zM169 713h73l101 -131h-73z" />
    <glyph glyph-name="amacron.ss02" horiz-adv-x="588" 
d="M267 -10q-98 0 -166 69t-68 201q0 133 68 201.5t166 68.5q59 0 108.5 -25t75.5 -71v86h80v-520h-80v87q-26 -46 -75.5 -71.5t-108.5 -25.5zM109 260q0 -98 50 -149.5t122 -51.5t123 52t51 149q0 98 -51 150t-123 52t-122 -52t-50 -150zM147 663v50h295v-50h-295z" />
    <glyph glyph-name="aogonek.ss02" horiz-adv-x="588" 
d="M267 -10q-98 0 -166 69t-68 201q0 133 68 201.5t166 68.5q59 0 108.5 -25t75.5 -71v86h80v-520q-57 0 -87.5 -23t-30.5 -58q0 -32 24.5 -47.5t62.5 -8.5v-48q-52 -13 -100.5 12.5t-48.5 83.5q0 44 29 73.5t71 37.5v65q-26 -46 -75.5 -71.5t-108.5 -25.5zM109 260
q0 -98 50 -149.5t122 -51.5t123 52t51 149q0 98 -51 150t-123 52t-122 -52t-50 -150z" />
    <glyph glyph-name="aring.ss02" horiz-adv-x="588" 
d="M267 -10q-98 0 -166 69t-68 201q0 133 68 201.5t166 68.5q59 0 108.5 -25t75.5 -71v86h80v-520h-80v87q-26 -46 -75.5 -71.5t-108.5 -25.5zM109 260q0 -98 50 -149.5t122 -51.5t123 52t51 149q0 98 -51 150t-123 52t-122 -52t-50 -150zM207 656q0 36 25.5 61t62.5 25
t62.5 -25t25.5 -61q0 -35 -25.5 -60t-62.5 -25t-62.5 25t-25.5 60zM250 656q0 -19 13 -32t32 -13q20 0 33 13t13 32q0 20 -13.5 33t-32.5 13t-32 -13.5t-13 -32.5z" />
    <glyph glyph-name="atilde.ss02" horiz-adv-x="588" 
d="M267 -10q-98 0 -166 69t-68 201q0 133 68 201.5t166 68.5q59 0 108.5 -25t75.5 -71v86h80v-520h-80v87q-26 -46 -75.5 -71.5t-108.5 -25.5zM109 260q0 -98 50 -149.5t122 -51.5t123 52t51 149q0 98 -51 150t-123 52t-122 -52t-50 -150zM137 628q0 47 23.5 71.5t62.5 24.5
q31 0 54.5 -17t42.5 -34t39 -17t31 13.5t11 30.5h51q0 -47 -23 -71.5t-62 -24.5q-31 0 -54.5 17t-42.5 34t-39 17t-31.5 -13.5t-10.5 -30.5h-52z" />
    <glyph glyph-name="a.ss03" horiz-adv-x="530" 
d="M205 -10q-78 0 -125 35.5t-47 105.5q0 66 44 100.5t131 46.5l114 15q75 10 75 33v25q0 64 -32 91t-97 27q-128 0 -128 -98v-11h-76v18q0 152 207 152q105 0 155.5 -42.5t50.5 -135.5v-269q0 -18 7.5 -26.5t23.5 -7.5v-50q-11 -5 -31 -5q-35 0 -55.5 15.5t-20.5 46.5v32
h-3q-6 -12 -18 -26t-34.5 -31.5t-59.5 -29t-81 -11.5zM113 136q0 -82 106 -82q82 0 130 46t48 85v77q-5 -17 -69 -26l-102 -14q-63 -9 -88 -30t-25 -56z" />
    <glyph glyph-name="g.ss03" horiz-adv-x="528" 
d="M261 -200q-96 0 -162 40.5t-66 122.5q0 53 27.5 87t71.5 49q-37 0 -63.5 21t-26.5 56q0 28 17.5 47.5t48.5 25.5q-39 42 -39 110q0 78 52.5 122.5t136.5 44.5q87 0 139 -47q26 42 88 41v-60q-36 0 -58 -18q20 -37 20 -83q0 -79 -52.5 -123.5t-136.5 -44.5q-61 0 -106 24
q-44 -3 -44 -38q0 -43 93 -43h63q95 0 162 -40.5t67 -125.5q0 -44 -20 -77.5t-53.5 -52.5t-73.5 -28.5t-85 -9.5zM109 -32q0 -53 42.5 -80.5t110.5 -27.5q69 0 111.5 27t42.5 81t-42 81t-111 27t-111.5 -27t-42.5 -81zM137 359q0 -49 31.5 -79t89.5 -30q59 0 90 30t31 79
q0 48 -31 78t-90 30q-58 0 -89.5 -30t-31.5 -78z" />
    <glyph glyph-name="l.ss04" horiz-adv-x="208" 
d="M185 -2q-66 -8 -96.5 14t-30.5 84v609h80v-608q0 -39 47 -38v-61z" />
    <glyph glyph-name="f_t" horiz-adv-x="643" 
d="M23 456v64h72v69q0 127 134 127h56v-63h-35q-41 0 -58 -17.5t-17 -59.5v-56h250v130h80v-130h103v-65h-103v-318q0 -42 16.5 -60t58.5 -18q22 0 36 2v-62q-27 -6 -58 -6q-133 0 -133 129v333h-84v1h-166v-456h-80v456h-72z" />
    <glyph glyph-name="r_t" horiz-adv-x="605" 
d="M520 -7q-133 0 -133 129v333h-55q-91 0 -142.5 -48t-51.5 -133v-274h-80v520h80v-134h2q12 56 60.5 95t133.5 39h53v130h80v-130h103v-65h-103v-318q0 -42 16.5 -60t58.5 -18q22 0 36 2v-62q-27 -6 -58 -6z" />
    <glyph glyph-name="zero.dnom" horiz-adv-x="282" 
d="M141 -2q-47 0 -76.5 35t-29.5 91v13q0 56 29.5 91t76.5 35q48 0 77 -35t29 -91v-13q0 -56 -29 -91t-77 -35zM70 124q0 -43 20 -68t51 -25t51 25t20 68v13q0 43 -20 68.5t-51 25.5t-51 -25.5t-20 -68.5v-13z" />
    <glyph glyph-name="one.dnom" horiz-adv-x="173" 
d="M94 214q-15 -26 -54 -21v32q18 -1 33 10t21 26h34v-261h-34v214z" />
    <glyph glyph-name="two.dnom" horiz-adv-x="254" 
d="M40 9q0 37 16.5 64.5t57.5 53.5q23 14 31.5 19.5t16.5 17t8 26.5q0 19 -13 31t-34 12t-34 -13t-13 -36v-7h-36v7q0 37 22 59t61 22t61 -21t22 -54q0 -29 -18 -48.5t-57 -42.5q-52 -31 -52 -64v-3h130v-32h-169v9z" />
    <glyph glyph-name="three.dnom" horiz-adv-x="269" 
d="M134 -4q-45 0 -69.5 23.5t-24.5 61.5h34q1 -27 17 -41t44 -14q27 0 43 12.5t16 36.5q0 48 -65 48h-11v27h11q26 0 40 13t14 31q0 19 -13 30t-36 11q-52 0 -52 -52h-33q0 39 23 60.5t63 21.5q39 0 60.5 -19.5t21.5 -49.5q0 -44 -46 -57q23 -4 40.5 -20.5t17.5 -45.5
q0 -33 -25.5 -55t-69.5 -22z" />
    <glyph glyph-name="four.dnom" horiz-adv-x="263" 
d="M159 0v66h-119v28l119 167h34v-167h30v-28h-30v-66h-34zM72 94h87v123z" />
    <glyph glyph-name="five.dnom" horiz-adv-x="246" 
d="M121 -5q-42 0 -66.5 23.5t-24.5 61.5h33q1 -23 16.5 -38.5t42.5 -15.5t43.5 16t16.5 45q0 31 -18 45.5t-40 14.5q-34 0 -54 -26h-34l22 140h135v-31h-110l-13 -79q21 24 61 24q35 0 60 -24t25 -65q0 -42 -25.5 -66.5t-69.5 -24.5z" />
    <glyph glyph-name="six.dnom" horiz-adv-x="270" 
d="M138 -5q-43 0 -70.5 32t-27.5 99q0 61 24 99.5t74 38.5q39 0 60.5 -21.5t22.5 -48.5h-31q-6 40 -52 40q-61 0 -64 -100q8 14 27 25.5t43 11.5q36 0 61 -21t25 -63q0 -46 -26.5 -69t-65.5 -23zM79 88q0 -28 17 -44.5t42 -16.5t40.5 15t15.5 46q0 27 -15.5 41.5t-40.5 14.5
t-42 -15.5t-17 -40.5z" />
    <glyph glyph-name="seven.dnom" horiz-adv-x="226" 
d="M54 0l110 230h-144v31h176v-31l-107 -230h-35z" />
    <glyph glyph-name="eight.dnom" horiz-adv-x="234" 
d="M117 -2q-40 0 -66 20.5t-26 55.5q0 47 47 69q-31 18 -31 55q0 27 20 46t56 19t56.5 -19.5t20.5 -45.5q0 -37 -31 -55q46 -21 46 -69q0 -35 -26 -55.5t-66 -20.5zM57 75q0 -23 16.5 -36t43.5 -13t43.5 13t16.5 36q0 25 -17 38.5t-43 13.5t-43 -13.5t-17 -38.5zM71 197
q0 -19 13 -30.5t33 -11.5t33 11.5t13 30.5q0 17 -11.5 28.5t-34.5 11.5t-34.5 -11.5t-11.5 -28.5z" />
    <glyph glyph-name="nine.dnom" horiz-adv-x="270" 
d="M132 -5q-39 0 -60.5 22t-22.5 49h31q6 -41 52 -41q61 0 64 101q-7 -15 -26 -26t-44 -11q-36 0 -61 21t-25 62q0 46 26.5 69t65.5 23q43 0 70.5 -32t27.5 -98q0 -62 -24 -100.5t-74 -38.5zM76 172q0 -28 15.5 -42t40.5 -14t42 15t17 40q0 28 -17 44.5t-42 16.5t-40.5 -15
t-15.5 -45z" />
    <glyph glyph-name="zero.numr" horiz-adv-x="282" 
d="M141 438q-47 0 -76.5 35t-29.5 91v13q0 56 29.5 91t76.5 35q48 0 77 -35t29 -91v-13q0 -56 -29 -91t-77 -35zM70 564q0 -43 20 -68t51 -25t51 25t20 68v13q0 43 -20 68.5t-51 25.5t-51 -25.5t-20 -68.5v-13z" />
    <glyph glyph-name="one.numr" horiz-adv-x="173" 
d="M94 653q-15 -26 -54 -21v32q18 -1 33 10t21 26h34v-261h-34v214z" />
    <glyph glyph-name="two.numr" horiz-adv-x="254" 
d="M40 449q0 37 16.5 64.5t57.5 53.5q23 14 31.5 19.5t16.5 17t8 26.5q0 19 -13 31t-34 12t-34 -13t-13 -36v-7h-36v7q0 37 22 59t61 22t61 -21t22 -54q0 -29 -18 -48.5t-57 -42.5q-52 -31 -52 -64v-3h130v-32h-169v9z" />
    <glyph glyph-name="three.numr" horiz-adv-x="269" 
d="M134 436q-45 0 -69.5 23.5t-24.5 61.5h34q1 -27 17 -41t44 -14q27 0 43 12.5t16 36.5q0 48 -65 48h-11v27h11q26 0 40 13t14 31q0 19 -13 30t-36 11q-52 0 -52 -52h-33q0 39 23 60.5t63 21.5q39 0 60.5 -19.5t21.5 -49.5q0 -44 -46 -57q23 -4 40.5 -20.5t17.5 -45.5
q0 -33 -25.5 -55t-69.5 -22z" />
    <glyph glyph-name="four.numr" horiz-adv-x="263" 
d="M159 440v66h-119v28l119 167h34v-167h30v-28h-30v-66h-34zM72 534h87v123z" />
    <glyph glyph-name="five.numr" horiz-adv-x="246" 
d="M121 435q-42 0 -66.5 23.5t-24.5 61.5h33q1 -23 16.5 -38.5t42.5 -15.5t43.5 16t16.5 45q0 31 -18 45.5t-40 14.5q-34 0 -54 -26h-34l22 140h135v-31h-110l-13 -79q21 24 61 24q35 0 60 -24t25 -65q0 -42 -25.5 -66.5t-69.5 -24.5z" />
    <glyph glyph-name="six.numr" horiz-adv-x="270" 
d="M138 434q-43 0 -70.5 32t-27.5 99q0 61 24 99.5t74 38.5q39 0 60.5 -21.5t22.5 -48.5h-31q-6 40 -52 40q-61 0 -64 -100q8 14 27 25.5t43 11.5q36 0 61 -21t25 -63q0 -46 -26.5 -69t-65.5 -23zM79 527q0 -28 17 -44.5t42 -16.5t40.5 15t15.5 46q0 27 -15.5 41.5
t-40.5 14.5t-42 -15.5t-17 -40.5z" />
    <glyph glyph-name="seven.numr" horiz-adv-x="226" 
d="M54 440l110 230h-144v31h176v-31l-107 -230h-35z" />
    <glyph glyph-name="eight.numr" horiz-adv-x="234" 
d="M117 438q-40 0 -66 20.5t-26 55.5q0 47 47 69q-31 18 -31 55q0 27 20 46t56 19t56.5 -19.5t20.5 -45.5q0 -37 -31 -55q46 -21 46 -69q0 -35 -26 -55.5t-66 -20.5zM57 515q0 -23 16.5 -36t43.5 -13t43.5 13t16.5 36q0 25 -17 38.5t-43 13.5t-43 -13.5t-17 -38.5zM71 637
q0 -19 13 -30.5t33 -11.5t33 11.5t13 30.5q0 17 -11.5 28.5t-34.5 11.5t-34.5 -11.5t-11.5 -28.5z" />
    <glyph glyph-name="nine.numr" horiz-adv-x="270" 
d="M132 435q-39 0 -60.5 22t-22.5 49h31q6 -41 52 -41q61 0 64 101q-7 -15 -26 -26t-44 -11q-36 0 -61 21t-25 62q0 46 26.5 69t65.5 23q43 0 70.5 -32t27.5 -98q0 -62 -24 -100.5t-74 -38.5zM76 612q0 -28 15.5 -42t40.5 -14t42 15t17 40q0 28 -17 44.5t-42 16.5t-40.5 -15
t-15.5 -45z" />
    <glyph glyph-name="period.ss01" horiz-adv-x="196" 
d="M50 0v102h96v-102h-96z" />
    <glyph glyph-name="uni03060301" horiz-adv-x="0" 
d="M145 585q-71 0 -105.5 36t-34.5 92h56q3 -78 84 -78q82 0 85 78h55q0 -56 -34.5 -92t-105.5 -36zM103 745l101 131h73l-101 -131h-73z" />
    <glyph glyph-name="uni03060300" horiz-adv-x="0" 
d="M145 585q-71 0 -105.5 36t-34.5 92h56q3 -78 84 -78q82 0 85 78h55q0 -56 -34.5 -92t-105.5 -36zM10 876h73l101 -131h-73z" />
    <glyph glyph-name="uni03060309" horiz-adv-x="0" 
d="M145 585q-71 0 -105.5 36t-34.5 92h56q3 -78 84 -78q82 0 85 78h55q0 -56 -34.5 -92t-105.5 -36zM28 800q0 43 28 66.5t65 23.5q40 0 68.5 -25t28.5 -70q0 -41 -25 -66t-60 -29l-25 37q62 2 62 55q0 24 -13.5 38t-35.5 14q-20 0 -33.5 -11.5t-14.5 -32.5h-45z" />
    <glyph glyph-name="uni03060303" horiz-adv-x="0" 
d="M145 585q-71 0 -105.5 36t-34.5 92h56q3 -78 84 -78q82 0 85 78h55q0 -56 -34.5 -92t-105.5 -36zM-13 791q0 47 23.5 71.5t63.5 24.5q31 0 54.5 -17t42.5 -34t39 -17t31 13.5t11 30.5h51q0 -47 -23 -71.5t-62 -24.5q-31 0 -54.5 17t-42.5 34t-39 17t-31.5 -13.5
t-10.5 -30.5h-53z" />
    <glyph glyph-name="uni03020301" horiz-adv-x="0" 
d="M0 584l101 129h108l101 -129h-74l-80 103l-81 -103h-75zM264 681l101 131h73l-101 -131h-73z" />
    <glyph glyph-name="uni03020300" horiz-adv-x="0" 
d="M292 680l-95 131h73l95 -131h-73zM0 584l101 129h108l101 -129h-74l-80 103l-81 -103h-75z" />
    <glyph glyph-name="uni03020309" horiz-adv-x="0" 
d="M0 584l101 129h108l101 -129h-74l-80 103l-81 -103h-75zM180 800q0 43 28 66.5t65 23.5q40 0 68.5 -25t28.5 -70q0 -41 -25 -66t-60 -29l-25 37q62 2 62 55q0 24 -13.5 38t-35.5 14q-20 0 -33.5 -11.5t-14.5 -32.5h-45z" />
    <glyph glyph-name="uni03020303" horiz-adv-x="0" 
d="M0 584l101 129h108l101 -129h-74l-80 103l-81 -103h-75zM-2 786q0 47 23.5 71.5t63.5 24.5q31 0 54.5 -17t42.5 -34t39 -17t31 13.5t11 30.5h51q0 -47 -23 -71.5t-62 -24.5q-31 0 -54.5 17t-42.5 34t-39 17t-31.5 -13.5t-10.5 -30.5h-53z" />
    </font>
</defs>
</svg>
