<?xml version="1.0" standalone="no"?>
<!DOCTYPE svg PUBLIC "-//W3C//DTD SVG 1.1//EN" "http://www.w3.org/Graphics/SVG/1.1/DTD/svg11.dtd" >
<svg xmlns="http://www.w3.org/2000/svg" xmlns:xlink="http://www.w3.org/1999/xlink" version="1.1">
<metadata>
Created by FontForge 20190801 at Wed Mar 30 20:57:51 2022
 By www-data
Copyright (c) 2022 by Connary Fagen. All rights reserved.
</metadata>
<defs>
<font id="articulatecfmedium" horiz-adv-x="575" >
  <font-face 
    font-family="articulatecfmedium"
    font-weight="500"
    font-stretch="normal"
    units-per-em="1000"
    panose-1="0 0 0 0 0 0 0 0 0 0"
    ascent="800"
    descent="-200"
    x-height="520"
    cap-height="700"
    bbox="-169 -271 1047 1074"
    underline-thickness="50"
    underline-position="-125"
    unicode-range="U+0020-A78C"
  />
<missing-glyph horiz-adv-x="722" 
d="M56 0v700h610v-700h-610zM108 52h506v596h-506v-596zM145 90l188 263l-185 257h58l154 -218l154 218h58l-185 -257l188 -263h-58l-157 225l-157 -225h-58z" />
    <glyph glyph-name=".notdef" horiz-adv-x="722" 
d="M56 0v700h610v-700h-610zM108 52h506v596h-506v-596zM145 90l188 263l-185 257h58l154 -218l154 218h58l-185 -257l188 -263h-58l-157 225l-157 -225h-58z" />
    <glyph glyph-name=".null" horiz-adv-x="0" 
 />
    <glyph glyph-name="nonmarkingreturn" horiz-adv-x="333" 
 />
    <glyph glyph-name="space" unicode=" " horiz-adv-x="230" 
 />
    <glyph glyph-name="exclam" unicode="!" horiz-adv-x="245" 
d="M83 212l-12 488h103l-12 -488h-79zM56 56q0 27 19.5 46.5t46.5 19.5q28 0 47.5 -19.5t19.5 -46.5q0 -28 -19.5 -47t-47.5 -19q-27 0 -46.5 19t-19.5 47z" />
    <glyph glyph-name="quotedbl" unicode="&#x22;" horiz-adv-x="351" 
d="M215 440v260h96v-260h-96zM40 440v260h96v-260h-96z" />
    <glyph glyph-name="numbersign" unicode="#" horiz-adv-x="597" 
d="M339 0l19 185h-151l-19 -185h-64l19 185h-97v65h103l20 200h-97v65h104l18 185h64l-18 -185h151l18 185h64l-18 -185h96v-65h-103l-20 -200h97v-65h-103l-19 -185h-64zM213 250h151l20 200h-151z" />
    <glyph glyph-name="dollar" unicode="$" horiz-adv-x="604" 
d="M282 -9q-115 6 -178 65t-63 156h102q3 -56 37 -92t102 -41v241l-35 8q-186 43 -186 188q0 86 58 137t163 55v82h46v-82q103 -6 159.5 -57.5t56.5 -137.5h-102q-1 45 -30.5 73.5t-83.5 33.5v-219l31 -7q105 -24 154.5 -69.5t49.5 -127.5q0 -95 -63 -148t-172 -58v-81h-46
v81zM164 517q0 -82 118 -107v211q-60 -4 -89 -32t-29 -72zM328 79q64 3 97.5 33.5t33.5 83.5q0 49 -32.5 76t-98.5 41v-234z" />
    <glyph glyph-name="percent" unicode="%" horiz-adv-x="732" 
d="M112 119l-43 59l551 402l43 -59zM41 553q0 73 39 114t100 41t100 -41t39 -114q0 -75 -39 -115.5t-100 -40.5q-62 0 -100.5 40.5t-38.5 115.5zM115 553q0 -44 18.5 -65.5t46.5 -21.5t46.5 21.5t18.5 65.5t-18 65t-47 21t-47 -21t-18 -65zM413 148q0 73 39 114t100 41
t100 -41t39 -114q0 -75 -39 -116t-100 -41t-100 41t-39 116zM487 148q0 -44 18 -65.5t47 -21.5t47 21.5t18 65.5q0 43 -18 64t-47 21t-47 -21t-18 -64z" />
    <glyph glyph-name="ampersand" unicode="&#x26;" horiz-adv-x="694" 
d="M289 -10q-109 0 -178.5 57t-69.5 147q0 68 39.5 116t114.5 89q-76 90 -76 161q0 62 45 105.5t130 43.5q83 0 128.5 -42t45.5 -109q0 -111 -140 -181l162 -179q34 71 34 168h90q0 -145 -60 -239l114 -127h-113l-57 63q-84 -73 -209 -73zM145 203q0 -56 43 -92.5t111 -36.5
q81 0 140 54l-191 212q-103 -52 -103 -137zM207 560q0 -28 16.5 -55.5t50.5 -66.5q57 29 81 57.5t24 62.5q0 37 -24 58t-62 21q-40 0 -63 -21.5t-23 -55.5z" />
    <glyph glyph-name="quotesingle" unicode="'" horiz-adv-x="176" 
d="M40 440v260h96v-260h-96z" />
    <glyph glyph-name="parenleft" unicode="(" horiz-adv-x="292" 
d="M151 -130q-106 189 -106 450q0 248 106 425h96q-101 -183 -101 -425q0 -256 101 -450h-96z" />
    <glyph glyph-name="parenright" unicode=")" horiz-adv-x="292" 
d="M45 -130q101 194 101 450q0 242 -101 425h96q106 -177 106 -425q0 -261 -106 -450h-96z" />
    <glyph glyph-name="asterisk" unicode="*" horiz-adv-x="521" 
d="M346 322l-82 122l51 39l89 -120zM61 527l18 66l142 -43l-18 -61zM117 363l88 120l51 -39l-82 -122zM224 700h72l-5 -145h-62zM300 550l141 43l19 -66l-143 -38z" />
    <glyph glyph-name="plus" unicode="+" horiz-adv-x="563" 
d="M234 59v179h-178v88h178v179h94v-179h179v-88h-179v-179h-94z" />
    <glyph glyph-name="comma" unicode="," horiz-adv-x="223" 
d="M57 -68q34 1 49 16t15 44q-37 0 -58.5 19t-21.5 48q0 27 18.5 45t46.5 18q34 0 55 -25.5t21 -76.5q0 -62 -32 -97.5t-85 -35.5h-8v45z" />
    <glyph glyph-name="hyphen" unicode="-" horiz-adv-x="366" 
d="M40 240v77h286v-77h-286z" />
    <glyph glyph-name="period" unicode="." horiz-adv-x="215" 
d="M107 -10q-27 0 -46.5 19t-19.5 47q0 27 19.5 46.5t46.5 19.5q28 0 47.5 -19.5t19.5 -46.5q0 -28 -19.5 -47t-47.5 -19z" />
    <glyph glyph-name="slash" unicode="/" horiz-adv-x="433" 
d="M30 0l272 700h101l-272 -700h-101z" />
    <glyph glyph-name="zero" unicode="0" horiz-adv-x="629" 
d="M314 -10q-118 0 -195.5 91t-77.5 269q0 176 77.5 267.5t195.5 91.5t196 -91t78 -268q0 -178 -77.5 -269t-196.5 -91zM137 350q0 -125 46 -199.5t131 -74.5t131 74.5t46 199.5q0 124 -46 198.5t-131 74.5t-131 -74.5t-46 -198.5z" />
    <glyph glyph-name="one" unicode="1" horiz-adv-x="353" 
d="M176 570q-47 -53 -135 -55v84q52 4 87.5 31t47.5 70h101v-700h-101v570z" />
    <glyph glyph-name="two" unicode="2" horiz-adv-x="555" 
d="M40 29q0 95 42.5 161t150.5 130q7 4 29 17.5t28 17.5t24 15.5t24 16.5t19 15.5t18 17.5t13 18t11 20.5t5.5 21.5t2.5 25q1 57 -35 87.5t-93 30.5q-59 0 -95.5 -34.5t-36.5 -102.5v-14h-98v19q0 98 59.5 158t171.5 60q107 0 167.5 -55t60.5 -144q0 -45 -14.5 -81
t-47 -65.5t-57.5 -47t-73 -44.5q-85 -51 -123 -92t-38 -90v-5h355v-85h-470v29z" />
    <glyph glyph-name="three" unicode="3" horiz-adv-x="582" 
d="M285 -10q-122 0 -185.5 64.5t-63.5 173.5h95q1 -73 44 -112t114 -39q66 0 110.5 34t44.5 96q0 58 -43 92t-123 34h-34v76h29q77 0 108.5 31t31.5 76q0 50 -34 78t-91 28q-59 0 -96.5 -34t-37.5 -107h-95q0 111 60.5 169.5t170.5 58.5q103 0 162 -49t59 -129
q0 -59 -32 -99.5t-84 -54.5q58 -9 104.5 -53.5t46.5 -122.5q0 -94 -71.5 -152.5t-189.5 -58.5z" />
    <glyph glyph-name="four" unicode="4" horiz-adv-x="571" 
d="M354 0v179h-318v82l318 439h101v-439h80v-82h-80v-179h-101zM126 261h228v314z" />
    <glyph glyph-name="five" unicode="5" horiz-adv-x="579" 
d="M294 -10q-116 0 -182 62.5t-66 162.5h92q2 -66 45.5 -104t108.5 -38q66 0 111 41t45 122q0 82 -44.5 122.5t-109.5 40.5q-95 0 -138 -73h-96l57 374h369v-81h-299l-33 -209q19 26 61.5 47t102.5 21q101 0 165.5 -65t64.5 -177q0 -115 -69 -180.5t-185 -65.5z" />
    <glyph glyph-name="six" unicode="6" horiz-adv-x="591" 
d="M303 -10q-118 0 -187.5 87.5t-69.5 267.5q0 76 13.5 139t43 115t82.5 81t125 29q106 0 162.5 -56t56.5 -130h-89q-6 49 -41.5 77t-90.5 28q-163 0 -168 -253q62 91 182 91q96 0 162 -61t66 -173q0 -116 -72.5 -179t-174.5 -63zM153 233q0 -74 43 -117t107 -43
q65 0 107.5 43t42.5 117q0 73 -42 114t-107 41t-108 -41t-43 -114z" />
    <glyph glyph-name="seven" unicode="7" horiz-adv-x="494" 
d="M122 0q27 287 241 616h-333v84h429v-84q-217 -333 -241 -616h-96z" />
    <glyph glyph-name="eight" unicode="8" horiz-adv-x="569" 
d="M284 -10q-109 0 -178.5 55.5t-69.5 152.5q0 135 130 185q-42 20 -65.5 60t-23.5 89q0 77 55.5 127t151.5 50t151.5 -50t55.5 -127q0 -49 -23.5 -89t-64.5 -60q130 -50 130 -185q0 -97 -70 -152.5t-179 -55.5zM133 206q0 -59 40.5 -94.5t110.5 -35.5t110.5 35.5t40.5 94.5
q0 60 -41 96t-110 36t-110 -36t-41 -96zM172 526q0 -47 29 -74.5t83 -27.5t83.5 27.5t29.5 74.5q0 46 -29 72t-84 26t-83.5 -26t-28.5 -72z" />
    <glyph glyph-name="nine" unicode="9" horiz-adv-x="591" 
d="M288 708q118 0 187.5 -87.5t69.5 -267.5q0 -76 -13.5 -139t-43 -115t-82.5 -81t-125 -29q-106 0 -162.5 56t-56.5 130h89q6 -49 41.5 -77t90.5 -28q163 0 168 253q-62 -91 -182 -91q-96 0 -162 61t-66 173q0 116 72.5 179t174.5 63zM138 465q0 -73 42 -114t107 -41
t108 41t43 114q0 74 -43 117t-107 43q-65 0 -107.5 -43t-42.5 -117z" />
    <glyph glyph-name="colon" unicode=":" horiz-adv-x="215" 
d="M107 -10q-27 0 -46.5 19t-19.5 47q0 27 19.5 46.5t46.5 19.5q28 0 47.5 -19.5t19.5 -46.5q0 -28 -19.5 -47t-47.5 -19zM41 454q0 27 19.5 46.5t46.5 19.5q28 0 47.5 -19.5t19.5 -46.5q0 -28 -19.5 -47t-47.5 -19q-27 0 -46.5 19t-19.5 47z" />
    <glyph glyph-name="semicolon" unicode=";" horiz-adv-x="223" 
d="M107 388q-27 0 -46.5 19t-19.5 47q0 27 19.5 46.5t46.5 19.5q28 0 47.5 -19.5t19.5 -46.5q0 -28 -19.5 -47t-47.5 -19zM41 59q0 27 18.5 45t46.5 18q34 0 55 -25.5t21 -76.5q0 -62 -32 -97.5t-85 -35.5h-8v45q34 1 49 16t15 44q-37 0 -58.5 19t-21.5 48z" />
    <glyph glyph-name="less" unicode="&#x3c;" horiz-adv-x="507" 
d="M462 0l-417 195v92l417 195v-96l-326 -145l326 -145v-96z" />
    <glyph glyph-name="equal" unicode="=" horiz-adv-x="421" 
d="M56 160v77h309v-77h-309zM56 320v77h309v-77h-309z" />
    <glyph glyph-name="greater" unicode="&#x3e;" horiz-adv-x="507" 
d="M45 0v96l326 145l-326 145v96l417 -195v-92z" />
    <glyph glyph-name="question" unicode="?" horiz-adv-x="537" 
d="M224 243q0 39 12.5 70.5t31 49.5t40 36t40 32t31 35t12.5 47q0 49 -31 78t-87 29q-61 0 -94 -37.5t-33 -105.5h-101q-1 114 62 172t166 58q97 0 158 -51.5t61 -142.5q0 -36 -12 -64.5t-30 -45t-38.5 -33.5t-38.5 -31.5t-30 -39.5t-12 -56v-37h-107v37zM211 56
q0 27 19.5 46.5t46.5 19.5q28 0 47.5 -19.5t19.5 -46.5q0 -28 -19.5 -47t-47.5 -19q-27 0 -46.5 19t-19.5 47z" />
    <glyph glyph-name="at" unicode="@" horiz-adv-x="791" 
d="M412 -10q-159 0 -265 97t-106 263q0 164 103.5 261.5t257.5 97.5q152 0 250 -95t98 -249q0 -96 -39 -145.5t-98 -49.5q-45 0 -73.5 25.5t-34.5 63.5q-9 -37 -44 -63t-81 -26q-62 0 -107 45.5t-45 128.5q0 84 44.5 129t106.5 45q49 0 81.5 -27t38.5 -69l7 86h49v-192
q0 -45 16 -68.5t43 -23.5q36 0 55.5 38.5t19.5 101.5q0 130 -79 208t-209 78t-214.5 -80.5t-84.5 -218.5q0 -141 88.5 -221.5t226.5 -80.5q63 0 108 15v-58q-47 -16 -113 -16zM289 345q0 -52 27 -85.5t71 -33.5q45 0 72.5 33.5t27.5 85.5t-27.5 84.5t-72.5 32.5
q-44 0 -71 -33t-27 -84z" />
    <glyph glyph-name="A" unicode="A" horiz-adv-x="698" 
d="M21 0l263 700h130l263 -700h-109l-59 161h-320l-59 -161h-109zM218 240h262l-128 351h-6z" />
    <glyph glyph-name="B" unicode="B" horiz-adv-x="616" 
d="M56 0v700h267q108 0 162 -46t54 -125q0 -111 -97 -145q143 -39 143 -181q0 -91 -65 -147t-191 -56h-273zM160 89h163q76 0 114 33t38 88t-38 87t-114 32h-163v-240zM160 417h156q56 0 86 25.5t30 73.5q0 47 -30 71.5t-86 24.5h-156v-195z" />
    <glyph glyph-name="C" unicode="C" horiz-adv-x="670" 
d="M361 -10q-146 0 -233 94t-87 266q0 171 87 265t234 94q113 0 188 -57.5t90 -168.5h-102q-16 67 -63 101.5t-116 34.5q-100 0 -156.5 -71.5t-56.5 -197.5q0 -127 56 -198.5t157 -71.5q69 0 116 34.5t63 102.5h102q-15 -112 -90 -169.5t-189 -57.5z" />
    <glyph glyph-name="D" unicode="D" horiz-adv-x="666" 
d="M56 0v700h239q163 0 247 -90t84 -260t-84 -260t-247 -90h-239zM160 91h125q123 0 179 63t56 196q0 134 -56 196.5t-179 62.5h-125v-518z" />
    <glyph glyph-name="E" unicode="E" horiz-adv-x="552" 
d="M56 0v700h455v-91h-351v-210h321v-83h-321v-225h361v-91h-465z" />
    <glyph glyph-name="F" unicode="F" horiz-adv-x="536" 
d="M56 0v700h450v-91h-346v-218h285v-86h-285v-305h-104z" />
    <glyph glyph-name="G" unicode="G" horiz-adv-x="702" 
d="M361 -10q-150 0 -235 93.5t-85 264.5q0 173 86.5 267t232.5 94q108 0 182.5 -52t93.5 -150h-103q-36 112 -173 112q-104 0 -159.5 -70.5t-55.5 -197.5q0 -128 56.5 -199.5t160.5 -71.5q86 0 139 50.5t52 152.5h-162v84h265v-56q0 -156 -77.5 -238.5t-217.5 -82.5z" />
    <glyph glyph-name="H" unicode="H" horiz-adv-x="658" 
d="M499 0v302h-339v-302h-104v700h104v-312h339v312h103v-700h-103z" />
    <glyph glyph-name="I" unicode="I" horiz-adv-x="215" 
d="M56 0v700h104v-700h-104z" />
    <glyph glyph-name="J" unicode="J" horiz-adv-x="656" 
d="M327 -10q-126 0 -198.5 70.5t-72.5 201.5h104q0 -87 44.5 -134t123.5 -47q80 0 124.5 48.5t44.5 142.5v428h104v-436q0 -132 -73.5 -203t-200.5 -71z" />
    <glyph glyph-name="K" unicode="K" horiz-adv-x="656" 
d="M56 0v700h104v-371l326 371h124l-282 -319l307 -381h-121l-251 307l-103 -116v-191h-104z" />
    <glyph glyph-name="L" unicode="L" horiz-adv-x="537" 
d="M56 0v700h104v-609h347v-91h-451z" />
    <glyph glyph-name="M" unicode="M" horiz-adv-x="835" 
d="M56 0v700h128l234 -562l234 562h128v-700h-104v514h-4l-213 -514h-82l-214 514h-3v-514h-104z" />
    <glyph glyph-name="N" unicode="N" horiz-adv-x="673" 
d="M56 0v700h112l342 -537h3v537h104v-700h-116l-339 532h-2v-532h-104z" />
    <glyph glyph-name="O" unicode="O" horiz-adv-x="727" 
d="M364 -10q-144 0 -233.5 96.5t-89.5 263.5t89.5 263t233.5 96t233 -96t89 -263t-89 -263.5t-233 -96.5zM147 350q0 -128 59 -199t158 -71q98 0 157 71t59 199t-59 198.5t-157 70.5q-99 0 -158 -70.5t-59 -198.5z" />
    <glyph glyph-name="P" unicode="P" horiz-adv-x="604" 
d="M56 0v700h264q125 0 189 -59t64 -163q0 -103 -64 -161.5t-189 -58.5h-160v-258h-104zM160 349h156q75 0 113 33.5t38 95.5q0 63 -38 97t-113 34h-156v-260z" />
    <glyph glyph-name="Q" unicode="Q" horiz-adv-x="727" 
d="M622 -17l-66 67q-80 -60 -192 -60q-144 0 -233.5 96.5t-89.5 263.5t89.5 263t233.5 96t233 -96t89 -263q0 -144 -69 -238l68 -69zM147 350q0 -128 59 -199t158 -71q73 0 124 39l-120 121l63 60l113 -114q36 66 36 164q0 128 -59 198.5t-157 70.5q-99 0 -158 -70.5
t-59 -198.5z" />
    <glyph glyph-name="R" unicode="R" horiz-adv-x="610" 
d="M56 0v700h264q125 0 189 -59t64 -163q0 -79 -39 -133t-115 -74l160 -271h-104l-151 258h-164v-258h-104zM160 349h156q75 0 113 33.5t38 95.5q0 63 -38 97t-113 34h-156v-260z" />
    <glyph glyph-name="S" unicode="S" horiz-adv-x="625" 
d="M316 -10q-131 0 -203 59.5t-72 162.5h106q3 -60 45 -97t125 -37q77 0 117.5 31.5t40.5 86.5q0 49 -32 75t-94 38l-94 19q-194 39 -194 188q0 91 66.5 142t184.5 51q119 0 185.5 -52t66.5 -144h-106q-1 50 -39 79t-109 29q-72 0 -106.5 -29t-34.5 -76q0 -81 113 -104
l90 -18q108 -22 160 -68.5t52 -128.5q0 -100 -72 -153.5t-196 -53.5z" />
    <glyph glyph-name="T" unicode="T" horiz-adv-x="586" 
d="M241 0v607h-215v93h534v-93h-215v-607h-104z" />
    <glyph glyph-name="U" unicode="U" horiz-adv-x="662" 
d="M331 -10q-128 0 -201.5 71t-73.5 204v435h104v-428q0 -92 45 -141.5t126 -49.5t126 49.5t45 141.5v428h105v-435q0 -132 -74.5 -203.5t-201.5 -71.5z" />
    <glyph glyph-name="V" unicode="V" horiz-adv-x="708" 
d="M289 0l-263 700h109l216 -591h6l216 591h109l-263 -700h-130z" />
    <glyph glyph-name="W" unicode="W" horiz-adv-x="984" 
d="M212 0l-186 700h106l138 -554h5l163 554h109l162 -554h5l138 554h106l-185 -700h-110l-171 568l-171 -568h-109z" />
    <glyph glyph-name="X" unicode="X" horiz-adv-x="656" 
d="M518 0l-190 276l-190 -276h-117l249 361l-234 339h117l175 -254l175 254h116l-233 -339l249 -361h-117z" />
    <glyph glyph-name="Y" unicode="Y" horiz-adv-x="669" 
d="M281 0v268l-255 432h117l191 -331l192 331h117l-255 -432v-268h-107z" />
    <glyph glyph-name="Z" unicode="Z" horiz-adv-x="614" 
d="M40 0v91l414 518h-400v91h516v-91l-415 -518h419v-91h-534z" />
    <glyph glyph-name="bracketleft" unicode="[" horiz-adv-x="294" 
d="M56 -130v875h182v-87h-81v-701h81v-87h-182z" />
    <glyph glyph-name="backslash" unicode="\" horiz-adv-x="433" 
d="M403 0h-101l-272 700h101z" />
    <glyph glyph-name="bracketright" unicode="]" horiz-adv-x="294" 
d="M238 -130h-182v87h81v701h-81v87h182v-875z" />
    <glyph glyph-name="asciicircum" unicode="^" horiz-adv-x="487" 
d="M45 465l166 235h66l165 -235h-92l-106 152l-106 -152h-93z" />
    <glyph glyph-name="underscore" unicode="_" horiz-adv-x="590" 
d="M45 -88v88h500v-88h-500z" />
    <glyph glyph-name="grave" unicode="`" horiz-adv-x="192" 
d="M102 581l-102 134h90l102 -134h-90z" />
    <glyph glyph-name="a" unicode="a" horiz-adv-x="546" 
d="M205 -10q-78 0 -126 36t-48 110q0 132 166 152l129 15q64 8 64 31v14q0 59 -28.5 82t-87.5 23t-88 -20t-29 -68v-12h-97v21q0 156 216 156q111 0 163 -43.5t52 -137.5v-349h-95v84h-4q-6 -11 -16.5 -23.5t-32 -30t-57.5 -29t-81 -11.5zM132 141q0 -72 98 -72q76 0 118 38
t42 86v57q-11 -17 -71 -24l-98 -13q-48 -6 -68.5 -23.5t-20.5 -48.5z" />
    <glyph glyph-name="b" unicode="b" horiz-adv-x="594" 
d="M331 -10q-58 0 -104.5 24.5t-69.5 67.5v-82h-101v700h101v-262q23 43 69.5 67.5t104.5 24.5q96 0 164 -68.5t68 -201.5q0 -132 -68 -201t-164 -69zM152 260q0 -90 46.5 -137.5t111.5 -47.5q66 0 111.5 47.5t45.5 137.5t-45.5 137.5t-111.5 47.5q-65 0 -111.5 -47.5
t-46.5 -137.5z" />
    <glyph glyph-name="c" unicode="c" horiz-adv-x="542" 
d="M285 -10q-107 0 -180.5 68t-73.5 201t73.5 202t180.5 69q38 0 72.5 -9t68 -30t56.5 -61t30 -95h-92q-19 109 -136 109q-72 0 -115 -49t-43 -136t43 -135t115 -48q117 0 136 111h92q-6 -56 -29 -96.5t-56.5 -61.5t-68.5 -30t-73 -9z" />
    <glyph glyph-name="d" unicode="d" horiz-adv-x="594" 
d="M263 -10q-96 0 -164 69t-68 201q0 133 68 201.5t164 68.5q58 0 104.5 -24.5t69.5 -67.5v262h101v-700h-101v82q-23 -43 -69.5 -67.5t-104.5 -24.5zM127 260q0 -90 45.5 -137.5t111.5 -47.5q65 0 111.5 47.5t46.5 137.5t-46.5 137.5t-111.5 47.5q-66 0 -111.5 -47.5
t-45.5 -137.5z" />
    <glyph glyph-name="e" unicode="e" horiz-adv-x="547" 
d="M283 -10q-112 0 -182 67.5t-70 201.5q0 136 70 203.5t178 67.5q106 0 171.5 -66t65.5 -197q0 -23 -3 -39h-385q12 -159 156 -159q105 0 135 84h90q-22 -83 -82 -123t-144 -40zM129 304h291q-2 69 -39 108t-103 39q-64 0 -103 -37t-46 -110z" />
    <glyph glyph-name="f" unicode="f" horiz-adv-x="328" 
d="M93 578q0 138 147 138h63v-79h-38q-39 0 -55 -17t-16 -56v-44h106v-79h-106v-441h-101v441h-72v79h72v58z" />
    <glyph glyph-name="g" unicode="g" horiz-adv-x="588" 
d="M277 -209q-58 0 -106.5 13.5t-86.5 53t-38 101.5h89q2 -42 42 -65.5t98 -23.5q69 0 112.5 35t43.5 106v87h-2q-24 -40 -70.5 -63t-101.5 -23q-95 0 -160.5 65t-65.5 194t66 194t160 65q55 0 101.5 -23t70.5 -63h2v76h101v-509q0 -51 -16.5 -91t-42 -64t-60 -39
t-67.5 -20.5t-69 -5.5zM126 271q0 -85 45 -130t110 -45t110 45.5t45 129.5t-45 129t-110 45t-110 -44.5t-45 -129.5z" />
    <glyph glyph-name="h" unicode="h" 
d="M418 301q0 144 -122 144q-63 0 -101 -38t-38 -106v-301h-101v700h101v-284h3q9 39 53.5 76.5t121.5 37.5q82 0 133 -50.5t51 -155.5v-324h-101v301z" />
    <glyph glyph-name="i" unicode="i" horiz-adv-x="213" 
d="M56 0v520h101v-520h-101zM46 670q0 25 18 42.5t42 17.5t42 -17.5t18 -42.5t-18 -42.5t-42 -17.5t-42 17.5t-18 42.5z" />
    <glyph glyph-name="j" unicode="j" horiz-adv-x="228" 
d="M26 -190q-42 0 -65 3v79h39q39 0 55.5 17.5t16.5 56.5v554h101v-571q0 -139 -147 -139zM62 670q0 25 18 42.5t42 17.5t42 -17.5t18 -42.5t-18 -42.5t-42 -17.5t-42 17.5t-18 42.5z" />
    <glyph glyph-name="k" unicode="k" horiz-adv-x="554" 
d="M56 0v700h101v-441l244 261h114l-217 -224l245 -296h-113l-195 231l-78 -80v-151h-101z" />
    <glyph glyph-name="l" unicode="l" horiz-adv-x="213" 
d="M56 0v700h101v-700h-101z" />
    <glyph glyph-name="m" unicode="m" horiz-adv-x="887" 
d="M730 301q0 144 -112 144q-56 0 -90 -38t-34 -106v-301h-101v301q0 144 -112 144q-56 0 -90 -38t-34 -106v-301h-101v520h101v-104h3q8 39 50 76.5t111 37.5q125 0 161 -118q12 42 55.5 80t116.5 38q81 0 129 -50.5t48 -155.5v-324h-101v301z" />
    <glyph glyph-name="n" unicode="n" 
d="M418 301q0 144 -122 144q-63 0 -101 -38t-38 -106v-301h-101v520h101v-104h3q9 39 53.5 76.5t121.5 37.5q82 0 133 -50.5t51 -155.5v-324h-101v301z" />
    <glyph glyph-name="o" unicode="o" horiz-adv-x="569" 
d="M284 -10q-105 0 -179 69.5t-74 200.5t74 200.5t179 69.5q106 0 180 -69.5t74 -200.5t-74 -200.5t-180 -69.5zM127 260q0 -91 44.5 -138t112.5 -47t113 47t45 138t-45 138t-113 47t-112.5 -47t-44.5 -138z" />
    <glyph glyph-name="p" unicode="p" horiz-adv-x="594" 
d="M56 -190v710h101v-82q23 43 69.5 67.5t104.5 24.5q96 0 164 -68.5t68 -201.5q0 -132 -68 -201t-164 -69q-58 0 -104.5 24.5t-69.5 67.5v-272h-101zM152 260q0 -90 46.5 -137.5t111.5 -47.5q66 0 111.5 47.5t45.5 137.5t-45.5 137.5t-111.5 47.5q-65 0 -111.5 -47.5
t-46.5 -137.5z" />
    <glyph glyph-name="q" unicode="q" horiz-adv-x="594" 
d="M538 -190h-101v272q-23 -43 -69.5 -67.5t-104.5 -24.5q-96 0 -164 69t-68 201q0 133 68 201.5t164 68.5q58 0 104.5 -24.5t69.5 -67.5v82h101v-710zM127 260q0 -90 45.5 -137.5t111.5 -47.5q65 0 111.5 47.5t46.5 137.5t-46.5 137.5t-111.5 47.5q-66 0 -111.5 -47.5
t-45.5 -137.5z" />
    <glyph glyph-name="r" unicode="r" horiz-adv-x="379" 
d="M56 0v520h101v-120h3q13 52 53 89t106 37q24 0 39 -5v-85q-19 3 -38 3q-74 0 -118.5 -47t-44.5 -132v-260h-101z" />
    <glyph glyph-name="s" unicode="s" horiz-adv-x="487" 
d="M243 -10q-98 0 -156.5 41.5t-60.5 123.5h91q11 -87 127 -87q51 0 82.5 19.5t31.5 59.5q0 30 -19 45.5t-59 24.5l-97 22q-142 33 -142 143q0 70 55 109t147 39q94 0 147 -41.5t57 -121.5h-85q-12 85 -118 85q-105 0 -105 -68q0 -53 77 -70l98 -22q71 -17 109 -49t38 -94
q0 -81 -62 -120t-156 -39z" />
    <glyph glyph-name="t" unicode="t" horiz-adv-x="343" 
d="M252 -7q-146 0 -146 139v308h-85v80h85v131h101v-131h103v-80h-103v-291q0 -39 16 -56.5t57 -17.5q21 0 37 2v-76q-30 -8 -65 -8z" />
    <glyph glyph-name="u" unicode="u" 
d="M157 219q0 -144 122 -144q63 0 101 38t38 106v301h101v-520h-101v104h-3q-9 -39 -53.5 -76.5t-121.5 -37.5q-82 0 -133 50.5t-51 155.5v324h101v-301z" />
    <glyph glyph-name="v" unicode="v" horiz-adv-x="563" 
d="M218 0l-197 520h103l156 -424h4l156 424h103l-198 -520h-127z" />
    <glyph glyph-name="w" unicode="w" horiz-adv-x="806" 
d="M166 0l-145 520h97l109 -419h4l128 419h88l128 -419h4l109 419h97l-146 -520h-114l-122 386l-123 -386h-114z" />
    <glyph glyph-name="x" unicode="x" horiz-adv-x="543" 
d="M31 0l184 263l-177 257h111l122 -183l123 183h111l-177 -257l184 -263h-111l-130 189l-130 -189h-110z" />
    <glyph glyph-name="y" unicode="y" horiz-adv-x="549" 
d="M74 -108q60 -8 91.5 11t48.5 60q14 36 2 69l-195 488h104l149 -397l150 397h104l-220 -550q-40 -100 -93.5 -138t-140.5 -27v87z" />
    <glyph glyph-name="z" unicode="z" horiz-adv-x="501" 
d="M40 0v86l301 348h-291v86h411v-86l-301 -348h301v-86h-421z" />
    <glyph glyph-name="braceleft" unicode="{" horiz-adv-x="306" 
d="M184 -130q-38 0 -66 23t-28 72v270l-45 71l45 73v271q0 49 28 72t66 23h77v-87h-35q-35 0 -35 -33v-251l-48 -68l48 -66v-250q0 -33 35 -33h35v-87h-77z" />
    <glyph glyph-name="bar" unicode="|" horiz-adv-x="238" 
d="M75 -190v990h88v-990h-88z" />
    <glyph glyph-name="braceright" unicode="}" horiz-adv-x="306" 
d="M122 -130h-77v87h35q35 0 35 33v250l48 66l-48 68v251q0 33 -35 33h-35v87h77q38 0 66 -23t28 -72v-271l45 -73l-45 -71v-270q0 -49 -28 -72t-66 -23z" />
    <glyph glyph-name="asciitilde" unicode="~" horiz-adv-x="540" 
d="M373 211q-30 0 -59.5 14t-48.5 31.5t-44 31.5t-48 14q-26 0 -40.5 -16t-14.5 -37h-62q-2 51 29.5 83t80.5 32q38 0 73.5 -22.5t67 -45t59.5 -22.5q27 0 41.5 15.5t14.5 37.5h62q1 -52 -30.5 -84t-80.5 -32z" />
    <glyph glyph-name="uni00A0" unicode="&#xa0;" horiz-adv-x="230" 
 />
    <glyph glyph-name="exclamdown" unicode="&#xa1;" horiz-adv-x="245" 
d="M83 308h79l12 -488h-103zM56 464q0 28 19.5 47t46.5 19q28 0 47.5 -19t19.5 -47q0 -27 -19.5 -46.5t-47.5 -19.5q-27 0 -46.5 19.5t-19.5 46.5z" />
    <glyph glyph-name="cent" unicode="&#xa2;" horiz-adv-x="542" 
d="M257 -40v106q-98 9 -162 75.5t-64 187.5t64.5 188t161.5 76v107h41v-106q50 -2 92 -18t78 -60.5t44 -112.5h-92q-18 100 -122 107v-361q104 9 122 109h92q-11 -100 -72 -144.5t-142 -48.5v-105h-41zM126 329q0 -77 35 -123.5t96 -54.5v357q-61 -9 -96 -56t-35 -123z" />
    <glyph glyph-name="sterling" unicode="&#xa3;" horiz-adv-x="556" 
d="M47 55q96 94 96 183q0 28 -9 54h-88v58h62q0 1 -8.5 16.5t-9.5 18t-7.5 17t-8.5 20t-6 18.5t-5.5 21.5t-3 21t-1.5 24.5q0 91 64 145.5t162 54.5t162 -55.5t64 -152.5v-19h-96v16q0 55 -33.5 89.5t-95.5 34.5q-61 0 -95 -32.5t-34 -84.5q0 -20 6 -41.5t12.5 -35.5
t19.5 -39.5t18 -36.5h127v-58h-106q5 -22 5 -42q0 -90 -93 -172q42 16 88.5 15.5t83 -9t86 -9.5t99.5 12v-87q-54 -13 -110.5 -9.5t-99 14t-97.5 9t-107 -23.5z" />
    <glyph glyph-name="currency" unicode="&#xa4;" horiz-adv-x="576" 
d="M287 252q-72 0 -130 41l-41 -41l-66 64l45 45q-32 53 -32 115q0 64 33 117l-46 46l66 65l44 -44q58 40 127 40q70 0 129 -40l44 44l66 -65l-47 -47q32 -54 32 -116q0 -61 -31 -114l46 -46l-66 -64l-42 42q-60 -42 -131 -42zM147 476q0 -52 38 -96t102 -44t102.5 44
t38.5 96q0 51 -38.5 95.5t-102.5 44.5q-63 0 -101.5 -44.5t-38.5 -95.5z" />
    <glyph glyph-name="yen" unicode="&#xa5;" horiz-adv-x="669" 
d="M154 215v55h126l-254 430h117l191 -331l192 331h117l-254 -430h127v-55h-128v-46h128v-54h-128v-115h-107v115h-127v54h127v46h-127z" />
    <glyph glyph-name="brokenbar" unicode="&#xa6;" horiz-adv-x="238" 
d="M75 480v320h88v-320h-88zM75 -190v320h88v-320h-88z" />
    <glyph glyph-name="section" unicode="&#xa7;" horiz-adv-x="654" 
d="M323 -236q-124 0 -193.5 56.5t-79.5 158.5h112q19 -121 162 -121q78 0 118 28t40 78q0 51 -30 76.5t-91 39.5l-98 21q-94 21 -144 65.5t-50 126.5q0 71 48 118q-38 43 -38 110q0 85 65.5 136t182.5 51q112 0 178 -48.5t77 -140.5h-111q-14 95 -144 95q-71 0 -104 -27
t-33 -69q0 -38 23.5 -63t78.5 -37l97 -22q109 -23 162 -71t53 -135q0 -68 -44 -117q34 -45 34 -110q0 -98 -73.5 -148.5t-197.5 -50.5zM180 290q0 -79 102 -100l89 -20q62 -13 103 -41q18 26 18 61q0 51 -29.5 76.5t-89.5 39.5l-90 20q-50 11 -77 31q-26 -27 -26 -67z" />
    <glyph glyph-name="dieresis" unicode="&#xa8;" horiz-adv-x="325" 
d="M265 610q-24 0 -42 17.5t-18 41.5t18 41.5t42 17.5t42 -17.5t18 -41.5t-18 -41.5t-42 -17.5zM0 669q0 24 18 41.5t42 17.5t42 -17.5t18 -41.5t-18 -41.5t-42 -17.5t-42 17.5t-18 41.5z" />
    <glyph glyph-name="copyright" unicode="&#xa9;" horiz-adv-x="796" 
d="M398 -7q-150 0 -253.5 101.5t-103.5 255.5q0 153 104 254.5t253 101.5t253 -101.5t104 -254.5q0 -154 -103.5 -255.5t-253.5 -101.5zM102 350q0 -129 85.5 -213t210.5 -84q124 0 209.5 84t85.5 213q0 128 -85.5 212t-209.5 84q-125 0 -210.5 -84t-85.5 -212zM201 350
q0 95 57.5 150.5t141.5 55.5q59 0 107.5 -30.5t66.5 -101.5h-66q-10 35 -39.5 52.5t-68.5 17.5q-59 0 -96 -37.5t-37 -106.5t37 -107t96 -38q87 0 110 72h65q-17 -71 -66.5 -102.5t-108.5 -31.5q-84 0 -141.5 56t-57.5 151z" />
    <glyph glyph-name="ordfeminine" unicode="&#xaa;" horiz-adv-x="375" 
d="M138 379q-47 0 -77 23.5t-30 71.5q0 85 113 94l109 9q0 43 -15.5 61t-55.5 18q-71 0 -71 -51h-62q1 106 134 106q77 0 106.5 -36t29.5 -114v-180h-57l-3 57q-16 -25 -48 -42t-73 -17zM101 481q0 -45 59 -45q38 0 62.5 17.5t30.5 39.5v41l-96 -7q-56 -5 -56 -46z" />
    <glyph glyph-name="guillemotleft" unicode="&#xab;" horiz-adv-x="422" 
d="M382 127l-156 130v82l156 130v-94l-90 -77l90 -77v-94zM40 257v82l156 130v-94l-91 -77l91 -77v-94z" />
    <glyph glyph-name="logicalnot" unicode="&#xac;" horiz-adv-x="522" 
d="M365 123v109h-309v80h410v-189h-101z" />
    <glyph glyph-name="uni00AD" unicode="&#xad;" horiz-adv-x="366" 
d="M40 240v77h286v-77h-286z" />
    <glyph glyph-name="registered" unicode="&#xae;" horiz-adv-x="796" 
d="M398 -7q-150 0 -253.5 101.5t-103.5 255.5q0 153 104 254.5t253 101.5t253 -101.5t104 -254.5q0 -154 -103.5 -255.5t-253.5 -101.5zM102 350q0 -129 85.5 -213t210.5 -84q124 0 209.5 84t85.5 213q0 128 -85.5 212t-209.5 84q-125 0 -210.5 -84t-85.5 -212zM253 169v362
h180q64 0 100.5 -32t35.5 -87q-2 -89 -86 -112l88 -131h-69l-83 125h-101v-125h-65zM318 346h109q40 0 60 18t20 49q0 29 -20 47t-60 18h-109v-132z" />
    <glyph glyph-name="macron" unicode="&#xaf;" horiz-adv-x="306" 
d="M0 654v61h306v-61h-306z" />
    <glyph glyph-name="degree" unicode="&#xb0;" horiz-adv-x="367" 
d="M183 422q-63 0 -105 42.5t-42 104.5t42 104.5t105 42.5t105.5 -42t42.5 -105t-42.5 -105t-105.5 -42zM106 569q0 -33 21 -55t56 -22t56.5 22t21.5 55t-21.5 55t-56.5 22t-56 -22t-21 -55z" />
    <glyph glyph-name="plusminus" unicode="&#xb1;" horiz-adv-x="563" 
d="M234 167v180h-178v88h178v178h94v-178h179v-88h-179v-180h-94zM110 0v78h343v-78h-343z" />
    <glyph glyph-name="uni00B2" unicode="&#xb2;" horiz-adv-x="257" 
d="M40 448q0 40 15.5 67.5t57.5 52.5q3 2 11.5 7t11 6.5t9 6t8 6.5t5.5 6.5t5.5 8t2.5 8.5t1 11q0 18 -12 28.5t-30 10.5q-19 0 -31 -11.5t-12 -33.5v-7h-42v7q0 37 22 60t63 23t63.5 -21.5t22.5 -55.5q0 -30 -19 -49.5t-59 -42.5q-46 -27 -46 -55v-3h125v-38h-172v8z" />
    <glyph glyph-name="uni00B3" unicode="&#xb3;" horiz-adv-x="271" 
d="M135 436q-46 0 -70.5 23t-24.5 62h40q1 -50 56 -50q54 0 54 45t-60 45h-11v31h11q25 0 37 12.5t12 28.5q0 17 -11.5 27t-32.5 10q-48 0 -48 -47h-38q0 39 23.5 60.5t63.5 21.5q39 0 61 -19.5t22 -49.5q0 -22 -13 -37t-32 -20q21 -3 39 -19.5t18 -45.5q0 -35 -25.5 -56.5
t-70.5 -21.5z" />
    <glyph glyph-name="acute" unicode="&#xb4;" horiz-adv-x="192" 
d="M0 581l102 134h90l-102 -134h-90z" />
    <glyph glyph-name="uni00B5" unicode="&#xb5;" 
d="M56 -190v710h101v-301q0 -144 122 -144q63 0 101 37.5t38 106.5v301h101v-520h-101v90q-13 -39 -51.5 -69.5t-100.5 -30.5q-76 0 -109 51v-231h-101z" />
    <glyph glyph-name="paragraph" unicode="&#xb6;" horiz-adv-x="626" 
d="M308 -220v521h-62q-100 0 -157.5 57t-57.5 142q0 86 57.5 143t157.5 57h324v-920h-83v857h-89v-857h-90z" />
    <glyph glyph-name="periodcentered" unicode="&#xb7;" horiz-adv-x="225" 
d="M112 214q-27 0 -46.5 19t-19.5 47q0 27 19.5 46.5t46.5 19.5q28 0 47.5 -19.5t19.5 -46.5q0 -28 -19.5 -47t-47.5 -19z" />
    <glyph glyph-name="cedilla" unicode="&#xb8;" horiz-adv-x="174" 
d="M27 -177q75 -2 75 43q0 25 -22.5 34t-49.5 -5l-30 37l58 68h72l-48 -51q3 1 11 1q34 0 57.5 -23t23.5 -61q0 -51 -42 -74.5t-105 -23.5v55z" />
    <glyph glyph-name="uni00B9" unicode="&#xb9;" horiz-adv-x="180" 
d="M95 645q-15 -27 -55 -20v39q18 -1 33.5 10t21.5 26h40v-261h-40v206z" />
    <glyph glyph-name="ordmasculine" unicode="&#xba;" horiz-adv-x="389" 
d="M194 379q-67 0 -115 45t-48 122q0 76 48 120.5t115 44.5t115.5 -44.5t48.5 -120.5q0 -77 -48.5 -122t-115.5 -45zM98 546q0 -46 27.5 -74t68.5 -28q42 0 69.5 27.5t27.5 74.5q0 46 -27.5 73t-69.5 27t-69 -27t-27 -73z" />
    <glyph glyph-name="guillemotright" unicode="&#xbb;" horiz-adv-x="413" 
d="M36 127v94l90 77l-90 77v94l156 -130v-82zM222 127v94l91 77l-91 77v94l156 -130v-82z" />
    <glyph glyph-name="onequarter" unicode="&#xbc;" horiz-adv-x="594" 
d="M95 645q-15 -27 -55 -20v39q18 -1 33.5 10t21.5 26h40v-261h-40v206zM43 0l437 700h53l-436 -700h-54zM360 66v33l118 162h41v-162h30v-33h-30v-66h-41v66h-118zM397 99h81v112z" />
    <glyph glyph-name="onehalf" unicode="&#xbd;" horiz-adv-x="588" 
d="M96 645q-15 -27 -55 -20v39q18 -1 33.5 10t21.5 26h40v-261h-40v206zM52 0l437 700h53l-436 -700h-54zM370 0v8q0 40 15.5 67.5t57.5 52.5q3 2 11.5 7t11 6.5t9 6t8 6.5t5.5 6.5t5.5 8t2.5 8.5t1 11q0 18 -12 28.5t-30 10.5q-19 0 -31 -11.5t-12 -33.5v-7h-42v7
q0 37 22 60t63 23t63.5 -21.5t22.5 -55.5q0 -30 -19 -49.5t-59 -42.5q-46 -27 -46 -55v-3h125v-38h-172z" />
    <glyph glyph-name="threequarters" unicode="&#xbe;" horiz-adv-x="613" 
d="M135 436q-46 0 -70.5 23t-24.5 62h40q1 -50 56 -50q54 0 54 45t-60 45h-11v31h11q25 0 37 12.5t12 28.5q0 17 -11.5 27t-32.5 10q-48 0 -48 -47h-38q0 39 23.5 60.5t63.5 21.5q39 0 61 -19.5t22 -49.5q0 -22 -13 -37t-32 -20q21 -3 39 -19.5t18 -45.5q0 -35 -25.5 -56.5
t-70.5 -21.5zM70 0l437 700h53l-436 -700h-54zM381 66v33l118 162h41v-162h30v-33h-30v-66h-41v66h-118zM418 99h81v112z" />
    <glyph glyph-name="questiondown" unicode="&#xbf;" horiz-adv-x="537" 
d="M313 277q0 -39 -12.5 -70.5t-31 -49.5t-40 -36t-40 -32t-31 -35t-12.5 -47q0 -49 31 -78t87 -29q61 0 94 37.5t33 105.5h101q1 -114 -62 -172t-166 -58q-97 0 -158 51.5t-61 142.5q0 36 12 64.5t30 45t38.5 33.5t38.5 31.5t30 39.5t12 56v37h107v-37zM193 464
q0 28 19.5 47t47.5 19q27 0 46.5 -19t19.5 -47q0 -27 -19.5 -46.5t-46.5 -19.5q-28 0 -47.5 19.5t-19.5 46.5z" />
    <glyph glyph-name="Agrave" unicode="&#xc0;" horiz-adv-x="698" 
d="M21 0l263 700h130l263 -700h-109l-59 161h-320l-59 -161h-109zM215 895h90l102 -134h-90zM218 240h262l-128 351h-6z" />
    <glyph glyph-name="Aacute" unicode="&#xc1;" horiz-adv-x="698" 
d="M21 0l263 700h130l263 -700h-109l-59 161h-320l-59 -161h-109zM218 240h262l-128 351h-6zM301 761l102 134h90l-102 -134h-90z" />
    <glyph glyph-name="Acircumflex" unicode="&#xc2;" horiz-adv-x="698" 
d="M21 0l263 700h130l263 -700h-109l-59 161h-320l-59 -161h-109zM179 763l100 132h138l100 -132h-92l-77 103l-77 -103h-92zM218 240h262l-128 351h-6z" />
    <glyph glyph-name="Atilde" unicode="&#xc3;" horiz-adv-x="698" 
d="M21 0l263 700h130l263 -700h-109l-59 161h-320l-59 -161h-109zM187 804q0 49 24 75.5t66 26.5q31 0 55 -16t42.5 -32t36.5 -16q17 0 28 11.5t11 27.5h63q0 -49 -24 -75.5t-67 -26.5q-31 0 -55 16t-42 32t-36 16q-17 0 -28.5 -11.5t-11.5 -27.5h-62zM218 240h262l-128 351
h-6z" />
    <glyph glyph-name="Adieresis" unicode="&#xc4;" horiz-adv-x="698" 
d="M21 0l263 700h130l263 -700h-109l-59 161h-320l-59 -161h-109zM186 849q0 24 18 41.5t42 17.5t42 -17.5t18 -41.5t-18 -41.5t-42 -17.5t-42 17.5t-18 41.5zM218 240h262l-128 351h-6zM391 849q0 24 18 41.5t42 17.5t42 -17.5t18 -41.5t-18 -41.5t-42 -17.5t-42 17.5
t-18 41.5z" />
    <glyph glyph-name="Aring" unicode="&#xc5;" horiz-adv-x="698" 
d="M21 0l263 700h130l263 -700h-109l-59 161h-320l-59 -161h-109zM218 240h262l-128 351h-6zM257 837q0 38 26.5 64t66.5 26t66.5 -26t26.5 -64t-26.5 -64t-66.5 -26t-66.5 26t-26.5 64zM308 837q0 -19 12 -31t30 -12t30 12t12 31q0 18 -12 30t-30 12t-30 -12t-12 -30z" />
    <glyph glyph-name="AE" unicode="&#xc6;" horiz-adv-x="993" 
d="M21 0l454 700h477v-91h-351v-210h321v-83h-321v-225h361v-91h-465v163h-260l-105 -163h-111zM289 243h208v324z" />
    <glyph glyph-name="Ccedilla" unicode="&#xc7;" horiz-adv-x="670" 
d="M298 -177q75 -2 75 43q0 25 -22.5 34t-49.5 -5l-30 37l51 60q-130 12 -205.5 105t-75.5 253q0 171 87 265t234 94q113 0 188 -57.5t90 -168.5h-102q-16 67 -63 101.5t-116 34.5q-100 0 -156.5 -71.5t-56.5 -197.5q0 -127 56 -198.5t157 -71.5q69 0 116 34.5t63 102.5h102
q-14 -104 -80 -161t-167 -65l-40 -42q3 1 11 1q34 0 57.5 -23t23.5 -61q0 -51 -42 -74.5t-105 -23.5v55z" />
    <glyph glyph-name="Egrave" unicode="&#xc8;" horiz-adv-x="552" 
d="M56 0v700h455v-91h-351v-210h321v-83h-321v-225h361v-91h-465zM154 895h90l102 -134h-90z" />
    <glyph glyph-name="Eacute" unicode="&#xc9;" horiz-adv-x="552" 
d="M56 0v700h455v-91h-351v-210h321v-83h-321v-225h361v-91h-465zM240 761l102 134h90l-102 -134h-90z" />
    <glyph glyph-name="Ecircumflex" unicode="&#xca;" horiz-adv-x="552" 
d="M56 0v700h455v-91h-351v-210h321v-83h-321v-225h361v-91h-465zM118 763l100 132h138l100 -132h-92l-77 103l-77 -103h-92z" />
    <glyph glyph-name="Edieresis" unicode="&#xcb;" horiz-adv-x="552" 
d="M56 0v700h455v-91h-351v-210h321v-83h-321v-225h361v-91h-465zM125 849q0 24 18 41.5t42 17.5t42 -17.5t18 -41.5t-18 -41.5t-42 -17.5t-42 17.5t-18 41.5zM330 849q0 24 18 41.5t42 17.5t42 -17.5t18 -41.5t-18 -41.5t-42 -17.5t-42 17.5t-18 41.5z" />
    <glyph glyph-name="Igrave" unicode="&#xcc;" horiz-adv-x="215" 
d="M56 0v700h104v-700h-104zM-27 895h90l102 -134h-90z" />
    <glyph glyph-name="Iacute" unicode="&#xcd;" horiz-adv-x="215" 
d="M56 0v700h104v-700h-104zM59 761l102 134h90l-102 -134h-90z" />
    <glyph glyph-name="Icircumflex" unicode="&#xce;" horiz-adv-x="215" 
d="M56 0v700h104v-700h-104zM-63 763l100 132h138l100 -132h-92l-77 103l-77 -103h-92z" />
    <glyph glyph-name="Idieresis" unicode="&#xcf;" horiz-adv-x="215" 
d="M56 0v700h104v-700h-104zM-56 849q0 24 18 41.5t42 17.5t42 -17.5t18 -41.5t-18 -41.5t-42 -17.5t-42 17.5t-18 41.5zM149 849q0 24 18 41.5t42 17.5t42 -17.5t18 -41.5t-18 -41.5t-42 -17.5t-42 17.5t-18 41.5z" />
    <glyph glyph-name="Eth" unicode="&#xd0;" horiz-adv-x="693" 
d="M83 0v308h-63v77h63v315h239q164 0 247.5 -90t83.5 -260t-83.5 -260t-247.5 -90h-239zM187 91h125q123 0 179 63t56 196q0 134 -56 196.5t-179 62.5h-125v-224h119v-77h-119v-217z" />
    <glyph glyph-name="Ntilde" unicode="&#xd1;" horiz-adv-x="673" 
d="M56 0v700h112l342 -537h3v537h104v-700h-116l-339 532h-2v-532h-104zM174 804q0 49 24 75.5t66 26.5q31 0 55 -16t42.5 -32t36.5 -16q17 0 28 11.5t11 27.5h63q0 -49 -24 -75.5t-67 -26.5q-31 0 -55 16t-42 32t-36 16q-17 0 -28.5 -11.5t-11.5 -27.5h-62z" />
    <glyph glyph-name="Ograve" unicode="&#xd2;" horiz-adv-x="727" 
d="M364 -10q-144 0 -233.5 96.5t-89.5 263.5t89.5 263t233.5 96t233 -96t89 -263t-89 -263.5t-233 -96.5zM147 350q0 -128 59 -199t158 -71q98 0 157 71t59 199t-59 198.5t-157 70.5q-99 0 -158 -70.5t-59 -198.5zM229 895h90l102 -134h-90z" />
    <glyph glyph-name="Oacute" unicode="&#xd3;" horiz-adv-x="727" 
d="M364 -10q-144 0 -233.5 96.5t-89.5 263.5t89.5 263t233.5 96t233 -96t89 -263t-89 -263.5t-233 -96.5zM147 350q0 -128 59 -199t158 -71q98 0 157 71t59 199t-59 198.5t-157 70.5q-99 0 -158 -70.5t-59 -198.5zM316 761l102 134h90l-102 -134h-90z" />
    <glyph glyph-name="Ocircumflex" unicode="&#xd4;" horiz-adv-x="727" 
d="M364 -10q-144 0 -233.5 96.5t-89.5 263.5t89.5 263t233.5 96t233 -96t89 -263t-89 -263.5t-233 -96.5zM147 350q0 -128 59 -199t158 -71q98 0 157 71t59 199t-59 198.5t-157 70.5q-99 0 -158 -70.5t-59 -198.5zM194 763l100 132h138l100 -132h-92l-77 103l-77 -103h-92z
" />
    <glyph glyph-name="Otilde" unicode="&#xd5;" horiz-adv-x="727" 
d="M364 -10q-144 0 -233.5 96.5t-89.5 263.5t89.5 263t233.5 96t233 -96t89 -263t-89 -263.5t-233 -96.5zM147 350q0 -128 59 -199t158 -71q98 0 157 71t59 199t-59 198.5t-157 70.5q-99 0 -158 -70.5t-59 -198.5zM201 804q0 49 24 75.5t66 26.5q31 0 55 -16t42.5 -32
t36.5 -16q17 0 28 11.5t11 27.5h63q0 -49 -24 -75.5t-67 -26.5q-31 0 -55 16t-42 32t-36 16q-17 0 -28.5 -11.5t-11.5 -27.5h-62z" />
    <glyph glyph-name="Odieresis" unicode="&#xd6;" horiz-adv-x="727" 
d="M364 -10q-144 0 -233.5 96.5t-89.5 263.5t89.5 263t233.5 96t233 -96t89 -263t-89 -263.5t-233 -96.5zM147 350q0 -128 59 -199t158 -71q98 0 157 71t59 199t-59 198.5t-157 70.5q-99 0 -158 -70.5t-59 -198.5zM200 849q0 24 18 41.5t42 17.5t42 -17.5t18 -41.5
t-18 -41.5t-42 -17.5t-42 17.5t-18 41.5zM405 849q0 24 18 41.5t42 17.5t42 -17.5t18 -41.5t-18 -41.5t-42 -17.5t-42 17.5t-18 41.5z" />
    <glyph glyph-name="multiply" unicode="&#xd7;" horiz-adv-x="481" 
d="M113 60l-63 62l129 129l-129 128l63 62l128 -128l128 128l62 -62l-128 -128l128 -129l-62 -62l-128 128z" />
    <glyph glyph-name="Oslash" unicode="&#xd8;" horiz-adv-x="727" 
d="M118 -50l51 101q-128 97 -128 299q0 167 89.5 263t233.5 96q70 0 128 -24l30 60h87l-50 -98q127 -96 127 -297q0 -167 -89 -263.5t-233 -96.5q-69 0 -127 23l-32 -63h-87zM147 350q0 -136 68 -209l235 461q-40 17 -86 17q-99 0 -158 -70.5t-59 -198.5zM279 96
q38 -16 85 -16q98 0 157 71t59 199q0 135 -66 207z" />
    <glyph glyph-name="Ugrave" unicode="&#xd9;" horiz-adv-x="662" 
d="M331 -10q-128 0 -201.5 71t-73.5 204v435h104v-428q0 -92 45 -141.5t126 -49.5t126 49.5t45 141.5v428h105v-435q0 -132 -74.5 -203.5t-201.5 -71.5zM191 895h90l102 -134h-90z" />
    <glyph glyph-name="Uacute" unicode="&#xda;" horiz-adv-x="662" 
d="M331 -10q-128 0 -201.5 71t-73.5 204v435h104v-428q0 -92 45 -141.5t126 -49.5t126 49.5t45 141.5v428h105v-435q0 -132 -74.5 -203.5t-201.5 -71.5zM277 761l102 134h90l-102 -134h-90z" />
    <glyph glyph-name="Ucircumflex" unicode="&#xdb;" horiz-adv-x="662" 
d="M331 -10q-128 0 -201.5 71t-73.5 204v435h104v-428q0 -92 45 -141.5t126 -49.5t126 49.5t45 141.5v428h105v-435q0 -132 -74.5 -203.5t-201.5 -71.5zM155 763l100 132h138l100 -132h-92l-77 103l-77 -103h-92z" />
    <glyph glyph-name="Udieresis" unicode="&#xdc;" horiz-adv-x="662" 
d="M331 -10q-128 0 -201.5 71t-73.5 204v435h104v-428q0 -92 45 -141.5t126 -49.5t126 49.5t45 141.5v428h105v-435q0 -132 -74.5 -203.5t-201.5 -71.5zM168 849q0 24 18 41.5t42 17.5t42 -17.5t18 -41.5t-18 -41.5t-42 -17.5t-42 17.5t-18 41.5zM373 849q0 24 18 41.5
t42 17.5t42 -17.5t18 -41.5t-18 -41.5t-42 -17.5t-42 17.5t-18 41.5z" />
    <glyph glyph-name="Yacute" unicode="&#xdd;" horiz-adv-x="669" 
d="M281 0v268l-255 432h117l191 -331l192 331h117l-255 -432v-268h-107zM286 761l102 134h90l-102 -134h-90z" />
    <glyph glyph-name="Thorn" unicode="&#xde;" horiz-adv-x="604" 
d="M56 0v700h104v-129h160q125 0 189 -59t64 -162t-64 -162t-189 -59h-160v-129h-104zM160 221h156q75 0 113 33.5t38 95.5q0 63 -38 96.5t-113 33.5h-156v-259z" />
    <glyph glyph-name="germandbls" unicode="&#xdf;" horiz-adv-x="591" 
d="M56 499q0 210 231 210q108 0 169 -43.5t61 -130.5q0 -60 -30 -97.5t-77 -45.5q68 -11 109.5 -58.5t41.5 -127.5q0 -100 -66.5 -153t-200.5 -53h-54v88h52q168 0 168 127q0 68 -47.5 99t-126.5 31h-46v79h46q130 0 130 97q0 101 -128 101q-67 0 -99 -30t-32 -93v-499h-101
v499z" />
    <glyph glyph-name="agrave" unicode="&#xe0;" horiz-adv-x="546" 
d="M205 -10q-78 0 -126 36t-48 110q0 132 166 152l129 15q64 8 64 31v14q0 59 -28.5 82t-87.5 23t-88 -20t-29 -68v-12h-97v21q0 156 216 156q111 0 163 -43.5t52 -137.5v-349h-95v84h-4q-6 -11 -16.5 -23.5t-32 -30t-57.5 -29t-81 -11.5zM132 141q0 -72 98 -72q76 0 118 38
t42 86v57q-11 -17 -71 -24l-98 -13q-48 -6 -68.5 -23.5t-20.5 -48.5zM138 715h90l102 -134h-90z" />
    <glyph glyph-name="aacute" unicode="&#xe1;" horiz-adv-x="546" 
d="M205 -10q-78 0 -126 36t-48 110q0 132 166 152l129 15q64 8 64 31v14q0 59 -28.5 82t-87.5 23t-88 -20t-29 -68v-12h-97v21q0 156 216 156q111 0 163 -43.5t52 -137.5v-349h-95v84h-4q-6 -11 -16.5 -23.5t-32 -30t-57.5 -29t-81 -11.5zM132 141q0 -72 98 -72q76 0 118 38
t42 86v57q-11 -17 -71 -24l-98 -13q-48 -6 -68.5 -23.5t-20.5 -48.5zM224 581l102 134h90l-102 -134h-90z" />
    <glyph glyph-name="acircumflex" unicode="&#xe2;" horiz-adv-x="546" 
d="M205 -10q-78 0 -126 36t-48 110q0 132 166 152l129 15q64 8 64 31v14q0 59 -28.5 82t-87.5 23t-88 -20t-29 -68v-12h-97v21q0 156 216 156q111 0 163 -43.5t52 -137.5v-349h-95v84h-4q-6 -11 -16.5 -23.5t-32 -30t-57.5 -29t-81 -11.5zM102 583l100 132h138l100 -132h-92
l-77 103l-77 -103h-92zM132 141q0 -72 98 -72q76 0 118 38t42 86v57q-11 -17 -71 -24l-98 -13q-48 -6 -68.5 -23.5t-20.5 -48.5z" />
    <glyph glyph-name="atilde" unicode="&#xe3;" horiz-adv-x="546" 
d="M205 -10q-78 0 -126 36t-48 110q0 132 166 152l129 15q64 8 64 31v14q0 59 -28.5 82t-87.5 23t-88 -20t-29 -68v-12h-97v21q0 156 216 156q111 0 163 -43.5t52 -137.5v-349h-95v84h-4q-6 -11 -16.5 -23.5t-32 -30t-57.5 -29t-81 -11.5zM109 624q0 49 24 75.5t66 26.5
q31 0 55 -16t42.5 -32t36.5 -16q17 0 28 11.5t11 27.5h63q0 -49 -24 -75.5t-67 -26.5q-31 0 -55 16t-42 32t-36 16q-17 0 -28.5 -11.5t-11.5 -27.5h-62zM132 141q0 -72 98 -72q76 0 118 38t42 86v57q-11 -17 -71 -24l-98 -13q-48 -6 -68.5 -23.5t-20.5 -48.5z" />
    <glyph glyph-name="adieresis" unicode="&#xe4;" horiz-adv-x="546" 
d="M205 -10q-78 0 -126 36t-48 110q0 132 166 152l129 15q64 8 64 31v14q0 59 -28.5 82t-87.5 23t-88 -20t-29 -68v-12h-97v21q0 156 216 156q111 0 163 -43.5t52 -137.5v-349h-95v84h-4q-6 -11 -16.5 -23.5t-32 -30t-57.5 -29t-81 -11.5zM108 669q0 24 18 41.5t42 17.5
t42 -17.5t18 -41.5t-18 -41.5t-42 -17.5t-42 17.5t-18 41.5zM132 141q0 -72 98 -72q76 0 118 38t42 86v57q-11 -17 -71 -24l-98 -13q-48 -6 -68.5 -23.5t-20.5 -48.5zM313 669q0 24 18 41.5t42 17.5t42 -17.5t18 -41.5t-18 -41.5t-42 -17.5t-42 17.5t-18 41.5z" />
    <glyph glyph-name="aring" unicode="&#xe5;" horiz-adv-x="546" 
d="M205 -10q-78 0 -126 36t-48 110q0 132 166 152l129 15q64 8 64 31v14q0 59 -28.5 82t-87.5 23t-88 -20t-29 -68v-12h-97v21q0 156 216 156q111 0 163 -43.5t52 -137.5v-349h-95v84h-4q-6 -11 -16.5 -23.5t-32 -30t-57.5 -29t-81 -11.5zM132 141q0 -72 98 -72q76 0 118 38
t42 86v57q-11 -17 -71 -24l-98 -13q-48 -6 -68.5 -23.5t-20.5 -48.5zM179 657q0 38 26.5 64t66.5 26t66.5 -26t26.5 -64t-26.5 -64t-66.5 -26t-66.5 26t-26.5 64zM230 657q0 -19 12 -31t30 -12t30 12t12 31q0 18 -12 30t-30 12t-30 -12t-12 -30z" />
    <glyph glyph-name="ae" unicode="&#xe6;" horiz-adv-x="901" 
d="M208 -10q-81 0 -129 38t-48 113q0 76 51 113.5t138 37.5h164v69q0 91 -114 91t-114 -83v-11h-92v21q0 74 54.5 112.5t155.5 38.5q69 0 111.5 -21.5t61.5 -74.5q59 96 186 96q106 0 171.5 -66t65.5 -197q0 -23 -3 -39h-386q2 -78 43.5 -118.5t113.5 -40.5q105 0 135 84h90
q-22 -83 -82 -123t-144 -40q-154 0 -204 124q-25 -52 -83.5 -88t-141.5 -36zM132 147q0 -38 27 -59.5t76 -21.5q70 0 109.5 39.5t39.5 82.5v43h-139q-58 0 -85.5 -23.5t-27.5 -60.5zM482 304h292q-2 69 -39 108t-103 39q-64 0 -103.5 -37t-46.5 -110z" />
    <glyph glyph-name="ccedilla" unicode="&#xe7;" horiz-adv-x="542" 
d="M219 -177q75 -2 75 43q0 25 -22.5 34t-49.5 -5l-30 37l52 61q-93 12 -153 79.5t-60 186.5q0 133 73.5 202t180.5 69q38 0 72.5 -9t68 -30t56.5 -61t30 -95h-92q-19 109 -136 109q-72 0 -115 -49t-43 -136t43 -135t115 -48q117 0 136 111h92q-5 -51 -24.5 -89t-48 -59.5
t-59.5 -33t-66 -14.5l-40 -42q3 1 11 1q34 0 57.5 -23t23.5 -61q0 -51 -42 -74.5t-105 -23.5v55z" />
    <glyph glyph-name="egrave" unicode="&#xe8;" horiz-adv-x="547" 
d="M283 -10q-112 0 -182 67.5t-70 201.5q0 136 70 203.5t178 67.5q106 0 171.5 -66t65.5 -197q0 -23 -3 -39h-385q12 -159 156 -159q105 0 135 84h90q-22 -83 -82 -123t-144 -40zM129 304h291q-2 69 -39 108t-103 39q-64 0 -103 -37t-46 -110zM141 715h90l102 -134h-90z" />
    <glyph glyph-name="eacute" unicode="&#xe9;" horiz-adv-x="547" 
d="M283 -10q-112 0 -182 67.5t-70 201.5q0 136 70 203.5t178 67.5q106 0 171.5 -66t65.5 -197q0 -23 -3 -39h-385q12 -159 156 -159q105 0 135 84h90q-22 -83 -82 -123t-144 -40zM129 304h291q-2 69 -39 108t-103 39q-64 0 -103 -37t-46 -110zM227 581l102 134h90l-102 -134
h-90z" />
    <glyph glyph-name="ecircumflex" unicode="&#xea;" horiz-adv-x="547" 
d="M283 -10q-112 0 -182 67.5t-70 201.5q0 136 70 203.5t178 67.5q106 0 171.5 -66t65.5 -197q0 -23 -3 -39h-385q12 -159 156 -159q105 0 135 84h90q-22 -83 -82 -123t-144 -40zM105 583l100 132h138l100 -132h-92l-77 103l-77 -103h-92zM129 304h291q-2 69 -39 108
t-103 39q-64 0 -103 -37t-46 -110z" />
    <glyph glyph-name="edieresis" unicode="&#xeb;" horiz-adv-x="547" 
d="M283 -10q-112 0 -182 67.5t-70 201.5q0 136 70 203.5t178 67.5q106 0 171.5 -66t65.5 -197q0 -23 -3 -39h-385q12 -159 156 -159q105 0 135 84h90q-22 -83 -82 -123t-144 -40zM111 669q0 24 18 41.5t42 17.5t42 -17.5t18 -41.5t-18 -41.5t-42 -17.5t-42 17.5t-18 41.5z
M129 304h291q-2 69 -39 108t-103 39q-64 0 -103 -37t-46 -110zM316 669q0 24 18 41.5t42 17.5t42 -17.5t18 -41.5t-18 -41.5t-42 -17.5t-42 17.5t-18 41.5z" />
    <glyph glyph-name="igrave" unicode="&#xec;" horiz-adv-x="194" 
d="M46 0v520h101v-520h-101zM-37 715h90l102 -134h-90z" />
    <glyph glyph-name="iacute" unicode="&#xed;" horiz-adv-x="194" 
d="M46 0v520h101v-520h-101zM49 581l102 134h90l-102 -134h-90z" />
    <glyph glyph-name="icircumflex" unicode="&#xee;" horiz-adv-x="194" 
d="M46 0v520h101v-520h-101zM-73 583l100 132h138l100 -132h-92l-77 103l-77 -103h-92z" />
    <glyph glyph-name="idieresis" unicode="&#xef;" horiz-adv-x="194" 
d="M46 0v520h101v-520h-101zM-67 669q0 24 18 41.5t42 17.5t42 -17.5t18 -41.5t-18 -41.5t-42 -17.5t-42 17.5t-18 41.5zM138 669q0 24 18 41.5t42 17.5t42 -17.5t18 -41.5t-18 -41.5t-42 -17.5t-42 17.5t-18 41.5z" />
    <glyph glyph-name="eth" unicode="&#xf0;" horiz-adv-x="579" 
d="M277 -10q-105 0 -175.5 70t-70.5 201q0 122 63 190.5t168 68.5q73 0 121 -41q-39 68 -79 121h-119v49h79q-15 17 -47 51h104l41 -51h137v-49h-100q74 -99 99.5 -167.5t25.5 -162.5q0 -137 -70.5 -208.5t-176.5 -71.5zM131 261q0 -92 42 -137.5t105 -45.5t104 45.5
t41 137.5q0 87 -39 129.5t-106 42.5q-68 0 -107.5 -42.5t-39.5 -129.5z" />
    <glyph glyph-name="ntilde" unicode="&#xf1;" 
d="M418 301q0 144 -122 144q-63 0 -101 -38t-38 -106v-301h-101v520h101v-104h3q9 39 53.5 76.5t121.5 37.5q82 0 133 -50.5t51 -155.5v-324h-101v301zM126 624q0 49 24 75.5t66 26.5q31 0 55 -16t42.5 -32t36.5 -16q17 0 28 11.5t11 27.5h63q0 -49 -24 -75.5t-67 -26.5
q-31 0 -55 16t-42 32t-36 16q-17 0 -28.5 -11.5t-11.5 -27.5h-62z" />
    <glyph glyph-name="ograve" unicode="&#xf2;" horiz-adv-x="569" 
d="M284 -10q-105 0 -179 69.5t-74 200.5t74 200.5t179 69.5q106 0 180 -69.5t74 -200.5t-74 -200.5t-180 -69.5zM127 260q0 -91 44.5 -138t112.5 -47t113 47t45 138t-45 138t-113 47t-112.5 -47t-44.5 -138zM150 715h90l102 -134h-90z" />
    <glyph glyph-name="oacute" unicode="&#xf3;" horiz-adv-x="569" 
d="M284 -10q-105 0 -179 69.5t-74 200.5t74 200.5t179 69.5q106 0 180 -69.5t74 -200.5t-74 -200.5t-180 -69.5zM127 260q0 -91 44.5 -138t112.5 -47t113 47t45 138t-45 138t-113 47t-112.5 -47t-44.5 -138zM236 581l102 134h90l-102 -134h-90z" />
    <glyph glyph-name="ocircumflex" unicode="&#xf4;" horiz-adv-x="569" 
d="M284 -10q-105 0 -179 69.5t-74 200.5t74 200.5t179 69.5q106 0 180 -69.5t74 -200.5t-74 -200.5t-180 -69.5zM114 583l100 132h138l100 -132h-92l-77 103l-77 -103h-92zM127 260q0 -91 44.5 -138t112.5 -47t113 47t45 138t-45 138t-113 47t-112.5 -47t-44.5 -138z" />
    <glyph glyph-name="otilde" unicode="&#xf5;" horiz-adv-x="569" 
d="M284 -10q-105 0 -179 69.5t-74 200.5t74 200.5t179 69.5q106 0 180 -69.5t74 -200.5t-74 -200.5t-180 -69.5zM122 624q0 49 24 75.5t66 26.5q31 0 55 -16t42.5 -32t36.5 -16q17 0 28 11.5t11 27.5h63q0 -49 -24 -75.5t-67 -26.5q-31 0 -55 16t-42 32t-36 16
q-17 0 -28.5 -11.5t-11.5 -27.5h-62zM127 260q0 -91 44.5 -138t112.5 -47t113 47t45 138t-45 138t-113 47t-112.5 -47t-44.5 -138z" />
    <glyph glyph-name="odieresis" unicode="&#xf6;" horiz-adv-x="569" 
d="M284 -10q-105 0 -179 69.5t-74 200.5t74 200.5t179 69.5q106 0 180 -69.5t74 -200.5t-74 -200.5t-180 -69.5zM121 669q0 24 18 41.5t42 17.5t42 -17.5t18 -41.5t-18 -41.5t-42 -17.5t-42 17.5t-18 41.5zM127 260q0 -91 44.5 -138t112.5 -47t113 47t45 138t-45 138
t-113 47t-112.5 -47t-44.5 -138zM326 669q0 24 18 41.5t42 17.5t42 -17.5t18 -41.5t-18 -41.5t-42 -17.5t-42 17.5t-18 41.5z" />
    <glyph glyph-name="divide" unicode="&#xf7;" horiz-adv-x="421" 
d="M211 394q-19 0 -32.5 13.5t-13.5 33.5q0 19 13.5 32.5t32.5 13.5t32.5 -13.5t13.5 -32.5t-13.5 -33t-32.5 -14zM56 240v77h309v-77h-309zM165 117q0 19 13.5 32.5t32.5 13.5t32.5 -13.5t13.5 -32.5t-13.5 -33t-32.5 -14t-32.5 13.5t-13.5 33.5z" />
    <glyph glyph-name="oslash" unicode="&#xf8;" horiz-adv-x="569" 
d="M94 -50l41 84q-104 73 -104 226q0 131 74 200.5t179 69.5q47 0 86 -13l30 61h76l-44 -91q106 -72 106 -227q0 -131 -74 -200.5t-180 -69.5q-44 0 -88 14l-26 -54h-76zM127 260q0 -93 49 -142l156 320q-21 7 -48 7q-68 0 -112.5 -47t-44.5 -138zM234 82q22 -7 50 -7
q68 0 113 47t45 138q0 95 -51 144z" />
    <glyph glyph-name="ugrave" unicode="&#xf9;" 
d="M157 219q0 -144 122 -144q63 0 101 38t38 106v301h101v-520h-101v104h-3q-9 -39 -53.5 -76.5t-121.5 -37.5q-82 0 -133 50.5t-51 155.5v324h101v-301zM150 715h90l102 -134h-90z" />
    <glyph glyph-name="uacute" unicode="&#xfa;" 
d="M157 219q0 -144 122 -144q63 0 101 38t38 106v301h101v-520h-101v104h-3q-9 -39 -53.5 -76.5t-121.5 -37.5q-82 0 -133 50.5t-51 155.5v324h101v-301zM236 581l102 134h90l-102 -134h-90z" />
    <glyph glyph-name="ucircumflex" unicode="&#xfb;" 
d="M157 219q0 -144 122 -144q63 0 101 38t38 106v301h101v-520h-101v104h-3q-9 -39 -53.5 -76.5t-121.5 -37.5q-82 0 -133 50.5t-51 155.5v324h101v-301zM114 583l100 132h138l100 -132h-92l-77 103l-77 -103h-92z" />
    <glyph glyph-name="udieresis" unicode="&#xfc;" 
d="M157 219q0 -144 122 -144q63 0 101 38t38 106v301h101v-520h-101v104h-3q-9 -39 -53.5 -76.5t-121.5 -37.5q-82 0 -133 50.5t-51 155.5v324h101v-301zM121 669q0 24 18 41.5t42 17.5t42 -17.5t18 -41.5t-18 -41.5t-42 -17.5t-42 17.5t-18 41.5zM326 669q0 24 18 41.5
t42 17.5t42 -17.5t18 -41.5t-18 -41.5t-42 -17.5t-42 17.5t-18 41.5z" />
    <glyph glyph-name="yacute" unicode="&#xfd;" horiz-adv-x="549" 
d="M74 -108q60 -8 91.5 11t48.5 60q14 36 2 69l-195 488h104l149 -397l150 397h104l-220 -550q-40 -100 -93.5 -138t-140.5 -27v87zM227 581l102 134h90l-102 -134h-90z" />
    <glyph glyph-name="thorn" unicode="&#xfe;" horiz-adv-x="594" 
d="M56 -190v890h101v-262q23 43 70 67.5t104 24.5q96 0 164 -68.5t68 -201.5q0 -132 -68 -201t-164 -69q-57 0 -104 24.5t-70 67.5v-272h-101zM152 260q0 -90 46.5 -137.5t111.5 -47.5q66 0 111.5 47.5t45.5 137.5t-45.5 137.5t-111.5 47.5q-65 0 -111.5 -47.5t-46.5 -137.5
z" />
    <glyph glyph-name="ydieresis" unicode="&#xff;" horiz-adv-x="549" 
d="M74 -108q60 -8 91.5 11t48.5 60q14 36 2 69l-195 488h104l149 -397l150 397h104l-220 -550q-40 -100 -93.5 -138t-140.5 -27v87zM112 669q0 24 18 41.5t42 17.5t42 -17.5t18 -41.5t-18 -41.5t-42 -17.5t-42 17.5t-18 41.5zM317 669q0 24 18 41.5t42 17.5t42 -17.5
t18 -41.5t-18 -41.5t-42 -17.5t-42 17.5t-18 41.5z" />
    <glyph glyph-name="Amacron" unicode="&#x100;" horiz-adv-x="698" 
d="M21 0l263 700h130l263 -700h-109l-59 161h-320l-59 -161h-109zM197 834v61h306v-61h-306zM218 240h262l-128 351h-6z" />
    <glyph glyph-name="amacron" unicode="&#x101;" horiz-adv-x="546" 
d="M205 -10q-78 0 -126 36t-48 110q0 132 166 152l129 15q64 8 64 31v14q0 59 -28.5 82t-87.5 23t-88 -20t-29 -68v-12h-97v21q0 156 216 156q111 0 163 -43.5t52 -137.5v-349h-95v84h-4q-6 -11 -16.5 -23.5t-32 -30t-57.5 -29t-81 -11.5zM119 654v61h306v-61h-306zM132 141
q0 -72 98 -72q76 0 118 38t42 86v57q-11 -17 -71 -24l-98 -13q-48 -6 -68.5 -23.5t-20.5 -48.5z" />
    <glyph glyph-name="Abreve" unicode="&#x102;" horiz-adv-x="698" 
d="M21 0l263 700h130l263 -700h-109l-59 161h-320l-59 -161h-109zM202 895h68q3 -75 79 -75t79 75h68q0 -61 -37 -98.5t-110 -37.5t-110 37.5t-37 98.5zM218 240h262l-128 351h-6z" />
    <glyph glyph-name="abreve" unicode="&#x103;" horiz-adv-x="546" 
d="M205 -10q-78 0 -126 36t-48 110q0 132 166 152l129 15q64 8 64 31v14q0 59 -28.5 82t-87.5 23t-88 -20t-29 -68v-12h-97v21q0 156 216 156q111 0 163 -43.5t52 -137.5v-349h-95v84h-4q-6 -11 -16.5 -23.5t-32 -30t-57.5 -29t-81 -11.5zM125 715h68q3 -75 79 -75t79 75h68
q0 -61 -37 -98.5t-110 -37.5t-110 37.5t-37 98.5zM132 141q0 -72 98 -72q76 0 118 38t42 86v57q-11 -17 -71 -24l-98 -13q-48 -6 -68.5 -23.5t-20.5 -48.5z" />
    <glyph glyph-name="Aogonek" unicode="&#x104;" horiz-adv-x="698" 
d="M21 0l263 700h130l263 -699l1 -1q-59 0 -90 -22.5t-31 -56.5q0 -30 23 -44t59 -6v-58q-51 -15 -105 10t-54 87q0 40 22.5 68t58.5 41l-52 142h-320l-59 -161h-109zM218 240h262l-128 351h-6z" />
    <glyph glyph-name="aogonek" unicode="&#x105;" horiz-adv-x="546" 
d="M205 -10q-78 0 -126 36t-48 110q0 132 166 152l129 15q64 8 64 31v14q0 59 -28.5 82t-87.5 23t-88 -20t-29 -68v-12h-97v21q0 156 216 156q111 0 163 -43.5t52 -137.5v-349h-1q-59 0 -90 -22.5t-31 -56.5q0 -30 23 -44t59 -6v-58q-51 -15 -105 10t-54 87q0 47 30.5 77
t73.5 38v59h-4q-6 -11 -16.5 -23.5t-32 -30t-57.5 -29t-81 -11.5zM132 141q0 -72 98 -72q76 0 118 38t42 86v57q-11 -17 -71 -24l-98 -13q-48 -6 -68.5 -23.5t-20.5 -48.5z" />
    <glyph glyph-name="Cacute" unicode="&#x106;" horiz-adv-x="670" 
d="M361 -10q-146 0 -233 94t-87 266q0 171 87 265t234 94q113 0 188 -57.5t90 -168.5h-102q-16 67 -63 101.5t-116 34.5q-100 0 -156.5 -71.5t-56.5 -197.5q0 -127 56 -198.5t157 -71.5q69 0 116 34.5t63 102.5h102q-15 -112 -90 -169.5t-189 -57.5zM315 761l102 134h90
l-102 -134h-90z" />
    <glyph glyph-name="cacute" unicode="&#x107;" horiz-adv-x="542" 
d="M285 -10q-107 0 -180.5 68t-73.5 201t73.5 202t180.5 69q38 0 72.5 -9t68 -30t56.5 -61t30 -95h-92q-19 109 -136 109q-72 0 -115 -49t-43 -136t43 -135t115 -48q117 0 136 111h92q-6 -56 -29 -96.5t-56.5 -61.5t-68.5 -30t-73 -9zM231 581l102 134h90l-102 -134h-90z
" />
    <glyph glyph-name="Ccircumflex" unicode="&#x108;" horiz-adv-x="670" 
d="M361 -10q-146 0 -233 94t-87 266q0 171 87 265t234 94q113 0 188 -57.5t90 -168.5h-102q-16 67 -63 101.5t-116 34.5q-100 0 -156.5 -71.5t-56.5 -197.5q0 -127 56 -198.5t157 -71.5q69 0 116 34.5t63 102.5h102q-15 -112 -90 -169.5t-189 -57.5zM194 763l100 132h138
l100 -132h-92l-77 103l-77 -103h-92z" />
    <glyph glyph-name="ccircumflex" unicode="&#x109;" horiz-adv-x="542" 
d="M285 -10q-107 0 -180.5 68t-73.5 201t73.5 202t180.5 69q38 0 72.5 -9t68 -30t56.5 -61t30 -95h-92q-19 109 -136 109q-72 0 -115 -49t-43 -136t43 -135t115 -48q117 0 136 111h92q-6 -56 -29 -96.5t-56.5 -61.5t-68.5 -30t-73 -9zM109 583l100 132h138l100 -132h-92
l-77 103l-77 -103h-92z" />
    <glyph glyph-name="Cdotaccent" unicode="&#x10a;" horiz-adv-x="670" 
d="M361 -10q-146 0 -233 94t-87 266q0 171 87 265t234 94q113 0 188 -57.5t90 -168.5h-102q-16 67 -63 101.5t-116 34.5q-100 0 -156.5 -71.5t-56.5 -197.5q0 -127 56 -198.5t157 -71.5q69 0 116 34.5t63 102.5h102q-15 -112 -90 -169.5t-189 -57.5zM304 849q0 24 18 41.5
t42 17.5t42 -17.5t18 -41.5t-18 -41.5t-42 -17.5t-42 17.5t-18 41.5z" />
    <glyph glyph-name="cdotaccent" unicode="&#x10b;" horiz-adv-x="542" 
d="M285 -10q-107 0 -180.5 68t-73.5 201t73.5 202t180.5 69q38 0 72.5 -9t68 -30t56.5 -61t30 -95h-92q-19 109 -136 109q-72 0 -115 -49t-43 -136t43 -135t115 -48q117 0 136 111h92q-6 -56 -29 -96.5t-56.5 -61.5t-68.5 -30t-73 -9zM220 669q0 24 18 41.5t42 17.5
t42 -17.5t18 -41.5t-18 -41.5t-42 -17.5t-42 17.5t-18 41.5z" />
    <glyph glyph-name="Ccaron" unicode="&#x10c;" horiz-adv-x="670" 
d="M361 -10q-146 0 -233 94t-87 266q0 171 87 265t234 94q113 0 188 -57.5t90 -168.5h-102q-16 67 -63 101.5t-116 34.5q-100 0 -156.5 -71.5t-56.5 -197.5q0 -127 56 -198.5t157 -71.5q69 0 116 34.5t63 102.5h102q-15 -112 -90 -169.5t-189 -57.5zM188 894h92l77 -103
l77 103h92l-100 -132h-138z" />
    <glyph glyph-name="ccaron" unicode="&#x10d;" horiz-adv-x="542" 
d="M285 -10q-107 0 -180.5 68t-73.5 201t73.5 202t180.5 69q38 0 72.5 -9t68 -30t56.5 -61t30 -95h-92q-19 109 -136 109q-72 0 -115 -49t-43 -136t43 -135t115 -48q117 0 136 111h92q-6 -56 -29 -96.5t-56.5 -61.5t-68.5 -30t-73 -9zM104 714h92l77 -103l77 103h92
l-100 -132h-138z" />
    <glyph glyph-name="Dcaron" unicode="&#x10e;" horiz-adv-x="666" 
d="M56 0v700h239q163 0 247 -90t84 -260t-84 -260t-247 -90h-239zM157 894h92l77 -103l77 103h92l-100 -132h-138zM160 91h125q123 0 179 63t56 196q0 134 -56 196.5t-179 62.5h-125v-518z" />
    <glyph glyph-name="dcaron" unicode="&#x10f;" horiz-adv-x="622" 
d="M263 -10q-96 0 -164 69t-68 201q0 133 68 201.5t164 68.5q58 0 104.5 -24.5t69.5 -67.5v262h101v-700h-101v82q-23 -43 -69.5 -67.5t-104.5 -24.5zM127 260q0 -90 45.5 -137.5t111.5 -47.5q65 0 111.5 47.5t46.5 137.5t-46.5 137.5t-111.5 47.5q-66 0 -111.5 -47.5
t-45.5 -137.5zM567 566l102 134h90l-102 -134h-90z" />
    <glyph glyph-name="Dcroat" unicode="&#x110;" horiz-adv-x="693" 
d="M83 0v308h-63v77h63v315h239q164 0 247.5 -90t83.5 -260t-83.5 -260t-247.5 -90h-239zM187 91h125q123 0 179 63t56 196q0 134 -56 196.5t-179 62.5h-125v-224h119v-77h-119v-217z" />
    <glyph glyph-name="dcroat" unicode="&#x111;" horiz-adv-x="627" 
d="M286 600v49h151v51h101v-51h62v-49h-62v-600h-101v82q-23 -43 -69.5 -67.5t-104.5 -24.5q-96 0 -164 69t-68 201q0 133 68 201.5t164 68.5q58 0 104.5 -24.5t69.5 -67.5v162h-151zM127 260q0 -90 45.5 -137.5t111.5 -47.5q65 0 111.5 47.5t46.5 137.5t-46.5 137.5
t-111.5 47.5q-66 0 -111.5 -47.5t-45.5 -137.5z" />
    <glyph glyph-name="Emacron" unicode="&#x112;" horiz-adv-x="552" 
d="M56 0v700h455v-91h-351v-210h321v-83h-321v-225h361v-91h-465zM135 834v61h306v-61h-306z" />
    <glyph glyph-name="emacron" unicode="&#x113;" horiz-adv-x="547" 
d="M283 -10q-112 0 -182 67.5t-70 201.5q0 136 70 203.5t178 67.5q106 0 171.5 -66t65.5 -197q0 -23 -3 -39h-385q12 -159 156 -159q105 0 135 84h90q-22 -83 -82 -123t-144 -40zM122 654v61h306v-61h-306zM129 304h291q-2 69 -39 108t-103 39q-64 0 -103 -37t-46 -110z" />
    <glyph glyph-name="Edotaccent" unicode="&#x116;" horiz-adv-x="552" 
d="M56 0v700h455v-91h-351v-210h321v-83h-321v-225h361v-91h-465zM229 849q0 24 18 41.5t42 17.5t42 -17.5t18 -41.5t-18 -41.5t-42 -17.5t-42 17.5t-18 41.5z" />
    <glyph glyph-name="edotaccent" unicode="&#x117;" horiz-adv-x="547" 
d="M283 -10q-112 0 -182 67.5t-70 201.5q0 136 70 203.5t178 67.5q106 0 171.5 -66t65.5 -197q0 -23 -3 -39h-385q12 -159 156 -159q105 0 135 84h90q-22 -83 -82 -123t-144 -40zM129 304h291q-2 69 -39 108t-103 39q-64 0 -103 -37t-46 -110zM216 669q0 24 18 41.5t42 17.5
t42 -17.5t18 -41.5t-18 -41.5t-42 -17.5t-42 17.5t-18 41.5z" />
    <glyph glyph-name="Eogonek" unicode="&#x118;" horiz-adv-x="552" 
d="M56 0v700h455v-91h-351v-210h321v-83h-321v-225h361v-91h1q-59 0 -90 -22.5t-31 -56.5q0 -30 23 -44t59 -6v-58q-51 -15 -105 10t-54 87q0 56 46 90h-314z" />
    <glyph glyph-name="eogonek" unicode="&#x119;" horiz-adv-x="547" 
d="M359 -187q-51 -15 -105 10t-54 87q0 49 37 83q-94 13 -150 80t-56 186q0 136 70 203.5t178 67.5q106 0 171.5 -66t65.5 -197q0 -23 -3 -39h-385q12 -159 156 -159q105 0 135 84h90q-34 -127 -157 -155l1 -2q-37 -8 -56.5 -28t-19.5 -47q0 -30 23 -44t59 -6v-58zM129 304
h291q-2 69 -39 108t-103 39q-64 0 -103 -37t-46 -110z" />
    <glyph glyph-name="Ecaron" unicode="&#x11a;" horiz-adv-x="552" 
d="M56 0v700h455v-91h-351v-210h321v-83h-321v-225h361v-91h-465zM113 894h92l77 -103l77 103h92l-100 -132h-138z" />
    <glyph glyph-name="ecaron" unicode="&#x11b;" horiz-adv-x="547" 
d="M283 -10q-112 0 -182 67.5t-70 201.5q0 136 70 203.5t178 67.5q106 0 171.5 -66t65.5 -197q0 -23 -3 -39h-385q12 -159 156 -159q105 0 135 84h90q-22 -83 -82 -123t-144 -40zM100 714h92l77 -103l77 103h92l-100 -132h-138zM129 304h291q-2 69 -39 108t-103 39
q-64 0 -103 -37t-46 -110z" />
    <glyph glyph-name="Gcircumflex" unicode="&#x11c;" horiz-adv-x="702" 
d="M361 -10q-150 0 -235 93.5t-85 264.5q0 173 86.5 267t232.5 94q108 0 182.5 -52t93.5 -150h-103q-36 112 -173 112q-104 0 -159.5 -70.5t-55.5 -197.5q0 -128 56.5 -199.5t160.5 -71.5q86 0 139 50.5t52 152.5h-162v84h265v-56q0 -156 -77.5 -238.5t-217.5 -82.5z
M189 763l100 132h138l100 -132h-92l-77 103l-77 -103h-92z" />
    <glyph glyph-name="gcircumflex" unicode="&#x11d;" horiz-adv-x="588" 
d="M277 -209q-58 0 -106.5 13.5t-86.5 53t-38 101.5h89q2 -42 42 -65.5t98 -23.5q69 0 112.5 35t43.5 106v87h-2q-24 -40 -70.5 -63t-101.5 -23q-95 0 -160.5 65t-65.5 194t66 194t160 65q55 0 101.5 -23t70.5 -63h2v76h101v-509q0 -51 -16.5 -91t-42 -64t-60 -39
t-67.5 -20.5t-69 -5.5zM117 583l100 132h138l100 -132h-92l-77 103l-77 -103h-92zM126 271q0 -85 45 -130t110 -45t110 45.5t45 129.5t-45 129t-110 45t-110 -44.5t-45 -129.5z" />
    <glyph glyph-name="Gbreve" unicode="&#x11e;" horiz-adv-x="702" 
d="M361 -10q-150 0 -235 93.5t-85 264.5q0 173 86.5 267t232.5 94q108 0 182.5 -52t93.5 -150h-103q-36 112 -173 112q-104 0 -159.5 -70.5t-55.5 -197.5q0 -128 56.5 -199.5t160.5 -71.5q86 0 139 50.5t52 152.5h-162v84h265v-56q0 -156 -77.5 -238.5t-217.5 -82.5z
M212 895h68q3 -75 79 -75t79 75h68q0 -61 -37 -98.5t-110 -37.5t-110 37.5t-37 98.5z" />
    <glyph glyph-name="gbreve" unicode="&#x11f;" horiz-adv-x="588" 
d="M277 -209q-58 0 -106.5 13.5t-86.5 53t-38 101.5h89q2 -42 42 -65.5t98 -23.5q69 0 112.5 35t43.5 106v87h-2q-24 -40 -70.5 -63t-101.5 -23q-95 0 -160.5 65t-65.5 194t66 194t160 65q55 0 101.5 -23t70.5 -63h2v76h101v-509q0 -51 -16.5 -91t-42 -64t-60 -39
t-67.5 -20.5t-69 -5.5zM126 271q0 -85 45 -130t110 -45t110 45.5t45 129.5t-45 129t-110 45t-110 -44.5t-45 -129.5zM140 715h68q3 -75 79 -75t79 75h68q0 -61 -37 -98.5t-110 -37.5t-110 37.5t-37 98.5z" />
    <glyph glyph-name="Gdotaccent" unicode="&#x120;" horiz-adv-x="702" 
d="M361 -10q-150 0 -235 93.5t-85 264.5q0 173 86.5 267t232.5 94q108 0 182.5 -52t93.5 -150h-103q-36 112 -173 112q-104 0 -159.5 -70.5t-55.5 -197.5q0 -128 56.5 -199.5t160.5 -71.5q86 0 139 50.5t52 152.5h-162v84h265v-56q0 -156 -77.5 -238.5t-217.5 -82.5z
M300 849q0 24 18 41.5t42 17.5t42 -17.5t18 -41.5t-18 -41.5t-42 -17.5t-42 17.5t-18 41.5z" />
    <glyph glyph-name="gdotaccent" unicode="&#x121;" horiz-adv-x="588" 
d="M277 -209q-58 0 -106.5 13.5t-86.5 53t-38 101.5h89q2 -42 42 -65.5t98 -23.5q69 0 112.5 35t43.5 106v87h-2q-24 -40 -70.5 -63t-101.5 -23q-95 0 -160.5 65t-65.5 194t66 194t160 65q55 0 101.5 -23t70.5 -63h2v76h101v-509q0 -51 -16.5 -91t-42 -64t-60 -39
t-67.5 -20.5t-69 -5.5zM126 271q0 -85 45 -130t110 -45t110 45.5t45 129.5t-45 129t-110 45t-110 -44.5t-45 -129.5zM228 669q0 24 18 41.5t42 17.5t42 -17.5t18 -41.5t-18 -41.5t-42 -17.5t-42 17.5t-18 41.5z" />
    <glyph glyph-name="uni0122" unicode="&#x122;" horiz-adv-x="702" 
d="M361 -10q-150 0 -235 93.5t-85 264.5q0 173 86.5 267t232.5 94q108 0 182.5 -52t93.5 -150h-103q-36 112 -173 112q-104 0 -159.5 -70.5t-55.5 -197.5q0 -128 56.5 -199.5t160.5 -71.5q86 0 139 50.5t52 152.5h-162v84h265v-56q0 -156 -77.5 -238.5t-217.5 -82.5z
M297 -89q0 27 18.5 45t46.5 18q34 0 55 -25.5t21 -76.5q0 -62 -32 -97.5t-85 -35.5h-8v45q34 1 49 16t15 44q-37 0 -58.5 19t-21.5 48z" />
    <glyph glyph-name="uni0123" unicode="&#x123;" horiz-adv-x="588" 
d="M277 -209q-58 0 -106.5 13.5t-86.5 53t-38 101.5h89q2 -42 42 -65.5t98 -23.5q69 0 112.5 35t43.5 106v87h-2q-24 -40 -70.5 -63t-101.5 -23q-95 0 -160.5 65t-65.5 194t66 194t160 65q55 0 101.5 -23t70.5 -63h2v76h101v-509q0 -51 -16.5 -91t-42 -64t-60 -39
t-67.5 -20.5t-69 -5.5zM126 271q0 -85 45 -130t110 -45t110 45.5t45 129.5t-45 129t-110 45t-110 -44.5t-45 -129.5zM201 670q0 62 32 97.5t85 35.5h8v-45q-34 -1 -49 -16t-15 -44q37 0 58.5 -19t21.5 -48q0 -27 -18.5 -45t-46.5 -18q-34 0 -55 25.5t-21 76.5z" />
    <glyph glyph-name="Hcircumflex" unicode="&#x124;" horiz-adv-x="658" 
d="M499 0v302h-339v-302h-104v700h104v-312h339v312h103v-700h-103zM160 763l100 132h138l100 -132h-92l-77 103l-77 -103h-92z" />
    <glyph glyph-name="hcircumflex" unicode="&#x125;" 
d="M418 301q0 144 -122 144q-63 0 -101 -38t-38 -106v-301h-101v700h101v-284h3q9 39 53.5 76.5t121.5 37.5q82 0 133 -50.5t51 -155.5v-324h-101v301zM-64 763l100 132h138l100 -132h-92l-77 103l-77 -103h-92z" />
    <glyph glyph-name="Hbar" unicode="&#x126;" horiz-adv-x="658" 
d="M499 0v302h-339v-302h-104v700h104v-142h339v142h103v-700h-103zM160 388h339v84h-339v-84z" />
    <glyph glyph-name="hbar" unicode="&#x127;" 
d="M-9 600v49h65v51h101v-51h148v-49h-148v-184h3q9 39 53.5 76.5t121.5 37.5q82 0 133 -50.5t51 -155.5v-324h-101v301q0 144 -122 144q-63 0 -101 -38t-38 -106v-301h-101v600h-65z" />
    <glyph glyph-name="Itilde" unicode="&#x128;" horiz-adv-x="215" 
d="M56 0v700h104v-700h-104zM-56 804q0 49 24 75.5t67 26.5q31 0 55 -16t42.5 -32t36.5 -16q17 0 28 11.5t11 27.5h63q0 -49 -24 -75.5t-67 -26.5q-31 0 -55 16t-42 32t-36 16q-17 0 -28.5 -11.5t-11.5 -27.5h-63z" />
    <glyph glyph-name="itilde" unicode="&#x129;" horiz-adv-x="194" 
d="M46 0v520h101v-520h-101zM-66 624q0 49 24 75.5t66 26.5q31 0 55 -16t42.5 -32t36.5 -16q17 0 28 11.5t11 27.5h63q0 -49 -24 -75.5t-67 -26.5q-31 0 -55 16t-42 32t-36 16q-17 0 -28.5 -11.5t-11.5 -27.5h-62z" />
    <glyph glyph-name="Imacron" unicode="&#x12a;" horiz-adv-x="215" 
d="M56 0v700h104v-700h-104zM-46 834v61h307v-61h-307z" />
    <glyph glyph-name="imacron" unicode="&#x12b;" horiz-adv-x="194" 
d="M46 0v520h101v-520h-101zM-56 654v61h306v-61h-306z" />
    <glyph glyph-name="Iogonek" unicode="&#x12e;" horiz-adv-x="215" 
d="M121 -187q-51 -15 -105 10t-54 87q0 43 27 72.5t67 40.5v677h104v-700q-59 0 -90 -22.5t-31 -56.5q0 -30 23 -44t59 -6v-58z" />
    <glyph glyph-name="iogonek" unicode="&#x12f;" horiz-adv-x="194" 
d="M98 610q-24 0 -42 17.5t-18 41.5t18 41.5t42 17.5t42 -17.5t18 -41.5t-18 -41.5t-42 -17.5zM-50 -90q0 44 27.5 73.5t68.5 40.5v496h101v-520h1q-59 0 -90 -22.5t-31 -56.5q0 -30 23 -44t59 -6v-58q-51 -15 -105 10t-54 87z" />
    <glyph glyph-name="Idotaccent" unicode="&#x130;" horiz-adv-x="215" 
d="M56 0v700h104v-700h-104zM48 849q0 24 18 41.5t42 17.5t42 -17.5t18 -41.5t-18 -41.5t-42 -17.5t-42 17.5t-18 41.5z" />
    <glyph glyph-name="dotlessi" unicode="&#x131;" horiz-adv-x="194" 
d="M46 0v520h101v-520h-101z" />
    <glyph glyph-name="IJ" unicode="&#x132;" horiz-adv-x="872" 
d="M56 0v700h104v-700h-104zM271 262h104q0 -87 44.5 -134t123.5 -47q80 0 124.5 48.5t44.5 142.5v428h104v-436q0 -132 -73.5 -203t-200.5 -71q-126 0 -198.5 70.5t-72.5 201.5z" />
    <glyph glyph-name="ij" unicode="&#x133;" horiz-adv-x="431" 
d="M56 0v520h101v-520h-101zM46 670q0 25 18 42.5t42 17.5t42 -17.5t18 -42.5t-18 -42.5t-42 -17.5t-42 17.5t-18 42.5zM164 -187v79h39q39 0 55.5 17.5t16.5 56.5v554h101v-571q0 -139 -147 -139q-42 0 -65 3zM265 670q0 25 18 42.5t42 17.5t42 -17.5t18 -42.5t-18 -42.5
t-42 -17.5t-42 17.5t-18 42.5z" />
    <glyph glyph-name="Jcircumflex" unicode="&#x134;" horiz-adv-x="656" 
d="M327 -10q-126 0 -198.5 70.5t-72.5 201.5h104q0 -87 44.5 -134t123.5 -47q80 0 124.5 48.5t44.5 142.5v428h104v-436q0 -132 -73.5 -203t-200.5 -71zM382 763l100 132h138l100 -132h-92l-77 103l-77 -103h-92z" />
    <glyph glyph-name="jcircumflex" unicode="&#x135;" horiz-adv-x="219" 
d="M26 -190q-42 0 -65 3v79h39q39 0 55.5 17.5t16.5 56.5v554h101v-571q0 -139 -147 -139zM-48 583l100 132h138l100 -132h-92l-77 103l-77 -103h-92z" />
    <glyph glyph-name="uni0136" unicode="&#x136;" horiz-adv-x="656" 
d="M56 0v700h104v-371l326 371h124l-282 -319l307 -381h-121l-251 307l-103 -116v-191h-104zM264 -89q0 27 18.5 45t46.5 18q34 0 55 -25.5t21 -76.5q0 -62 -32 -97.5t-85 -35.5h-8v45q34 1 49 16t15 44q-37 0 -58.5 19t-21.5 48z" />
    <glyph glyph-name="uni0137" unicode="&#x137;" horiz-adv-x="554" 
d="M56 0v700h101v-441l244 261h114l-217 -224l245 -296h-113l-195 231l-78 -80v-151h-101zM219 -89q0 27 18.5 45t46.5 18q34 0 55 -25.5t21 -76.5q0 -62 -32 -97.5t-85 -35.5h-8v45q34 1 49 16t15 44q-37 0 -58.5 19t-21.5 48z" />
    <glyph glyph-name="Lacute" unicode="&#x139;" horiz-adv-x="537" 
d="M56 0v700h104v-609h347v-91h-451zM58 761l102 134h90l-102 -134h-90z" />
    <glyph glyph-name="lacute" unicode="&#x13a;" horiz-adv-x="213" 
d="M56 0v700h101v-700h-101zM58 761l102 134h90l-102 -134h-90z" />
    <glyph glyph-name="uni013B" unicode="&#x13b;" horiz-adv-x="537" 
d="M56 0v700h104v-609h347v-91h-451zM212 -94q0 27 18.5 45t46.5 18q34 0 55 -25.5t21 -76.5q0 -62 -32 -97.5t-85 -35.5h-8v45q34 1 49 16t15 44q-37 0 -58.5 19t-21.5 48z" />
    <glyph glyph-name="uni013C" unicode="&#x13c;" horiz-adv-x="213" 
d="M56 0v700h101v-700h-101zM39 -89q0 27 18.5 45t46.5 18q34 0 55 -25.5t21 -76.5q0 -62 -32 -97.5t-85 -35.5h-8v45q34 1 49 16t15 44q-37 0 -58.5 19t-21.5 48z" />
    <glyph glyph-name="Lcaron" unicode="&#x13d;" horiz-adv-x="537" 
d="M56 0v700h104v-609h347v-91h-451zM264 647q0 27 18.5 45t46.5 18q34 0 55 -25.5t21 -76.5q0 -62 -32 -97.5t-85 -35.5h-8v45q34 1 49 16t15 44q-37 0 -58.5 19t-21.5 48z" />
    <glyph glyph-name="lcaron" unicode="&#x13e;" horiz-adv-x="255" 
d="M201 440l41 260h83l-41 -260h-83zM56 0v700h101v-700h-101z" />
    <glyph glyph-name="Lslash" unicode="&#x141;" horiz-adv-x="565" 
d="M16 155v105l68 72v368h104v-259l102 108h1v-104l-103 -109v-245h347v-91h-451v227z" />
    <glyph glyph-name="lslash" unicode="&#x142;" horiz-adv-x="235" 
d="M5 163v99l63 80v358h101v-230l60 76h1v-99l-61 -77v-370h-101v243z" />
    <glyph glyph-name="Nacute" unicode="&#x143;" horiz-adv-x="673" 
d="M56 0v700h112l342 -537h3v537h104v-700h-116l-339 532h-2v-532h-104zM289 761l102 134h90l-102 -134h-90z" />
    <glyph glyph-name="nacute" unicode="&#x144;" 
d="M418 301q0 144 -122 144q-63 0 -101 -38t-38 -106v-301h-101v520h101v-104h3q9 39 53.5 76.5t121.5 37.5q82 0 133 -50.5t51 -155.5v-324h-101v301zM241 581l102 134h90l-102 -134h-90z" />
    <glyph glyph-name="uni0145" unicode="&#x145;" horiz-adv-x="673" 
d="M56 0v700h112l342 -537h3v537h104v-700h-116l-339 532h-2v-532h-104zM270 -89q0 27 18.5 45t46.5 18q34 0 55 -25.5t21 -76.5q0 -62 -32 -97.5t-85 -35.5h-8v45q34 1 49 16t15 44q-37 0 -58.5 19t-21.5 48z" />
    <glyph glyph-name="uni0146" unicode="&#x146;" 
d="M418 301q0 144 -122 144q-63 0 -101 -38t-38 -106v-301h-101v520h101v-104h3q9 39 53.5 76.5t121.5 37.5q82 0 133 -50.5t51 -155.5v-324h-101v301zM222 -89q0 27 18.5 45t46.5 18q34 0 55 -25.5t21 -76.5q0 -62 -32 -97.5t-85 -35.5h-8v45q34 1 49 16t15 44
q-37 0 -58.5 19t-21.5 48z" />
    <glyph glyph-name="Ncaron" unicode="&#x147;" horiz-adv-x="673" 
d="M56 0v700h112l342 -537h3v537h104v-700h-116l-339 532h-2v-532h-104zM162 894h92l77 -103l77 103h92l-100 -132h-138z" />
    <glyph glyph-name="ncaron" unicode="&#x148;" 
d="M418 301q0 144 -122 144q-63 0 -101 -38t-38 -106v-301h-101v520h101v-104h3q9 39 53.5 76.5t121.5 37.5q82 0 133 -50.5t51 -155.5v-324h-101v301zM113 714h92l77 -103l77 103h92l-100 -132h-138z" />
    <glyph glyph-name="Eng" unicode="&#x14a;" horiz-adv-x="673" 
d="M345 -220q-76 0 -125 26v96q56 -31 121 -31q135 0 165 125l-344 534h-2v-530h-104v700h109l345 -536h3v536h104v-645q0 -132 -73.5 -203.5t-198.5 -71.5z" />
    <glyph glyph-name="eng" unicode="&#x14b;" 
d="M381 -220q-60 0 -98 20v84q41 -16 74 -16q61 0 61 71v362q0 144 -122 144q-64 0 -101.5 -37.5t-37.5 -106.5v-301h-101v520h101v-90q17 38 62.5 69t114.5 31q83 0 134 -50.5t51 -155.5v-397q0 -147 -138 -147z" />
    <glyph glyph-name="Omacron" unicode="&#x14c;" horiz-adv-x="727" 
d="M364 -10q-144 0 -233.5 96.5t-89.5 263.5t89.5 263t233.5 96t233 -96t89 -263t-89 -263.5t-233 -96.5zM147 350q0 -128 59 -199t158 -71q98 0 157 71t59 199t-59 198.5t-157 70.5q-99 0 -158 -70.5t-59 -198.5zM211 834v61h306v-61h-306z" />
    <glyph glyph-name="omacron" unicode="&#x14d;" horiz-adv-x="569" 
d="M284 -10q-105 0 -179 69.5t-74 200.5t74 200.5t179 69.5q106 0 180 -69.5t74 -200.5t-74 -200.5t-180 -69.5zM127 260q0 -91 44.5 -138t112.5 -47t113 47t45 138t-45 138t-113 47t-112.5 -47t-44.5 -138zM132 654v61h306v-61h-306z" />
    <glyph glyph-name="Ohungarumlaut" unicode="&#x150;" horiz-adv-x="727" 
d="M364 -10q-144 0 -233.5 96.5t-89.5 263.5t89.5 263t233.5 96t233 -96t89 -263t-89 -263.5t-233 -96.5zM147 350q0 -128 59 -199t158 -71q98 0 157 71t59 199t-59 198.5t-157 70.5q-99 0 -158 -70.5t-59 -198.5zM223 761l102 134h90l-102 -134h-90zM377 761l102 134h90
l-102 -134h-90z" />
    <glyph glyph-name="ohungarumlaut" unicode="&#x151;" horiz-adv-x="569" 
d="M284 -10q-105 0 -179 69.5t-74 200.5t74 200.5t179 69.5q106 0 180 -69.5t74 -200.5t-74 -200.5t-180 -69.5zM127 260q0 -91 44.5 -138t112.5 -47t113 47t45 138t-45 138t-113 47t-112.5 -47t-44.5 -138zM144 581l102 134h90l-102 -134h-90zM298 581l102 134h90
l-102 -134h-90z" />
    <glyph glyph-name="OE" unicode="&#x152;" horiz-adv-x="1078" 
d="M364 -10q-144 0 -233.5 96.5t-89.5 263.5t89.5 263t233.5 96q132 0 218 -81v72h455v-91h-351v-210h321v-83h-321v-225h361v-91h-465v72q-87 -82 -218 -82zM147 350q0 -128 59 -199t158 -71q98 0 157 71t59 199t-59 198.5t-157 70.5q-99 0 -158 -70.5t-59 -198.5z" />
    <glyph glyph-name="oe" unicode="&#x153;" horiz-adv-x="960" 
d="M284 -10q-105 0 -179 69.5t-74 200.5t74 200.5t179 69.5q135 0 205 -99q65 99 203 99q106 0 171.5 -66t65.5 -197q0 -23 -3 -39h-385q12 -159 156 -159q105 0 135 84h90q-22 -83 -82 -123t-144 -40q-141 0 -207 99q-70 -99 -205 -99zM127 260q0 -91 44.5 -138t112.5 -47
t113 47t45 138t-45 138t-113 47t-112.5 -47t-44.5 -138zM542 304h291q-2 69 -39 108t-103 39q-64 0 -103 -37t-46 -110z" />
    <glyph glyph-name="Racute" unicode="&#x154;" horiz-adv-x="635" 
d="M481 0q-10 20 -10 78v87q0 111 -128 111h-183v-276h-104v700h279q121 0 181.5 -54t60.5 -146q0 -132 -116 -175q59 -18 86 -56.5t27 -103.5v-87q0 -58 10 -78h-103zM160 360h170q69 0 105 32.5t36 94.5q0 122 -141 122h-170v-249zM247 761l102 134h90l-102 -134h-90z" />
    <glyph glyph-name="racute" unicode="&#x155;" horiz-adv-x="379" 
d="M56 0v520h101v-120h3q13 52 53 89t106 37q24 0 39 -5v-85q-19 3 -38 3q-74 0 -118.5 -47t-44.5 -132v-260h-101zM155 581l102 134h90l-102 -134h-90z" />
    <glyph glyph-name="uni0156" unicode="&#x156;" horiz-adv-x="635" 
d="M481 0q-10 20 -10 78v87q0 111 -128 111h-183v-276h-104v700h279q121 0 181.5 -54t60.5 -146q0 -132 -116 -175q59 -18 86 -56.5t27 -103.5v-87q0 -58 10 -78h-103zM160 360h170q69 0 105 32.5t36 94.5q0 122 -141 122h-170v-249zM228 -89q0 27 18.5 45t46.5 18
q34 0 55 -25.5t21 -76.5q0 -62 -32 -97.5t-85 -35.5h-8v45q34 1 49 16t15 44q-37 0 -58.5 19t-21.5 48z" />
    <glyph glyph-name="uni0157" unicode="&#x157;" horiz-adv-x="379" 
d="M56 0v520h101v-120h3q13 52 53 89t106 37q24 0 39 -5v-85q-19 3 -38 3q-74 0 -118.5 -47t-44.5 -132v-260h-101zM40 -89q0 27 18.5 45t46.5 18q34 0 55 -25.5t21 -76.5q0 -62 -32 -97.5t-85 -35.5h-8v45q34 1 49 16t15 44q-37 0 -58.5 19t-21.5 48z" />
    <glyph glyph-name="Rcaron" unicode="&#x158;" horiz-adv-x="635" 
d="M481 0q-10 20 -10 78v87q0 111 -128 111h-183v-276h-104v700h279q121 0 181.5 -54t60.5 -146q0 -132 -116 -175q59 -18 86 -56.5t27 -103.5v-87q0 -58 10 -78h-103zM120 894h92l77 -103l77 103h92l-100 -132h-138zM160 360h170q69 0 105 32.5t36 94.5q0 122 -141 122
h-170v-249z" />
    <glyph glyph-name="rcaron" unicode="&#x159;" horiz-adv-x="379" 
d="M56 0v520h101v-120h3q13 52 53 89t106 37q24 0 39 -5v-85q-19 3 -38 3q-74 0 -118.5 -47t-44.5 -132v-260h-101zM28 714h92l77 -103l77 103h92l-100 -132h-138z" />
    <glyph glyph-name="Sacute" unicode="&#x15a;" horiz-adv-x="625" 
d="M316 -10q-131 0 -203 59.5t-72 162.5h106q3 -60 45 -97t125 -37q77 0 117.5 31.5t40.5 86.5q0 49 -32 75t-94 38l-94 19q-194 39 -194 188q0 91 66.5 142t184.5 51q119 0 185.5 -52t66.5 -144h-106q-1 50 -39 79t-109 29q-72 0 -106.5 -29t-34.5 -76q0 -81 113 -104
l90 -18q108 -22 160 -68.5t52 -128.5q0 -100 -72 -153.5t-196 -53.5zM259 761l102 134h90l-102 -134h-90z" />
    <glyph glyph-name="sacute" unicode="&#x15b;" horiz-adv-x="487" 
d="M243 -10q-98 0 -156.5 41.5t-60.5 123.5h91q11 -87 127 -87q51 0 82.5 19.5t31.5 59.5q0 30 -19 45.5t-59 24.5l-97 22q-142 33 -142 143q0 70 55 109t147 39q94 0 147 -41.5t57 -121.5h-85q-12 85 -118 85q-105 0 -105 -68q0 -53 77 -70l98 -22q71 -17 109 -49t38 -94
q0 -81 -62 -120t-156 -39zM195 581l102 134h90l-102 -134h-90z" />
    <glyph glyph-name="Scircumflex" unicode="&#x15c;" horiz-adv-x="625" 
d="M316 -10q-131 0 -203 59.5t-72 162.5h106q3 -60 45 -97t125 -37q77 0 117.5 31.5t40.5 86.5q0 49 -32 75t-94 38l-94 19q-194 39 -194 188q0 91 66.5 142t184.5 51q119 0 185.5 -52t66.5 -144h-106q-1 50 -39 79t-109 29q-72 0 -106.5 -29t-34.5 -76q0 -81 113 -104
l90 -18q108 -22 160 -68.5t52 -128.5q0 -100 -72 -153.5t-196 -53.5zM137 763l100 132h138l100 -132h-92l-77 103l-77 -103h-92z" />
    <glyph glyph-name="scircumflex" unicode="&#x15d;" horiz-adv-x="487" 
d="M243 -10q-98 0 -156.5 41.5t-60.5 123.5h91q11 -87 127 -87q51 0 82.5 19.5t31.5 59.5q0 30 -19 45.5t-59 24.5l-97 22q-142 33 -142 143q0 70 55 109t147 39q94 0 147 -41.5t57 -121.5h-85q-12 85 -118 85q-105 0 -105 -68q0 -53 77 -70l98 -22q71 -17 109 -49t38 -94
q0 -81 -62 -120t-156 -39zM74 583l100 132h138l100 -132h-92l-77 103l-77 -103h-92z" />
    <glyph glyph-name="Scedilla" unicode="&#x15e;" horiz-adv-x="625" 
d="M242 -177q75 -2 75 43q0 25 -22.5 34t-49.5 -5l-30 37l52 60q-108 11 -167 69.5t-59 150.5h106q3 -60 45 -97t125 -37q77 0 117.5 31.5t40.5 86.5q0 49 -32 75t-94 38l-94 19q-194 39 -194 188q0 91 66.5 142t184.5 51q119 0 185.5 -52t66.5 -144h-106q-1 50 -39 79
t-109 29q-72 0 -106.5 -29t-34.5 -76q0 -81 113 -104l90 -18q108 -22 160 -68.5t52 -128.5q0 -96 -66.5 -149t-181.5 -58l-39 -41q3 1 11 1q34 0 57.5 -23t23.5 -61q0 -51 -42 -74.5t-105 -23.5v55z" />
    <glyph glyph-name="scedilla" unicode="&#x15f;" horiz-adv-x="487" 
d="M180 -177q75 -2 75 43q0 25 -22.5 34t-49.5 -5l-30 37l51 60q-81 8 -128.5 49t-49.5 114h91q11 -87 127 -87q51 0 82.5 19.5t31.5 59.5q0 30 -19 45.5t-59 24.5l-97 22q-142 33 -142 143q0 70 55 109t147 39q94 0 147 -41.5t57 -121.5h-85q-12 85 -118 85
q-105 0 -105 -68q0 -53 77 -70l98 -22q71 -17 109 -49t38 -94q0 -74 -52 -112.5t-134 -45.5l-40 -42q3 1 11 1q34 0 57.5 -23t23.5 -61q0 -51 -42 -74.5t-105 -23.5v55z" />
    <glyph glyph-name="Scaron" unicode="&#x160;" horiz-adv-x="625" 
d="M316 -10q-131 0 -203 59.5t-72 162.5h106q3 -60 45 -97t125 -37q77 0 117.5 31.5t40.5 86.5q0 49 -32 75t-94 38l-94 19q-194 39 -194 188q0 91 66.5 142t184.5 51q119 0 185.5 -52t66.5 -144h-106q-1 50 -39 79t-109 29q-72 0 -106.5 -29t-34.5 -76q0 -81 113 -104
l90 -18q108 -22 160 -68.5t52 -128.5q0 -100 -72 -153.5t-196 -53.5zM132 894h92l77 -103l77 103h92l-100 -132h-138z" />
    <glyph glyph-name="scaron" unicode="&#x161;" horiz-adv-x="487" 
d="M243 -10q-98 0 -156.5 41.5t-60.5 123.5h91q11 -87 127 -87q51 0 82.5 19.5t31.5 59.5q0 30 -19 45.5t-59 24.5l-97 22q-142 33 -142 143q0 70 55 109t147 39q94 0 147 -41.5t57 -121.5h-85q-12 85 -118 85q-105 0 -105 -68q0 -53 77 -70l98 -22q71 -17 109 -49t38 -94
q0 -81 -62 -120t-156 -39zM68 714h92l77 -103l77 103h92l-100 -132h-138z" />
    <glyph glyph-name="uni0162" unicode="&#x162;" horiz-adv-x="586" 
d="M241 0v607h-215v93h534v-93h-215v-607h-32l-48 -51q3 1 11 1q34 0 57.5 -23t23.5 -61q0 -51 -42 -74.5t-105 -23.5v55q75 -2 75 43q0 25 -22.5 34t-49.5 -5l-30 37z" />
    <glyph glyph-name="uni0163" unicode="&#x163;" horiz-adv-x="343" 
d="M21 440v80h85v131h101v-131h103v-80h-103v-291q0 -39 16 -56.5t57 -17.5q21 0 37 2v-76q-29 -8 -61 -8l-41 -44q3 1 11 1q34 0 57.5 -23t23.5 -61q0 -51 -42 -74.5t-105 -23.5v55q75 -2 75 43q0 25 -22.5 34t-49.5 -5l-30 37l58 68h3q-88 24 -88 132v308h-85z" />
    <glyph glyph-name="Tcaron" unicode="&#x164;" horiz-adv-x="586" 
d="M241 0v607h-215v93h534v-93h-215v-607h-104zM118 894h92l77 -103l77 103h92l-100 -132h-138z" />
    <glyph glyph-name="tcaron" unicode="&#x165;" horiz-adv-x="337" 
d="M252 -7q-146 0 -146 139v308h-85v80h85v131h101v-131h103v-80h-103v-291q0 -39 16 -56.5t57 -17.5q21 0 37 2v-76q-30 -8 -65 -8zM231 578l102 134h90l-102 -134h-90z" />
    <glyph glyph-name="Tbar" unicode="&#x166;" horiz-adv-x="586" 
d="M100 426v72h141v109h-215v93h534v-93h-215v-109h140v-72h-140v-426h-104v426h-141z" />
    <glyph glyph-name="tbar" unicode="&#x167;" horiz-adv-x="343" 
d="M21 292v80h85v68h-85v80h85v131h101v-131h103v-80h-103v-68h103v-80h-103v-143q0 -39 16 -56.5t57 -17.5q21 0 37 2v-76q-30 -8 -65 -8q-146 0 -146 139v160h-85z" />
    <glyph glyph-name="Utilde" unicode="&#x168;" horiz-adv-x="662" 
d="M331 -10q-128 0 -201.5 71t-73.5 204v435h104v-428q0 -92 45 -141.5t126 -49.5t126 49.5t45 141.5v428h105v-435q0 -132 -74.5 -203.5t-201.5 -71.5zM163 804q0 49 24 75.5t66 26.5q31 0 55 -16t42.5 -32t36.5 -16q17 0 28 11.5t11 27.5h63q0 -49 -24 -75.5t-67 -26.5
q-31 0 -55 16t-42 32t-36 16q-17 0 -28.5 -11.5t-11.5 -27.5h-62z" />
    <glyph glyph-name="utilde" unicode="&#x169;" 
d="M157 219q0 -144 122 -144q63 0 101 38t38 106v301h101v-520h-101v104h-3q-9 -39 -53.5 -76.5t-121.5 -37.5q-82 0 -133 50.5t-51 155.5v324h101v-301zM121 624q0 49 24 75.5t66 26.5q31 0 55 -16t42.5 -32t36.5 -16q17 0 28 11.5t11 27.5h63q0 -49 -24 -75.5t-67 -26.5
q-31 0 -55 16t-42 32t-36 16q-17 0 -28.5 -11.5t-11.5 -27.5h-62z" />
    <glyph glyph-name="Umacron" unicode="&#x16a;" horiz-adv-x="662" 
d="M331 -10q-128 0 -201.5 71t-73.5 204v435h104v-428q0 -92 45 -141.5t126 -49.5t126 49.5t45 141.5v428h105v-435q0 -132 -74.5 -203.5t-201.5 -71.5zM173 834v61h306v-61h-306z" />
    <glyph glyph-name="umacron" unicode="&#x16b;" 
d="M157 219q0 -144 122 -144q63 0 101 38t38 106v301h101v-520h-101v104h-3q-9 -39 -53.5 -76.5t-121.5 -37.5q-82 0 -133 50.5t-51 155.5v324h101v-301zM131 654v61h306v-61h-306z" />
    <glyph glyph-name="Ubreve" unicode="&#x16c;" horiz-adv-x="662" 
d="M331 -10q-128 0 -201.5 71t-73.5 204v435h104v-428q0 -92 45 -141.5t126 -49.5t126 49.5t45 141.5v428h105v-435q0 -132 -74.5 -203.5t-201.5 -71.5zM184 895h68q3 -75 79 -75t79 75h68q0 -61 -37 -98.5t-110 -37.5t-110 37.5t-37 98.5z" />
    <glyph glyph-name="ubreve" unicode="&#x16d;" 
d="M157 219q0 -144 122 -144q63 0 101 38t38 106v301h101v-520h-101v104h-3q-9 -39 -53.5 -76.5t-121.5 -37.5q-82 0 -133 50.5t-51 155.5v324h101v-301zM137 715h68q3 -75 79 -75t79 75h68q0 -61 -37 -98.5t-110 -37.5t-110 37.5t-37 98.5z" />
    <glyph glyph-name="Uring" unicode="&#x16e;" horiz-adv-x="662" 
d="M331 -10q-128 0 -201.5 71t-73.5 204v435h104v-428q0 -92 45 -141.5t126 -49.5t126 49.5t45 141.5v428h105v-435q0 -132 -74.5 -203.5t-201.5 -71.5zM233 837q0 38 26.5 64t66.5 26t66.5 -26t26.5 -64t-26.5 -64t-66.5 -26t-66.5 26t-26.5 64zM284 837q0 -19 12 -31
t30 -12t30 12t12 31q0 18 -12 30t-30 12t-30 -12t-12 -30z" />
    <glyph glyph-name="uring" unicode="&#x16f;" 
d="M157 219q0 -144 122 -144q63 0 101 38t38 106v301h101v-520h-101v104h-3q-9 -39 -53.5 -76.5t-121.5 -37.5q-82 0 -133 50.5t-51 155.5v324h101v-301zM191 657q0 38 26.5 64t66.5 26t66.5 -26t26.5 -64t-26.5 -64t-66.5 -26t-66.5 26t-26.5 64zM242 657q0 -19 12 -31
t30 -12t30 12t12 31q0 18 -12 30t-30 12t-30 -12t-12 -30z" />
    <glyph glyph-name="Uhungarumlaut" unicode="&#x170;" horiz-adv-x="662" 
d="M331 -10q-128 0 -201.5 71t-73.5 204v435h104v-428q0 -92 45 -141.5t126 -49.5t126 49.5t45 141.5v428h105v-435q0 -132 -74.5 -203.5t-201.5 -71.5zM191 761l102 134h90l-102 -134h-90zM345 761l102 134h90l-102 -134h-90z" />
    <glyph glyph-name="uhungarumlaut" unicode="&#x171;" 
d="M157 219q0 -144 122 -144q63 0 101 38t38 106v301h101v-520h-101v104h-3q-9 -39 -53.5 -76.5t-121.5 -37.5q-82 0 -133 50.5t-51 155.5v324h101v-301zM143 581l102 134h90l-102 -134h-90zM297 581l102 134h90l-102 -134h-90z" />
    <glyph glyph-name="Uogonek" unicode="&#x172;" horiz-adv-x="662" 
d="M405 -187q-50 -15 -104.5 10t-54.5 87q0 49 37 83q-106 13 -166.5 83t-60.5 189v435h104v-428q0 -92 45 -141.5t126 -49.5t126 49.5t45 141.5v428h105v-435q0 -113 -55 -182t-152 -87q-38 -8 -57.5 -28t-19.5 -47q0 -30 23.5 -44t58.5 -6v-58z" />
    <glyph glyph-name="uogonek" unicode="&#x173;" 
d="M157 219q0 -144 122 -144q63 0 101 38t38 106v301h101v-520h1q-59 0 -90 -22.5t-31 -56.5q0 -30 23 -44t59 -6v-58q-51 -15 -105 10t-54 87q0 44 27.5 73.5t68.5 40.5v80h-3q-9 -39 -53.5 -76.5t-121.5 -37.5q-82 0 -133 50.5t-51 155.5v324h101v-301z" />
    <glyph glyph-name="Wcircumflex" unicode="&#x174;" horiz-adv-x="984" 
d="M212 0l-186 700h106l138 -554h5l163 554h109l162 -554h5l138 554h106l-185 -700h-110l-171 568l-171 -568h-109zM322 763l100 132h138l100 -132h-92l-77 103l-77 -103h-92z" />
    <glyph glyph-name="wcircumflex" unicode="&#x175;" horiz-adv-x="806" 
d="M166 0l-145 520h97l109 -419h4l128 419h88l128 -419h4l109 419h97l-146 -520h-114l-122 386l-123 -386h-114zM233 583l100 132h138l100 -132h-92l-77 103l-77 -103h-92z" />
    <glyph glyph-name="Ycircumflex" unicode="&#x176;" horiz-adv-x="669" 
d="M281 0v268l-255 432h117l191 -331l192 331h117l-255 -432v-268h-107zM164 763l100 132h138l100 -132h-92l-77 103l-77 -103h-92z" />
    <glyph glyph-name="ycircumflex" unicode="&#x177;" horiz-adv-x="549" 
d="M74 -108q60 -8 91.5 11t48.5 60q14 36 2 69l-195 488h104l149 -397l150 397h104l-220 -550q-40 -100 -93.5 -138t-140.5 -27v87zM105 583l100 132h138l100 -132h-92l-77 103l-77 -103h-92z" />
    <glyph glyph-name="Ydieresis" unicode="&#x178;" horiz-adv-x="669" 
d="M281 0v268l-255 432h117l191 -331l192 331h117l-255 -432v-268h-107zM171 849q0 24 18 41.5t42 17.5t42 -17.5t18 -41.5t-18 -41.5t-42 -17.5t-42 17.5t-18 41.5zM376 849q0 24 18 41.5t42 17.5t42 -17.5t18 -41.5t-18 -41.5t-42 -17.5t-42 17.5t-18 41.5z" />
    <glyph glyph-name="Zacute" unicode="&#x179;" horiz-adv-x="614" 
d="M40 0v91l414 518h-400v91h516v-91l-415 -518h419v-91h-534zM266 761l102 134h90l-102 -134h-90z" />
    <glyph glyph-name="zacute" unicode="&#x17a;" horiz-adv-x="501" 
d="M40 0v86l301 348h-291v86h411v-86l-301 -348h301v-86h-421zM199 581l102 134h90l-102 -134h-90z" />
    <glyph glyph-name="Zdotaccent" unicode="&#x17b;" horiz-adv-x="614" 
d="M40 0v91l414 518h-400v91h516v-91l-415 -518h419v-91h-534zM255 849q0 24 18 41.5t42 17.5t42 -17.5t18 -41.5t-18 -41.5t-42 -17.5t-42 17.5t-18 41.5z" />
    <glyph glyph-name="zdotaccent" unicode="&#x17c;" horiz-adv-x="501" 
d="M40 0v86l301 348h-291v86h411v-86l-301 -348h301v-86h-421zM188 669q0 24 18 41.5t42 17.5t42 -17.5t18 -41.5t-18 -41.5t-42 -17.5t-42 17.5t-18 41.5z" />
    <glyph glyph-name="Zcaron" unicode="&#x17d;" horiz-adv-x="614" 
d="M40 0v91l414 518h-400v91h516v-91l-415 -518h419v-91h-534zM139 894h92l77 -103l77 103h92l-100 -132h-138z" />
    <glyph glyph-name="zcaron" unicode="&#x17e;" horiz-adv-x="501" 
d="M40 0v86l301 348h-291v86h411v-86l-301 -348h301v-86h-421zM72 714h92l77 -103l77 103h92l-100 -132h-138z" />
    <glyph glyph-name="uni018F" unicode="&#x18f;" horiz-adv-x="697" 
d="M335 -10q-140 0 -217 82t-77 239v56h509q-4 120 -58.5 186t-154.5 66q-137 0 -173 -112h-103q19 98 93.5 150t182.5 52q146 0 232.5 -94t86.5 -267q0 -171 -85 -264.5t-236 -93.5zM143 283q0 -102 53 -152.5t139 -50.5q89 0 142.5 53t67.5 150h-402z" />
    <glyph glyph-name="florin" unicode="&#x192;" horiz-adv-x="303" 
d="M21 -103q41 0 59.5 25t18.5 77v339h-76v88h76v105q0 89 42 129.5t137 40.5v-87q-41 0 -59.5 -24.5t-18.5 -77.5v-86h78v-88h-78v-358q0 -92 -44 -131t-135 -39v87z" />
    <glyph glyph-name="Ohorn" unicode="&#x1a0;" horiz-adv-x="727" 
d="M364 -10q-144 0 -233.5 96.5t-89.5 263.5t89.5 263t233.5 96h233v79h87v-158h-104q106 -98 106 -280q0 -167 -89 -263.5t-233 -96.5zM147 350q0 -128 59 -199t158 -71q98 0 157 71t59 199t-59 198.5t-157 70.5q-99 0 -158 -70.5t-59 -198.5z" />
    <glyph glyph-name="ohorn" unicode="&#x1a1;" horiz-adv-x="569" 
d="M284 -10q-105 0 -179 69.5t-74 200.5t74 200.5t179 69.5h169v78h82v-156h-63q66 -73 66 -192q0 -131 -74 -200.5t-180 -69.5zM127 260q0 -91 44.5 -138t112.5 -47t113 47t45 138t-45 138t-113 47t-112.5 -47t-44.5 -138z" />
    <glyph glyph-name="Uhorn" unicode="&#x1af;" horiz-adv-x="662" 
d="M331 -10q-128 0 -201.5 71t-73.5 204v435h104v-428q0 -92 45 -141.5t126 -49.5t126 49.5t45 141.5v428h122v88h87v-168h-104v-355q0 -132 -74.5 -203.5t-201.5 -71.5z" />
    <glyph glyph-name="uhorn" unicode="&#x1b0;" 
d="M157 219q0 -144 122 -144q63 0 101 38t38 106v301h122v88h87v-168h-108v-440h-101v104h-3q-9 -39 -53.5 -76.5t-121.5 -37.5q-82 0 -133 50.5t-51 155.5v324h101v-301z" />
    <glyph glyph-name="uni01CD" unicode="&#x1cd;" horiz-adv-x="698" 
d="M21 0l263 700h130l263 -700h-109l-59 161h-320l-59 -161h-109zM174 894h92l77 -103l77 103h92l-100 -132h-138zM218 240h262l-128 351h-6z" />
    <glyph glyph-name="uni01CE" unicode="&#x1ce;" horiz-adv-x="546" 
d="M205 -10q-78 0 -126 36t-48 110q0 132 166 152l129 15q64 8 64 31v14q0 59 -28.5 82t-87.5 23t-88 -20t-29 -68v-12h-97v21q0 156 216 156q111 0 163 -43.5t52 -137.5v-349h-95v84h-4q-6 -11 -16.5 -23.5t-32 -30t-57.5 -29t-81 -11.5zM105 714h92l77 -103l77 103h92
l-100 -132h-138zM132 141q0 -72 98 -72q76 0 118 38t42 86v57q-11 -17 -71 -24l-98 -13q-48 -6 -68.5 -23.5t-20.5 -48.5z" />
    <glyph glyph-name="uni01CF" unicode="&#x1cf;" horiz-adv-x="215" 
d="M56 0v700h104v-700h-104zM-68 894h92l77 -103l77 103h92l-100 -132h-138z" />
    <glyph glyph-name="uni01D0" unicode="&#x1d0;" horiz-adv-x="194" 
d="M46 0v520h101v-520h-101zM-78 714h92l77 -103l77 103h92l-100 -132h-138z" />
    <glyph glyph-name="uni01D1" unicode="&#x1d1;" horiz-adv-x="727" 
d="M364 -10q-144 0 -233.5 96.5t-89.5 263.5t89.5 263t233.5 96t233 -96t89 -263t-89 -263.5t-233 -96.5zM147 350q0 -128 59 -199t158 -71q98 0 157 71t59 199t-59 198.5t-157 70.5q-99 0 -158 -70.5t-59 -198.5zM189 894h92l77 -103l77 103h92l-100 -132h-138z" />
    <glyph glyph-name="uni01D2" unicode="&#x1d2;" horiz-adv-x="569" 
d="M284 -10q-105 0 -179 69.5t-74 200.5t74 200.5t179 69.5q106 0 180 -69.5t74 -200.5t-74 -200.5t-180 -69.5zM109 714h92l77 -103l77 103h92l-100 -132h-138zM127 260q0 -91 44.5 -138t112.5 -47t113 47t45 138t-45 138t-113 47t-112.5 -47t-44.5 -138z" />
    <glyph glyph-name="uni01D3" unicode="&#x1d3;" horiz-adv-x="662" 
d="M331 -10q-128 0 -201.5 71t-73.5 204v435h104v-428q0 -92 45 -141.5t126 -49.5t126 49.5t45 141.5v428h105v-435q0 -132 -74.5 -203.5t-201.5 -71.5zM156 894h92l77 -103l77 103h92l-100 -132h-138z" />
    <glyph glyph-name="uni01D4" unicode="&#x1d4;" 
d="M157 219q0 -144 122 -144q63 0 101 38t38 106v301h101v-520h-101v104h-3q-9 -39 -53.5 -76.5t-121.5 -37.5q-82 0 -133 50.5t-51 155.5v324h101v-301zM109 714h92l77 -103l77 103h92l-100 -132h-138z" />
    <glyph glyph-name="uni01D5" unicode="&#x1d5;" horiz-adv-x="662" 
d="M331 -10q-128 0 -201.5 71t-73.5 204v435h104v-428q0 -92 45 -141.5t126 -49.5t126 49.5t45 141.5v428h105v-435q0 -132 -74.5 -203.5t-201.5 -71.5zM169 849q0 24 18 41.5t42 17.5t42 -17.5t18 -41.5t-18 -41.5t-42 -17.5t-42 17.5t-18 41.5zM178 980v61h306v-61h-306z
M374 849q0 24 18 41.5t42 17.5t42 -17.5t18 -41.5t-18 -41.5t-42 -17.5t-42 17.5t-18 41.5z" />
    <glyph glyph-name="uni01D6" unicode="&#x1d6;" 
d="M157 219q0 -144 122 -144q63 0 101 38t38 106v301h101v-520h-101v104h-3q-9 -39 -53.5 -76.5t-121.5 -37.5q-82 0 -133 50.5t-51 155.5v324h101v-301zM122 669q0 24 18 41.5t42 17.5t42 -17.5t18 -41.5t-18 -41.5t-42 -17.5t-42 17.5t-18 41.5zM131 800v61h306v-61h-306z
M327 669q0 24 18 41.5t42 17.5t42 -17.5t18 -41.5t-18 -41.5t-42 -17.5t-42 17.5t-18 41.5z" />
    <glyph glyph-name="uni01D7" unicode="&#x1d7;" horiz-adv-x="662" 
d="M331 -10q-128 0 -201.5 71t-73.5 204v435h104v-428q0 -92 45 -141.5t126 -49.5t126 49.5t45 141.5v428h105v-435q0 -132 -74.5 -203.5t-201.5 -71.5zM169 849q0 24 18 41.5t42 17.5t42 -17.5t18 -41.5t-18 -41.5t-42 -17.5t-42 17.5t-18 41.5zM279 939l102 134h90
l-102 -134h-90zM374 849q0 24 18 41.5t42 17.5t42 -17.5t18 -41.5t-18 -41.5t-42 -17.5t-42 17.5t-18 41.5z" />
    <glyph glyph-name="uni01D8" unicode="&#x1d8;" 
d="M157 219q0 -144 122 -144q63 0 101 38t38 106v301h101v-520h-101v104h-3q-9 -39 -53.5 -76.5t-121.5 -37.5q-82 0 -133 50.5t-51 155.5v324h101v-301zM122 669q0 24 18 41.5t42 17.5t42 -17.5t18 -41.5t-18 -41.5t-42 -17.5t-42 17.5t-18 41.5zM232 759l102 134h90
l-102 -134h-90zM327 669q0 24 18 41.5t42 17.5t42 -17.5t18 -41.5t-18 -41.5t-42 -17.5t-42 17.5t-18 41.5z" />
    <glyph glyph-name="uni01D9" unicode="&#x1d9;" horiz-adv-x="662" 
d="M331 -10q-128 0 -201.5 71t-73.5 204v435h104v-428q0 -92 45 -141.5t126 -49.5t126 49.5t45 141.5v428h105v-435q0 -132 -74.5 -203.5t-201.5 -71.5zM162 1072h92l77 -103l77 103h92l-100 -132h-138zM169 849q0 24 18 41.5t42 17.5t42 -17.5t18 -41.5t-18 -41.5
t-42 -17.5t-42 17.5t-18 41.5zM374 849q0 24 18 41.5t42 17.5t42 -17.5t18 -41.5t-18 -41.5t-42 -17.5t-42 17.5t-18 41.5z" />
    <glyph glyph-name="uni01DA" unicode="&#x1da;" 
d="M157 219q0 -144 122 -144q63 0 101 38t38 106v301h101v-520h-101v104h-3q-9 -39 -53.5 -76.5t-121.5 -37.5q-82 0 -133 50.5t-51 155.5v324h101v-301zM115 892h92l77 -103l77 103h92l-100 -132h-138zM122 669q0 24 18 41.5t42 17.5t42 -17.5t18 -41.5t-18 -41.5
t-42 -17.5t-42 17.5t-18 41.5zM327 669q0 24 18 41.5t42 17.5t42 -17.5t18 -41.5t-18 -41.5t-42 -17.5t-42 17.5t-18 41.5z" />
    <glyph glyph-name="uni01DB" unicode="&#x1db;" horiz-adv-x="662" 
d="M331 -10q-128 0 -201.5 71t-73.5 204v435h104v-428q0 -92 45 -141.5t126 -49.5t126 49.5t45 141.5v428h105v-435q0 -132 -74.5 -203.5t-201.5 -71.5zM169 849q0 24 18 41.5t42 17.5t42 -17.5t18 -41.5t-18 -41.5t-42 -17.5t-42 17.5t-18 41.5zM187 1073h90l102 -134h-90z
M374 849q0 24 18 41.5t42 17.5t42 -17.5t18 -41.5t-18 -41.5t-42 -17.5t-42 17.5t-18 41.5z" />
    <glyph glyph-name="uni01DC" unicode="&#x1dc;" 
d="M157 219q0 -144 122 -144q63 0 101 38t38 106v301h101v-520h-101v104h-3q-9 -39 -53.5 -76.5t-121.5 -37.5q-82 0 -133 50.5t-51 155.5v324h101v-301zM122 669q0 24 18 41.5t42 17.5t42 -17.5t18 -41.5t-18 -41.5t-42 -17.5t-42 17.5t-18 41.5zM140 893h90l102 -134h-90z
M327 669q0 24 18 41.5t42 17.5t42 -17.5t18 -41.5t-18 -41.5t-42 -17.5t-42 17.5t-18 41.5z" />
    <glyph glyph-name="Gcaron" unicode="&#x1e6;" horiz-adv-x="702" 
d="M361 -10q-150 0 -235 93.5t-85 264.5q0 173 86.5 267t232.5 94q108 0 182.5 -52t93.5 -150h-103q-36 112 -173 112q-104 0 -159.5 -70.5t-55.5 -197.5q0 -128 56.5 -199.5t160.5 -71.5q86 0 139 50.5t52 152.5h-162v84h265v-56q0 -156 -77.5 -238.5t-217.5 -82.5z
M189 894h92l77 -103l77 103h92l-100 -132h-138z" />
    <glyph glyph-name="gcaron" unicode="&#x1e7;" horiz-adv-x="588" 
d="M277 -209q-58 0 -106.5 13.5t-86.5 53t-38 101.5h89q2 -42 42 -65.5t98 -23.5q69 0 112.5 35t43.5 106v87h-2q-24 -40 -70.5 -63t-101.5 -23q-95 0 -160.5 65t-65.5 194t66 194t160 65q55 0 101.5 -23t70.5 -63h2v76h101v-509q0 -51 -16.5 -91t-42 -64t-60 -39
t-67.5 -20.5t-69 -5.5zM117 714h92l77 -103l77 103h92l-100 -132h-138zM126 271q0 -85 45 -130t110 -45t110 45.5t45 129.5t-45 129t-110 45t-110 -44.5t-45 -129.5z" />
    <glyph glyph-name="uni01E8" unicode="&#x1e8;" horiz-adv-x="656" 
d="M56 0v700h104v-371l326 371h124l-282 -319l307 -381h-121l-251 307l-103 -116v-191h-104zM162 894h92l77 -103l77 103h92l-100 -132h-138z" />
    <glyph glyph-name="uni01E9" unicode="&#x1e9;" horiz-adv-x="554" 
d="M56 0v700h101v-441l244 261h114l-217 -224l245 -296h-113l-195 231l-78 -80v-151h-101zM-65 894h92l77 -103l77 103h92l-100 -132h-138z" />
    <glyph glyph-name="uni01EA" unicode="&#x1ea;" horiz-adv-x="727" 
d="M435 -187q-50 -15 -104.5 10t-54.5 87q0 52 38 83q-124 17 -198.5 111.5t-74.5 245.5q0 167 89.5 263t233.5 96t233 -96t89 -263q0 -147 -70.5 -240.5t-188.5 -114.5q-36 -8 -55 -28t-19 -46q0 -30 23 -44t59 -6v-58zM147 350q0 -128 59 -199t158 -71q98 0 157 71t59 199
t-59 198.5t-157 70.5q-99 0 -158 -70.5t-59 -198.5z" />
    <glyph glyph-name="uni01EB" unicode="&#x1eb;" horiz-adv-x="569" 
d="M349 -187q-51 -15 -105 10t-54 87q0 51 39 85q-86 17 -142 84.5t-56 180.5q0 131 74 200.5t179 69.5q106 0 180 -69.5t74 -200.5q0 -112 -54 -178.5t-140 -85.5q-38 -8 -57.5 -28t-19.5 -47q0 -30 23 -44t59 -6v-58zM127 260q0 -91 44.5 -138t112.5 -47t113 47t45 138
t-45 138t-113 47t-112.5 -47t-44.5 -138z" />
    <glyph glyph-name="uni0218" unicode="&#x218;" horiz-adv-x="625" 
d="M316 -10q-131 0 -203 59.5t-72 162.5h106q3 -60 45 -97t125 -37q77 0 117.5 31.5t40.5 86.5q0 49 -32 75t-94 38l-94 19q-194 39 -194 188q0 91 66.5 142t184.5 51q119 0 185.5 -52t66.5 -144h-106q-1 50 -39 79t-109 29q-72 0 -106.5 -29t-34.5 -76q0 -81 113 -104
l90 -18q108 -22 160 -68.5t52 -128.5q0 -100 -72 -153.5t-196 -53.5zM240 -89q0 27 18.5 45t46.5 18q34 0 55 -25.5t21 -76.5q0 -62 -32 -97.5t-85 -35.5h-8v45q34 1 49 16t15 44q-37 0 -58.5 19t-21.5 48z" />
    <glyph glyph-name="uni0219" unicode="&#x219;" horiz-adv-x="487" 
d="M243 -10q-98 0 -156.5 41.5t-60.5 123.5h91q11 -87 127 -87q51 0 82.5 19.5t31.5 59.5q0 30 -19 45.5t-59 24.5l-97 22q-142 33 -142 143q0 70 55 109t147 39q94 0 147 -41.5t57 -121.5h-85q-12 85 -118 85q-105 0 -105 -68q0 -53 77 -70l98 -22q71 -17 109 -49t38 -94
q0 -81 -62 -120t-156 -39zM179 -99q0 27 18.5 45t46.5 18q34 0 55 -25.5t21 -76.5q0 -62 -32 -97.5t-85 -35.5h-8v45q34 1 49 16t15 44q-37 0 -58.5 19t-21.5 48z" />
    <glyph glyph-name="uni021A" unicode="&#x21a;" horiz-adv-x="586" 
d="M241 0v607h-215v93h534v-93h-215v-607h-104zM208 -89q0 27 18.5 45t46.5 18q34 0 55 -25.5t21 -76.5q0 -62 -32 -97.5t-85 -35.5h-8v45q34 1 49 16t15 44q-37 0 -58.5 19t-21.5 48z" />
    <glyph glyph-name="uni021B" unicode="&#x21b;" horiz-adv-x="343" 
d="M252 -7q-146 0 -146 139v308h-85v80h85v131h101v-131h103v-80h-103v-291q0 -39 16 -56.5t57 -17.5q21 0 37 2v-76q-30 -8 -65 -8zM158 -89q0 27 18.5 45t46.5 18q34 0 55 -25.5t21 -76.5q0 -62 -32 -97.5t-85 -35.5h-8v45q34 1 49 16t15 44q-37 0 -58.5 19t-21.5 48z" />
    <glyph glyph-name="uni0237" unicode="&#x237;" horiz-adv-x="219" 
d="M26 -190q-42 0 -65 3v79h39q39 0 55.5 17.5t16.5 56.5v554h101v-571q0 -139 -147 -139z" />
    <glyph glyph-name="uni0259" unicode="&#x259;" horiz-adv-x="547" 
d="M268 -12q-106 0 -171.5 66t-65.5 196q0 21 3 39h386q-10 162 -156 162q-106 0 -136 -84h-90q22 83 82 123t143 40q112 0 182.5 -68t70.5 -202q0 -136 -70 -204t-178 -68zM127 216q2 -69 38.5 -109t103.5 -40q64 0 104 38t47 111h-293z" />
    <glyph glyph-name="circumflex" unicode="&#x2c6;" horiz-adv-x="338" 
d="M0 583l100 132h138l100 -132h-92l-77 103l-77 -103h-92z" />
    <glyph glyph-name="caron" unicode="&#x2c7;" horiz-adv-x="347" 
d="M0 714h92l77 -103l77 103h92l-100 -132h-138z" />
    <glyph glyph-name="breve" unicode="&#x2d8;" horiz-adv-x="304" 
d="M152 579q-73 0 -110 37.5t-37 98.5h68q3 -75 79 -75t79 75h68q0 -61 -37 -98.5t-110 -37.5z" />
    <glyph glyph-name="dotaccent" unicode="&#x2d9;" horiz-adv-x="120" 
d="M60 610q-24 0 -42 17.5t-18 41.5t18 41.5t42 17.5t42 -17.5t18 -41.5t-18 -41.5t-42 -17.5z" />
    <glyph glyph-name="ring" unicode="&#x2da;" horiz-adv-x="186" 
d="M93 567q-40 0 -66.5 26t-26.5 64t26.5 64t66.5 26t66.5 -26t26.5 -64t-26.5 -64t-66.5 -26zM51 657q0 -19 12 -31t30 -12t30 12t12 31q0 18 -12 30t-30 12t-30 -12t-12 -30z" />
    <glyph glyph-name="ogonek" unicode="&#x2db;" horiz-adv-x="198" 
d="M159 -187q-51 -15 -105 10t-54 87q0 54 40.5 86t91.5 32l66 -28q-59 0 -90 -22.5t-31 -56.5q0 -30 23 -44t59 -6v-58z" />
    <glyph glyph-name="tilde" unicode="&#x2dc;" horiz-adv-x="336" 
d="M240 599q-31 0 -55 16t-42 32t-36 16q-17 0 -28.5 -11.5t-11.5 -27.5h-62q0 49 24 75.5t66 26.5q31 0 55 -16t42.5 -32t36.5 -16q17 0 28 11.5t11 27.5h63q0 -49 -24 -75.5t-67 -26.5z" />
    <glyph glyph-name="hungarumlaut" unicode="&#x2dd;" horiz-adv-x="347" 
d="M154 581l102 134h90l-102 -134h-90zM0 581l102 134h90l-102 -134h-90z" />
    <glyph glyph-name="gravecomb" unicode="&#x300;" horiz-adv-x="0" 
d="M102 581l-102 134h90l102 -134h-90z" />
    <glyph glyph-name="acutecomb" unicode="&#x301;" horiz-adv-x="0" 
d="M0 581l102 134h90l-102 -134h-90z" />
    <glyph glyph-name="uni0302" unicode="&#x302;" horiz-adv-x="0" 
d="M0 583l100 132h138l100 -132h-92l-77 103l-77 -103h-92z" />
    <glyph glyph-name="tildecomb" unicode="&#x303;" horiz-adv-x="0" 
d="M240 599q-31 0 -55 16t-42 32t-36 16q-17 0 -28.5 -11.5t-11.5 -27.5h-62q0 49 24 75.5t66 26.5q31 0 55 -16t42.5 -32t36.5 -16q17 0 28 11.5t11 27.5h63q0 -49 -24 -75.5t-67 -26.5z" />
    <glyph glyph-name="uni0304" unicode="&#x304;" horiz-adv-x="0" 
d="M0 654v61h306v-61h-306z" />
    <glyph glyph-name="uni0306" unicode="&#x306;" horiz-adv-x="0" 
d="M152 579q-73 0 -110 37.5t-37 98.5h68q3 -75 79 -75t79 75h68q0 -61 -37 -98.5t-110 -37.5z" />
    <glyph glyph-name="uni0307" unicode="&#x307;" horiz-adv-x="0" 
d="M60 610q-24 0 -42 17.5t-18 41.5t18 41.5t42 17.5t42 -17.5t18 -41.5t-18 -41.5t-42 -17.5z" />
    <glyph glyph-name="uni0308" unicode="&#x308;" horiz-adv-x="0" 
d="M265 610q-24 0 -42 17.5t-18 41.5t18 41.5t42 17.5t42 -17.5t18 -41.5t-18 -41.5t-42 -17.5zM0 669q0 24 18 41.5t42 17.5t42 -17.5t18 -41.5t-18 -41.5t-42 -17.5t-42 17.5t-18 41.5z" />
    <glyph glyph-name="hookabovecomb" unicode="&#x309;" horiz-adv-x="0" 
d="M124 612q56 2 56 48q0 21 -12 33t-31 12q-38 0 -41 -38h-54q0 47 28.5 70.5t67.5 23.5q41 0 71 -25.5t30 -71.5q0 -42 -25.5 -67t-61.5 -29z" />
    <glyph glyph-name="uni030A" unicode="&#x30a;" horiz-adv-x="0" 
d="M93 567q-40 0 -66.5 26t-26.5 64t26.5 64t66.5 26t66.5 -26t26.5 -64t-26.5 -64t-66.5 -26zM51 657q0 -19 12 -31t30 -12t30 12t12 31q0 18 -12 30t-30 12t-30 -12t-12 -30z" />
    <glyph glyph-name="uni030B" unicode="&#x30b;" horiz-adv-x="0" 
d="M154 581l102 134h90l-102 -134h-90zM0 581l102 134h90l-102 -134h-90z" />
    <glyph glyph-name="uni030C" unicode="&#x30c;" horiz-adv-x="0" 
d="M0 714h92l77 -103l77 103h92l-100 -132h-138z" />
    <glyph glyph-name="uni0312" unicode="&#x312;" horiz-adv-x="0" 
d="M161 652q-34 -1 -49 -16t-15 -44q37 0 58.5 -19t21.5 -48q0 -27 -18.5 -45t-47.5 -18q-33 0 -54 25.5t-21 76.5q0 62 32 97.5t85 35.5h8v-45z" />
    <glyph glyph-name="uni031B" unicode="&#x31b;" horiz-adv-x="0" 
d="M0 440v80h122v88h87v-168h-209z" />
    <glyph glyph-name="dotbelowcomb" unicode="&#x323;" horiz-adv-x="0" 
d="M117 -230q-28 0 -47.5 19t-19.5 47q0 27 19.5 46.5t47.5 19.5q27 0 46.5 -19.5t19.5 -46.5q0 -28 -19.5 -47t-46.5 -19z" />
    <glyph glyph-name="uni0326" unicode="&#x326;" horiz-adv-x="0" 
d="M7 -216q34 1 49 16t15 44q-37 0 -58.5 19t-21.5 48q0 27 18.5 45t46.5 18q34 0 55 -25.5t21 -76.5q0 -62 -32 -97.5t-85 -35.5h-8v45z" />
    <glyph glyph-name="uni0327" unicode="&#x327;" horiz-adv-x="0" 
d="M27 -177q75 -2 75 43q0 25 -22.5 34t-49.5 -5l-30 37l58 68h72l-48 -51q3 1 11 1q34 0 57.5 -23t23.5 -61q0 -51 -42 -74.5t-105 -23.5v55z" />
    <glyph glyph-name="uni0328" unicode="&#x328;" horiz-adv-x="0" 
d="M159 -187q-51 -15 -105 10t-54 87q0 54 40.5 86t91.5 32l66 -28q-59 0 -90 -22.5t-31 -56.5q0 -30 23 -44t59 -6v-58z" />
    <glyph glyph-name="uni0394" unicode="&#x394;" horiz-adv-x="675" 
d="M21 0l316 713h1l316 -713h-633zM149 81h377l-188 444z" />
    <glyph glyph-name="uni03A9" unicode="&#x3a9;" horiz-adv-x="779" 
d="M63 0v83h138q-160 102 -160 280q0 148 103 246t245 98t245.5 -98t103.5 -246q0 -178 -160 -280h138v-83h-235v126q76 38 115 100t39 137q0 108 -72 177.5t-174 69.5q-101 0 -173 -69.5t-72 -177.5q0 -75 39 -137t115 -100v-126h-235z" />
    <glyph glyph-name="uni03BC" unicode="&#x3bc;" 
d="M56 -190v710h101v-301q0 -144 122 -144q63 0 101 37.5t38 106.5v301h101v-520h-101v90q-13 -39 -51.5 -69.5t-100.5 -30.5q-76 0 -109 51v-231h-101z" />
    <glyph glyph-name="pi" unicode="&#x3c0;" horiz-adv-x="686" 
d="M560 -6q-54 0 -90 27.5t-36 93.5v318h-187v-433h-101v433h-100v87h588v-87h-99v-296q0 -31 13 -43.5t41 -12.5q29 0 56 14v-79q-26 -22 -85 -22z" />
    <glyph glyph-name="uni0401" unicode="&#x401;" horiz-adv-x="552" 
d="M56 0v700h455v-91h-351v-210h321v-83h-321v-225h361v-91h-465zM125 849q0 24 18 41.5t42 17.5t42 -17.5t18 -41.5t-18 -41.5t-42 -17.5t-42 17.5t-18 41.5zM330 849q0 24 18 41.5t42 17.5t42 -17.5t18 -41.5t-18 -41.5t-42 -17.5t-42 17.5t-18 41.5z" />
    <glyph glyph-name="uni0403" unicode="&#x403;" horiz-adv-x="507" 
d="M56 0v700h426v-92h-321v-608h-105zM224 761l102 134h90l-102 -134h-90z" />
    <glyph glyph-name="uni0404" unicode="&#x404;" horiz-adv-x="670" 
d="M361 -10q-146 0 -233 94t-87 266q0 171 87 265t234 94q113 0 188 -57.5t90 -168.5h-102q-16 67 -63 101.5t-116 34.5q-90 0 -144.5 -57.5t-65.5 -160.5h233v-86h-235q8 -111 63.5 -173t148.5 -62q69 0 116 34.5t63 102.5h102q-15 -112 -90 -169.5t-189 -57.5z" />
    <glyph glyph-name="uni0407" unicode="&#x407;" horiz-adv-x="215" 
d="M56 0v700h104v-700h-104zM-56 849q0 24 18 41.5t42 17.5t42 -17.5t18 -41.5t-18 -41.5t-42 -17.5t-42 17.5t-18 41.5zM149 849q0 24 18 41.5t42 17.5t42 -17.5t18 -41.5t-18 -41.5t-42 -17.5t-42 17.5t-18 41.5z" />
    <glyph glyph-name="uni040C" unicode="&#x40c;" horiz-adv-x="656" 
d="M56 0v700h104v-371l326 371h124l-282 -319l307 -381h-121l-251 307l-103 -116v-191h-104zM283 761l102 134h90l-102 -134h-90z" />
    <glyph glyph-name="uni040E" unicode="&#x40e;" horiz-adv-x="578" 
d="M92 84q57 -7 85 11t44 58q17 40 -3 90l-192 457h115l147 -377l149 377h116l-231 -545q-42 -100 -94 -138t-136 -28v95zM142 895h68q3 -75 79 -75t79 75h68q0 -61 -37 -98.5t-110 -37.5t-110 37.5t-37 98.5z" />
    <glyph glyph-name="uni0410" unicode="&#x410;" horiz-adv-x="698" 
d="M21 0l263 700h130l263 -700h-109l-59 161h-320l-59 -161h-109zM218 240h262l-128 351h-6z" />
    <glyph glyph-name="uni0411" unicode="&#x411;" horiz-adv-x="604" 
d="M56 0v700h426v-92h-321v-156h160q124 0 188 -59.5t64 -165.5q0 -107 -64 -167t-188 -60h-265zM161 91h156q71 0 107.5 35t36.5 101q0 65 -36.5 99.5t-107.5 34.5h-156v-270z" />
    <glyph glyph-name="uni0412" unicode="&#x412;" horiz-adv-x="616" 
d="M56 0v700h267q108 0 162 -46t54 -125q0 -111 -97 -145q143 -39 143 -181q0 -91 -65 -147t-191 -56h-273zM160 89h163q76 0 114 33t38 88t-38 87t-114 32h-163v-240zM160 417h156q56 0 86 25.5t30 73.5q0 47 -30 71.5t-86 24.5h-156v-195z" />
    <glyph glyph-name="uni0413" unicode="&#x413;" horiz-adv-x="507" 
d="M56 0v700h426v-92h-321v-608h-105z" />
    <glyph glyph-name="uni0414" unicode="&#x414;" horiz-adv-x="714" 
d="M21 -69v157h39q44 39 64 140.5t20 297.5v174h487v-612h52v-157h-101v69h-460v-69h-101zM172 88h353v520h-276v-82q0 -198 -18 -298.5t-59 -139.5z" />
    <glyph glyph-name="uni0415" unicode="&#x415;" horiz-adv-x="552" 
d="M56 0v700h455v-91h-351v-210h321v-83h-321v-225h361v-91h-465z" />
    <glyph glyph-name="uni0416" unicode="&#x416;" horiz-adv-x="941" 
d="M799 0l-276 312v-312h-105v311l-276 -311h-121l312 356l-301 344h122l264 -299v299h105v-300l265 300h121l-301 -344l313 -356h-122z" />
    <glyph glyph-name="uni0417" unicode="&#x417;" horiz-adv-x="582" 
d="M285 -10q-122 0 -185.5 64.5t-63.5 173.5h95q1 -73 44 -112t114 -39q66 0 110.5 34t44.5 96q0 58 -43 92t-123 34h-34v76h29q77 0 108.5 31t31.5 76q0 50 -34 78t-91 28q-59 0 -96.5 -34t-37.5 -107h-95q0 111 60.5 169.5t170.5 58.5q103 0 162 -49t59 -129
q0 -59 -32 -99.5t-84 -54.5q58 -9 104.5 -53.5t46.5 -122.5q0 -94 -71.5 -152.5t-189.5 -58.5z" />
    <glyph glyph-name="uni0418" unicode="&#x418;" horiz-adv-x="673" 
d="M617 0h-104v532h-2l-339 -532h-116v700h104v-537h3l342 537h112v-700z" />
    <glyph glyph-name="uni0419" unicode="&#x419;" horiz-adv-x="673" 
d="M617 0h-104v532h-2l-339 -532h-116v700h104v-537h3l342 537h112v-700zM189 895h68q3 -75 79 -75t79 75h68q0 -61 -37 -98.5t-110 -37.5t-110 37.5t-37 98.5z" />
    <glyph glyph-name="uni041A" unicode="&#x41a;" horiz-adv-x="656" 
d="M56 0v700h104v-371l326 371h124l-282 -319l307 -381h-121l-251 307l-103 -116v-191h-104z" />
    <glyph glyph-name="uni041B" unicode="&#x41b;" horiz-adv-x="679" 
d="M15 85q56 -1 87.5 29t31.5 110v476h489v-700h-105v608h-278v-388q0 -123 -61.5 -179t-163.5 -48v92z" />
    <glyph glyph-name="uni041C" unicode="&#x41c;" horiz-adv-x="835" 
d="M56 0v700h128l234 -562l234 562h128v-700h-104v514h-4l-213 -514h-82l-214 514h-3v-514h-104z" />
    <glyph glyph-name="uni041D" unicode="&#x41d;" horiz-adv-x="658" 
d="M499 0v302h-339v-302h-104v700h104v-312h339v312h103v-700h-103z" />
    <glyph glyph-name="uni041E" unicode="&#x41e;" horiz-adv-x="727" 
d="M364 -10q-144 0 -233.5 96.5t-89.5 263.5t89.5 263t233.5 96t233 -96t89 -263t-89 -263.5t-233 -96.5zM147 350q0 -128 59 -199t158 -71q98 0 157 71t59 199t-59 198.5t-157 70.5q-99 0 -158 -70.5t-59 -198.5z" />
    <glyph glyph-name="uni041F" unicode="&#x41f;" horiz-adv-x="658" 
d="M56 0v700h546v-700h-105v608h-336v-608h-105z" />
    <glyph glyph-name="uni0420" unicode="&#x420;" horiz-adv-x="604" 
d="M56 0v700h264q125 0 189 -59t64 -163q0 -103 -64 -161.5t-189 -58.5h-160v-258h-104zM160 349h156q75 0 113 33.5t38 95.5q0 63 -38 97t-113 34h-156v-260z" />
    <glyph glyph-name="uni0421" unicode="&#x421;" horiz-adv-x="670" 
d="M361 -10q-146 0 -233 94t-87 266q0 171 87 265t234 94q113 0 188 -57.5t90 -168.5h-102q-16 67 -63 101.5t-116 34.5q-100 0 -156.5 -71.5t-56.5 -197.5q0 -127 56 -198.5t157 -71.5q69 0 116 34.5t63 102.5h102q-15 -112 -90 -169.5t-189 -57.5z" />
    <glyph glyph-name="uni0422" unicode="&#x422;" horiz-adv-x="586" 
d="M241 0v607h-215v93h534v-93h-215v-607h-104z" />
    <glyph glyph-name="uni0423" unicode="&#x423;" horiz-adv-x="578" 
d="M92 84q57 -7 85 11t44 58q17 40 -3 90l-192 457h115l147 -377l149 377h116l-231 -545q-42 -100 -94 -138t-136 -28v95z" />
    <glyph glyph-name="uni0424" unicode="&#x424;" horiz-adv-x="722" 
d="M308 -15v76q-123 14 -195 89.5t-72 199.5q0 125 72 200t195 89v76h106v-76q123 -14 195 -89t72 -200q0 -124 -72 -199.5t-195 -89.5v-76h-106zM142 350q0 -87 43.5 -140t122.5 -67v414q-79 -14 -122.5 -67t-43.5 -140zM414 143q79 14 122.5 67t43.5 140t-43.5 140
t-122.5 67v-414z" />
    <glyph glyph-name="uni0425" unicode="&#x425;" horiz-adv-x="656" 
d="M518 0l-190 276l-190 -276h-117l249 361l-234 339h117l175 -254l175 254h116l-233 -339l249 -361h-117z" />
    <glyph glyph-name="uni0426" unicode="&#x426;" horiz-adv-x="676" 
d="M56 0v700h105v-608h336v608h105v-608h53v-233h-101v141h-498z" />
    <glyph glyph-name="uni0427" unicode="&#x427;" horiz-adv-x="636" 
d="M246 160q-92 0 -148.5 54t-56.5 170v316h105v-312q0 -69 38 -102t103 -33q76 0 127.5 43.5t59.5 84.5v319h106v-700h-106v289q-13 -39 -75 -84t-153 -45z" />
    <glyph glyph-name="uni0428" unicode="&#x428;" horiz-adv-x="804" 
d="M56 0v700h105v-608h188v608h106v-608h188v608h106v-700h-693z" />
    <glyph glyph-name="uni0429" unicode="&#x429;" horiz-adv-x="823" 
d="M56 0v700h105v-608h188v608h106v-608h188v608h106v-608h53v-233h-101v141h-645z" />
    <glyph glyph-name="uni042A" unicode="&#x42a;" horiz-adv-x="653" 
d="M21 608v92h190v-92h-1v-156h156q126 0 191 -59.5t65 -165.5q0 -107 -65 -167t-191 -60h-261v608h-84zM210 91h156q71 0 107.5 35t36.5 101q0 65 -36.5 99.5t-107.5 34.5h-156v-270z" />
    <glyph glyph-name="uni042B" unicode="&#x42b;" horiz-adv-x="807" 
d="M56 0v700h105v-248h156q126 0 191 -59.5t65 -165.5q0 -107 -65 -167t-191 -60h-261zM161 91h156q71 0 107.5 35t36.5 101q0 65 -36.5 99.5t-107.5 34.5h-156v-270zM648 0v700h104v-700h-104z" />
    <glyph glyph-name="uni042C" unicode="&#x42c;" horiz-adv-x="604" 
d="M56 0v700h105v-248h156q126 0 191 -59.5t65 -165.5q0 -107 -65 -167t-191 -60h-261zM161 91h156q71 0 107.5 35t36.5 101q0 65 -36.5 99.5t-107.5 34.5h-156v-270z" />
    <glyph glyph-name="uni042D" unicode="&#x42d;" horiz-adv-x="671" 
d="M289 315v86h233q-11 103 -65.5 160.5t-144.5 57.5q-69 0 -116 -34.5t-63 -101.5h-102q15 111 90 168.5t188 57.5q147 0 234 -94t87 -265q0 -172 -87 -266t-233 -94q-114 0 -189 57.5t-90 169.5h102q16 -68 63 -102.5t116 -34.5q93 0 148.5 62t63.5 173h-235z" />
    <glyph glyph-name="uni042E" unicode="&#x42e;" horiz-adv-x="949" 
d="M56 0v700h104v-312h104q11 150 99 235.5t223 85.5q144 0 233 -96t89 -263t-89 -263.5t-233 -96.5q-133 0 -220.5 83t-100.5 229h-105v-302h-104zM369 350q0 -128 59 -199t158 -71q98 0 157 71t59 199t-59 198.5t-157 70.5q-99 0 -158 -70.5t-59 -198.5z" />
    <glyph glyph-name="uni042F" unicode="&#x42f;" horiz-adv-x="610" 
d="M554 0h-104v258h-164l-151 -258h-104l160 271q-76 20 -115 74t-39 133q0 104 64 163t189 59h264v-700zM143 478q0 -62 38 -95.5t113 -33.5h156v260h-156q-75 0 -113 -34t-38 -97z" />
    <glyph glyph-name="uni0430" unicode="&#x430;" horiz-adv-x="536" 
d="M198 -10q-74 0 -120.5 35.5t-46.5 104.5q0 68 46 101.5t130 45.5l107 14q39 6 54 16t15 29v19q0 54 -28.5 76.5t-83.5 22.5q-113 0 -113 -87v-8h-96v17q0 154 213 154q109 0 159 -41.5t50 -130.5v-259q0 -20 7.5 -27t24.5 -7v-61q-14 -10 -43 -10q-38 0 -61.5 18
t-23.5 55v27h-4q-11 -34 -59 -69t-127 -35zM131 142q0 -37 26 -56.5t73 -19.5q71 0 112 38t41 73v81q-5 -17 -65 -25l-87 -13q-100 -14 -100 -78z" />
    <glyph glyph-name="uni0431" unicode="&#x431;" horiz-adv-x="565" 
d="M287 -9q-45 0 -86.5 16.5t-78.5 50.5t-59 95.5t-22 142.5v159q0 245 226 245h58q53 0 77 22h92q-20 -57 -55.5 -79.5t-106.5 -22.5h-65q-61 0 -95.5 -35t-34.5 -93v-61q17 42 63.5 67t102.5 25q42 0 81.5 -15.5t73.5 -46t55 -83t21 -120.5q0 -69 -22.5 -122.5t-59 -83.5
t-78.5 -45.5t-87 -15.5zM138 258q0 -90 43.5 -137t106.5 -47t107 47t44 137q0 92 -44 139.5t-107 47.5t-106.5 -47.5t-43.5 -139.5z" />
    <glyph glyph-name="uni0432" unicode="&#x432;" horiz-adv-x="565" 
d="M56 0v520h259q83 0 131 -33.5t48 -94.5q0 -77 -74 -104q114 -32 114 -138q0 -73 -56.5 -111.5t-151.5 -38.5h-270zM157 83h154q123 0 123 80q0 83 -122 83h-155v-163zM157 308h152q92 0 92 65q0 64 -92 64h-152v-129z" />
    <glyph glyph-name="uni0433" unicode="&#x433;" horiz-adv-x="421" 
d="M56 0v520h345v-80h-244v-440h-101z" />
    <glyph glyph-name="uni0434" unicode="&#x434;" horiz-adv-x="611" 
d="M113 0v-61h-92v141h38q32 35 40 103t8 212v125h443v-440h40v-141h-92v61h-385zM157 80h292v360h-241v-45q0 -142 -9 -211t-42 -104z" />
    <glyph glyph-name="uni0435" unicode="&#x435;" horiz-adv-x="547" 
d="M283 -10q-112 0 -182 67.5t-70 201.5q0 136 70 203.5t178 67.5q106 0 171.5 -66t65.5 -197q0 -23 -3 -39h-385q12 -159 156 -159q105 0 135 84h90q-22 -83 -82 -123t-144 -40zM129 304h291q-2 69 -39 108t-103 39q-64 0 -103 -37t-46 -110z" />
    <glyph glyph-name="uni0436" unicode="&#x436;" horiz-adv-x="791" 
d="M655 0l-209 215v-215h-101v215l-209 -215h-125l258 261l-251 259h125l202 -212v212h101v-212l202 212h125l-251 -259l258 -261h-125z" />
    <glyph glyph-name="uni0437" unicode="&#x437;" horiz-adv-x="516" 
d="M254 -9q-109 0 -166 50.5t-57 142.5h91q0 -53 35 -85.5t100 -32.5q56 0 89.5 24.5t33.5 64.5q0 43 -38.5 67t-110.5 23v56q67 1 97.5 22t30.5 54q0 35 -29 55t-75 20q-52 0 -82.5 -26t-30.5 -69h-92q0 79 54 124.5t151 45.5q90 0 144.5 -38t54.5 -102q0 -46 -28 -73.5
t-70 -37.5q46 -7 85 -38.5t39 -90.5q0 -73 -63.5 -114.5t-162.5 -41.5z" />
    <glyph glyph-name="uni0438" unicode="&#x438;" horiz-adv-x="591" 
d="M56 0v520h101v-382h3l268 382h107v-520h-101v377h-3l-265 -377h-110z" />
    <glyph glyph-name="uni0439" unicode="&#x439;" horiz-adv-x="591" 
d="M56 0v520h101v-382h3l268 382h107v-520h-101v377h-3l-265 -377h-110zM149 715h68q3 -75 79 -75t79 75h68q0 -61 -37 -98.5t-110 -37.5t-110 37.5t-37 98.5z" />
    <glyph glyph-name="uni043A" unicode="&#x43a;" horiz-adv-x="552" 
d="M56 0v520h101v-254l237 254h116l-214 -225l245 -295h-112l-196 228l-76 -80v-148h-101z" />
    <glyph glyph-name="uni043B" unicode="&#x43b;" horiz-adv-x="604" 
d="M15 76q55 -1 85.5 30.5t30.5 113.5v300h417v-520h-100v440h-216v-224q0 -124 -57 -176t-160 -44v80z" />
    <glyph glyph-name="uni043C" unicode="&#x43c;" horiz-adv-x="714" 
d="M56 0v520h116l185 -404l185 404h116v-520h-101v352h-4l-157 -352h-78l-157 352h-4v-352h-101z" />
    <glyph glyph-name="uni043D" unicode="&#x43d;" horiz-adv-x="544" 
d="M56 0v520h101v-209h230v209h101v-520h-101v230h-230v-230h-101z" />
    <glyph glyph-name="uni043E" unicode="&#x43e;" horiz-adv-x="569" 
d="M284 -10q-105 0 -179 69.5t-74 200.5t74 200.5t179 69.5q106 0 180 -69.5t74 -200.5t-74 -200.5t-180 -69.5zM127 260q0 -91 44.5 -138t112.5 -47t113 47t45 138t-45 138t-113 47t-112.5 -47t-44.5 -138z" />
    <glyph glyph-name="uni043F" unicode="&#x43f;" horiz-adv-x="546" 
d="M56 0v520h434v-520h-101v440h-232v-440h-101z" />
    <glyph glyph-name="uni0440" unicode="&#x440;" horiz-adv-x="594" 
d="M56 -190v710h101v-82q23 43 69.5 67.5t104.5 24.5q96 0 164 -68.5t68 -201.5q0 -132 -68 -201t-164 -69q-58 0 -104.5 24.5t-69.5 67.5v-272h-101zM152 260q0 -90 46.5 -137.5t111.5 -47.5q66 0 111.5 47.5t45.5 137.5t-45.5 137.5t-111.5 47.5q-65 0 -111.5 -47.5
t-46.5 -137.5z" />
    <glyph glyph-name="uni0441" unicode="&#x441;" horiz-adv-x="542" 
d="M285 -10q-107 0 -180.5 68t-73.5 201t73.5 202t180.5 69q38 0 72.5 -9t68 -30t56.5 -61t30 -95h-92q-19 109 -136 109q-72 0 -115 -49t-43 -136t43 -135t115 -48q117 0 136 111h92q-6 -56 -29 -96.5t-56.5 -61.5t-68.5 -30t-73 -9z" />
    <glyph glyph-name="uni0442" unicode="&#x442;" horiz-adv-x="493" 
d="M196 0v440h-166v80h433v-80h-166v-440h-101z" />
    <glyph glyph-name="uni0443" unicode="&#x443;" horiz-adv-x="549" 
d="M74 -108q60 -8 91.5 11t48.5 60q14 36 2 69l-195 488h104l149 -397l150 397h104l-220 -550q-40 -100 -93.5 -138t-140.5 -27v87z" />
    <glyph glyph-name="uni0444" unicode="&#x444;" horiz-adv-x="596" 
d="M251 -190v185q-95 14 -157.5 80t-62.5 183t62.5 184t157.5 82v176h95v-177q94 -14 157 -81t63 -184t-63 -183.5t-157 -80.5v-184h-95zM115 258q0 -159 136 -186v374q-63 -13 -99.5 -60t-36.5 -128zM346 72q63 13 99.5 59.5t36.5 126.5q0 81 -36.5 128t-99.5 60v-374z" />
    <glyph glyph-name="uni0445" unicode="&#x445;" horiz-adv-x="543" 
d="M31 0l184 263l-177 257h111l122 -183l123 183h111l-177 -257l184 -263h-111l-130 189l-130 -189h-110z" />
    <glyph glyph-name="uni0446" unicode="&#x446;" horiz-adv-x="595" 
d="M56 0v520h101v-440h232v440h101v-440h50v-220h-97v140h-387z" />
    <glyph glyph-name="uni0447" unicode="&#x447;" horiz-adv-x="552" 
d="M215 135q-82 0 -133 48.5t-51 151.5v185h101v-174q0 -66 32.5 -96t86.5 -30q65 0 104.5 39t39.5 87v174h101v-520h-101v243q-9 -36 -56.5 -72t-123.5 -36z" />
    <glyph glyph-name="uni0448" unicode="&#x448;" horiz-adv-x="771" 
d="M56 0v520h101v-440h181v440h95v-440h181v440h101v-520h-659z" />
    <glyph glyph-name="uni0449" unicode="&#x449;" horiz-adv-x="820" 
d="M668 -140v140h-612v520h101v-440h181v440h95v-440h181v440h101v-440h50v-220h-97z" />
    <glyph glyph-name="uni044A" unicode="&#x44a;" horiz-adv-x="599" 
d="M21 440v80h191v-184h154q98 0 150 -44.5t52 -123.5q0 -80 -52 -124t-150 -44h-255v440h-90zM212 80h150q110 0 110 88t-110 88h-150v-176z" />
    <glyph glyph-name="uni044B" unicode="&#x44b;" horiz-adv-x="726" 
d="M56 0v520h101v-184h154q98 0 150 -44.5t52 -123.5q0 -80 -52 -124t-150 -44h-255zM157 80h150q110 0 110 88t-110 88h-150v-176zM569 0v520h101v-520h-101z" />
    <glyph glyph-name="uni044C" unicode="&#x44c;" horiz-adv-x="544" 
d="M56 0v520h101v-184h154q98 0 150 -44.5t52 -123.5q0 -80 -52 -124t-150 -44h-255zM157 80h150q110 0 110 88t-110 88h-150v-176z" />
    <glyph glyph-name="uni044D" unicode="&#x44d;" horiz-adv-x="543" 
d="M246 233v64h169q-10 70 -51 108.5t-105 38.5q-117 0 -136 -109h-92q7 55 30 95t56.5 61t68 30t72.5 9q107 0 180.5 -69t73.5 -202t-73.5 -201t-180.5 -68q-38 0 -73 9t-68.5 30t-56.5 61.5t-29 96.5h92q19 -111 136 -111q67 0 108.5 41t48.5 116h-170z" />
    <glyph glyph-name="uni044E" unicode="&#x44e;" horiz-adv-x="751" 
d="M46 0v520h101v-220h69q12 112 83.5 171t167.5 59q106 0 180 -69.5t74 -200.5t-74 -200.5t-180 -69.5q-96 0 -167.5 58.5t-83.5 170.5h-69v-219h-101zM310 260q0 -91 44.5 -138t112.5 -47t113 47t45 138t-45 138t-113 47t-112.5 -47t-44.5 -138z" />
    <glyph glyph-name="uni044F" unicode="&#x44f;" horiz-adv-x="549" 
d="M170 191q-65 14 -99.5 55.5t-34.5 105.5q0 80 52 124t150 44h255v-520h-101v184h-123l-124 -184h-107zM132 352q0 -88 110 -88h150v176h-150q-110 0 -110 -88z" />
    <glyph glyph-name="uni0451" unicode="&#x451;" horiz-adv-x="547" 
d="M283 -10q-112 0 -182 67.5t-70 201.5q0 136 70 203.5t178 67.5q106 0 171.5 -66t65.5 -197q0 -23 -3 -39h-385q12 -159 156 -159q105 0 135 84h90q-22 -83 -82 -123t-144 -40zM111 669q0 24 18 41.5t42 17.5t42 -17.5t18 -41.5t-18 -41.5t-42 -17.5t-42 17.5t-18 41.5z
M129 304h291q-2 69 -39 108t-103 39q-64 0 -103 -37t-46 -110zM316 669q0 24 18 41.5t42 17.5t42 -17.5t18 -41.5t-18 -41.5t-42 -17.5t-42 17.5t-18 41.5z" />
    <glyph glyph-name="uni0453" unicode="&#x453;" horiz-adv-x="421" 
d="M56 0v520h345v-80h-244v-440h-101zM165 581l102 134h90l-102 -134h-90z" />
    <glyph glyph-name="uni0454" unicode="&#x454;" horiz-adv-x="542" 
d="M285 -10q-107 0 -180.5 68t-73.5 201t73.5 202t180.5 69q38 0 72.5 -9t68 -30t56.5 -61t30 -95h-92q-19 109 -136 109q-64 0 -105 -38.5t-51 -108.5h169v-64h-170q7 -75 48.5 -116t108.5 -41q117 0 136 111h92q-6 -56 -29 -96.5t-56.5 -61.5t-68.5 -30t-73 -9z" />
    <glyph glyph-name="uni0457" unicode="&#x457;" horiz-adv-x="194" 
d="M46 0v520h101v-520h-101zM-67 669q0 24 18 41.5t42 17.5t42 -17.5t18 -41.5t-18 -41.5t-42 -17.5t-42 17.5t-18 41.5zM138 669q0 24 18 41.5t42 17.5t42 -17.5t18 -41.5t-18 -41.5t-42 -17.5t-42 17.5t-18 41.5z" />
    <glyph glyph-name="uni045C" unicode="&#x45c;" horiz-adv-x="552" 
d="M56 0v520h101v-254l237 254h116l-214 -225l245 -295h-112l-196 228l-76 -80v-148h-101zM228 581l102 134h90l-102 -134h-90z" />
    <glyph glyph-name="uni045E" unicode="&#x45e;" horiz-adv-x="549" 
d="M74 -108q60 -8 91.5 11t48.5 60q14 36 2 69l-195 488h104l149 -397l150 397h104l-220 -550q-40 -100 -93.5 -138t-140.5 -27v87zM127 715h68q3 -75 79 -75t79 75h68q0 -61 -37 -98.5t-110 -37.5t-110 37.5t-37 98.5z" />
    <glyph glyph-name="uni0490" unicode="&#x490;" horiz-adv-x="507" 
d="M56 0v700h320v100h106v-192h-321v-608h-105z" />
    <glyph glyph-name="uni0491" unicode="&#x491;" horiz-adv-x="421" 
d="M56 0v520h257v66h88v-146h-244v-440h-101z" />
    <glyph glyph-name="uni1E0C" unicode="&#x1e0c;" horiz-adv-x="666" 
d="M56 0v700h239q163 0 247 -90t84 -260t-84 -260t-247 -90h-239zM160 91h125q123 0 179 63t56 196q0 134 -56 196.5t-179 62.5h-125v-518zM267 -164q0 27 19.5 46.5t47.5 19.5q27 0 46.5 -19.5t19.5 -46.5q0 -28 -19.5 -47t-46.5 -19q-28 0 -47.5 19t-19.5 47z" />
    <glyph glyph-name="uni1E0D" unicode="&#x1e0d;" horiz-adv-x="594" 
d="M263 -10q-96 0 -164 69t-68 201q0 133 68 201.5t164 68.5q58 0 104.5 -24.5t69.5 -67.5v262h101v-700h-101v82q-23 -43 -69.5 -67.5t-104.5 -24.5zM127 260q0 -90 45.5 -137.5t111.5 -47.5q65 0 111.5 47.5t46.5 137.5t-46.5 137.5t-111.5 47.5q-66 0 -111.5 -47.5
t-45.5 -137.5zM228 -164q0 27 19.5 46.5t47.5 19.5q27 0 46.5 -19.5t19.5 -46.5q0 -28 -19.5 -47t-46.5 -19q-28 0 -47.5 19t-19.5 47z" />
    <glyph glyph-name="uni1E20" unicode="&#x1e20;" horiz-adv-x="702" 
d="M361 -10q-150 0 -235 93.5t-85 264.5q0 173 86.5 267t232.5 94q108 0 182.5 -52t93.5 -150h-103q-36 112 -173 112q-104 0 -159.5 -70.5t-55.5 -197.5q0 -128 56.5 -199.5t160.5 -71.5q86 0 139 50.5t52 152.5h-162v84h265v-56q0 -156 -77.5 -238.5t-217.5 -82.5z
M206 834v61h306v-61h-306z" />
    <glyph glyph-name="uni1E21" unicode="&#x1e21;" horiz-adv-x="588" 
d="M277 -209q-58 0 -106.5 13.5t-86.5 53t-38 101.5h89q2 -42 42 -65.5t98 -23.5q69 0 112.5 35t43.5 106v87h-2q-24 -40 -70.5 -63t-101.5 -23q-95 0 -160.5 65t-65.5 194t66 194t160 65q55 0 101.5 -23t70.5 -63h2v76h101v-509q0 -51 -16.5 -91t-42 -64t-60 -39
t-67.5 -20.5t-69 -5.5zM126 271q0 -85 45 -130t110 -45t110 45.5t45 129.5t-45 129t-110 45t-110 -44.5t-45 -129.5zM134 654v61h306v-61h-306z" />
    <glyph glyph-name="uni1E24" unicode="&#x1e24;" horiz-adv-x="658" 
d="M499 0v302h-339v-302h-104v700h104v-312h339v312h103v-700h-103zM262 -164q0 27 19.5 46.5t47.5 19.5q27 0 46.5 -19.5t19.5 -46.5q0 -28 -19.5 -47t-46.5 -19q-28 0 -47.5 19t-19.5 47z" />
    <glyph glyph-name="uni1E25" unicode="&#x1e25;" 
d="M418 301q0 144 -122 144q-63 0 -101 -38t-38 -106v-301h-101v700h101v-284h3q9 39 53.5 76.5t121.5 37.5q82 0 133 -50.5t51 -155.5v-324h-101v301zM218 -164q0 27 19.5 46.5t47.5 19.5q27 0 46.5 -19.5t19.5 -46.5q0 -28 -19.5 -47t-46.5 -19q-28 0 -47.5 19t-19.5 47z
" />
    <glyph glyph-name="uni1E62" unicode="&#x1e62;" horiz-adv-x="625" 
d="M316 -10q-131 0 -203 59.5t-72 162.5h106q3 -60 45 -97t125 -37q77 0 117.5 31.5t40.5 86.5q0 49 -32 75t-94 38l-94 19q-194 39 -194 188q0 91 66.5 142t184.5 51q119 0 185.5 -52t66.5 -144h-106q-1 50 -39 79t-109 29q-72 0 -106.5 -29t-34.5 -76q0 -81 113 -104
l90 -18q108 -22 160 -68.5t52 -128.5q0 -100 -72 -153.5t-196 -53.5zM241 -164q0 27 19.5 46.5t47.5 19.5q27 0 46.5 -19.5t19.5 -46.5q0 -28 -19.5 -47t-46.5 -19q-28 0 -47.5 19t-19.5 47z" />
    <glyph glyph-name="uni1E63" unicode="&#x1e63;" horiz-adv-x="487" 
d="M243 -10q-98 0 -156.5 41.5t-60.5 123.5h91q11 -87 127 -87q51 0 82.5 19.5t31.5 59.5q0 30 -19 45.5t-59 24.5l-97 22q-142 33 -142 143q0 70 55 109t147 39q94 0 147 -41.5t57 -121.5h-85q-12 85 -118 85q-105 0 -105 -68q0 -53 77 -70l98 -22q71 -17 109 -49t38 -94
q0 -81 -62 -120t-156 -39zM179 -164q0 27 19.5 46.5t47.5 19.5q27 0 46.5 -19.5t19.5 -46.5q0 -28 -19.5 -47t-46.5 -19q-28 0 -47.5 19t-19.5 47z" />
    <glyph glyph-name="uni1E6C" unicode="&#x1e6c;" horiz-adv-x="586" 
d="M241 0v607h-215v93h534v-93h-215v-607h-104zM208 -164q0 27 19.5 46.5t47.5 19.5q27 0 46.5 -19.5t19.5 -46.5q0 -28 -19.5 -47t-46.5 -19q-28 0 -47.5 19t-19.5 47z" />
    <glyph glyph-name="uni1E6D" unicode="&#x1e6d;" horiz-adv-x="343" 
d="M252 -7q-146 0 -146 139v308h-85v80h85v131h101v-131h103v-80h-103v-291q0 -39 16 -56.5t57 -17.5q21 0 37 2v-76q-30 -8 -65 -8zM158 -164q0 27 19.5 46.5t47.5 19.5q27 0 46.5 -19.5t19.5 -46.5q0 -28 -19.5 -47t-46.5 -19q-28 0 -47.5 19t-19.5 47z" />
    <glyph glyph-name="Wgrave" unicode="&#x1e80;" horiz-adv-x="984" 
d="M212 0l-186 700h106l138 -554h5l163 554h109l162 -554h5l138 554h106l-185 -700h-110l-171 568l-171 -568h-109zM358 895h90l102 -134h-90z" />
    <glyph glyph-name="wgrave" unicode="&#x1e81;" horiz-adv-x="806" 
d="M166 0l-145 520h97l109 -419h4l128 419h88l128 -419h4l109 419h97l-146 -520h-114l-122 386l-123 -386h-114zM269 715h90l102 -134h-90z" />
    <glyph glyph-name="Wacute" unicode="&#x1e82;" horiz-adv-x="984" 
d="M212 0l-186 700h106l138 -554h5l163 554h109l162 -554h5l138 554h106l-185 -700h-110l-171 568l-171 -568h-109zM444 761l102 134h90l-102 -134h-90z" />
    <glyph glyph-name="wacute" unicode="&#x1e83;" horiz-adv-x="806" 
d="M166 0l-145 520h97l109 -419h4l128 419h88l128 -419h4l109 419h97l-146 -520h-114l-122 386l-123 -386h-114zM355 581l102 134h90l-102 -134h-90z" />
    <glyph glyph-name="Wdieresis" unicode="&#x1e84;" horiz-adv-x="984" 
d="M212 0l-186 700h106l138 -554h5l163 554h109l162 -554h5l138 554h106l-185 -700h-110l-171 568l-171 -568h-109zM329 849q0 24 18 41.5t42 17.5t42 -17.5t18 -41.5t-18 -41.5t-42 -17.5t-42 17.5t-18 41.5zM534 849q0 24 18 41.5t42 17.5t42 -17.5t18 -41.5t-18 -41.5
t-42 -17.5t-42 17.5t-18 41.5z" />
    <glyph glyph-name="wdieresis" unicode="&#x1e85;" horiz-adv-x="806" 
d="M166 0l-145 520h97l109 -419h4l128 419h88l128 -419h4l109 419h97l-146 -520h-114l-122 386l-123 -386h-114zM240 669q0 24 18 41.5t42 17.5t42 -17.5t18 -41.5t-18 -41.5t-42 -17.5t-42 17.5t-18 41.5zM445 669q0 24 18 41.5t42 17.5t42 -17.5t18 -41.5t-18 -41.5
t-42 -17.5t-42 17.5t-18 41.5z" />
    <glyph glyph-name="uni1E92" unicode="&#x1e92;" horiz-adv-x="614" 
d="M40 0v91l414 518h-400v91h516v-91l-415 -518h419v-91h-534zM247 -164q0 27 19.5 46.5t47.5 19.5q27 0 46.5 -19.5t19.5 -46.5q0 -28 -19.5 -47t-46.5 -19q-28 0 -47.5 19t-19.5 47z" />
    <glyph glyph-name="uni1E93" unicode="&#x1e93;" horiz-adv-x="501" 
d="M40 0v86l301 348h-291v86h411v-86l-301 -348h301v-86h-421zM184 -164q0 27 19.5 46.5t47.5 19.5q27 0 46.5 -19.5t19.5 -46.5q0 -28 -19.5 -47t-46.5 -19q-28 0 -47.5 19t-19.5 47z" />
    <glyph glyph-name="uni1E9E" unicode="&#x1e9e;" horiz-adv-x="692" 
d="M427 -10q-100 0 -153 54.5t-53 153.5h95q0 -48 28.5 -82.5t82.5 -34.5q56 0 85 36.5t29 89.5q0 66 -45.5 105t-129.5 39h-79l163 267h-198q-51 0 -71 -22.5t-20 -70.5v-525h-105v533q0 95 45 136t142 41h360l-174 -277q99 -8 160.5 -66t61.5 -160q0 -99 -59 -158
t-165 -59z" />
    <glyph glyph-name="uni1EA0" unicode="&#x1ea0;" horiz-adv-x="698" 
d="M21 0l263 700h130l263 -700h-109l-59 161h-320l-59 -161h-109zM218 240h262l-128 351h-6zM283 -164q0 27 19.5 46.5t47.5 19.5q27 0 46.5 -19.5t19.5 -46.5q0 -28 -19.5 -47t-46.5 -19q-28 0 -47.5 19t-19.5 47z" />
    <glyph glyph-name="uni1EA1" unicode="&#x1ea1;" horiz-adv-x="546" 
d="M205 -10q-78 0 -126 36t-48 110q0 132 166 152l129 15q64 8 64 31v14q0 59 -28.5 82t-87.5 23t-88 -20t-29 -68v-12h-97v21q0 156 216 156q111 0 163 -43.5t52 -137.5v-349h-95v84h-4q-6 -11 -16.5 -23.5t-32 -30t-57.5 -29t-81 -11.5zM132 141q0 -72 98 -72q76 0 118 38
t42 86v57q-11 -17 -71 -24l-98 -13q-48 -6 -68.5 -23.5t-20.5 -48.5zM207 -164q0 27 19.5 46.5t47.5 19.5q27 0 46.5 -19.5t19.5 -46.5q0 -28 -19.5 -47t-46.5 -19q-28 0 -47.5 19t-19.5 47z" />
    <glyph glyph-name="uni1EA2" unicode="&#x1ea2;" horiz-adv-x="698" 
d="M21 0l263 700h130l263 -700h-109l-59 161h-320l-59 -161h-109zM218 240h262l-128 351h-6zM259 847q0 47 28.5 70.5t67.5 23.5q41 0 71 -25.5t30 -71.5q0 -42 -25.5 -67t-61.5 -29l-28 44q56 2 56 48q0 21 -12 33t-31 12q-38 0 -41 -38h-54z" />
    <glyph glyph-name="uni1EA3" unicode="&#x1ea3;" horiz-adv-x="546" 
d="M205 -10q-78 0 -126 36t-48 110q0 132 166 152l129 15q64 8 64 31v14q0 59 -28.5 82t-87.5 23t-88 -20t-29 -68v-12h-97v21q0 156 216 156q111 0 163 -43.5t52 -137.5v-349h-95v84h-4q-6 -11 -16.5 -23.5t-32 -30t-57.5 -29t-81 -11.5zM132 141q0 -72 98 -72q76 0 118 38
t42 86v57q-11 -17 -71 -24l-98 -13q-48 -6 -68.5 -23.5t-20.5 -48.5zM189 667q0 47 28.5 70.5t67.5 23.5q41 0 71 -25.5t30 -71.5q0 -42 -25.5 -67t-61.5 -29l-28 44q56 2 56 48q0 21 -12 33t-31 12q-38 0 -41 -38h-54z" />
    <glyph glyph-name="uni1EA4" unicode="&#x1ea4;" horiz-adv-x="698" 
d="M21 0l263 700h130l263 -700h-109l-59 161h-320l-59 -161h-109zM180 763l100 132h138l100 -132h-92l-77 103l-77 -103h-92zM218 240h262l-128 351h-6zM473 860l102 134h90l-102 -134h-90z" />
    <glyph glyph-name="uni1EA5" unicode="&#x1ea5;" horiz-adv-x="546" 
d="M205 -10q-78 0 -126 36t-48 110q0 132 166 152l129 15q64 8 64 31v14q0 59 -28.5 82t-87.5 23t-88 -20t-29 -68v-12h-97v21q0 156 216 156q111 0 163 -43.5t52 -137.5v-349h-95v84h-4q-6 -11 -16.5 -23.5t-32 -30t-57.5 -29t-81 -11.5zM111 583l100 132h138l100 -132h-92
l-77 103l-77 -103h-92zM132 141q0 -72 98 -72q76 0 118 38t42 86v57q-11 -17 -71 -24l-98 -13q-48 -6 -68.5 -23.5t-20.5 -48.5zM404 680l102 134h90l-102 -134h-90z" />
    <glyph glyph-name="uni1EA6" unicode="&#x1ea6;" horiz-adv-x="698" 
d="M21 0l263 700h130l263 -700h-109l-59 161h-320l-59 -161h-109zM180 763l100 132h138l100 -132h-92l-77 103l-77 -103h-92zM218 240h262l-128 351h-6zM407 994h90l93 -134h-89z" />
    <glyph glyph-name="uni1EA7" unicode="&#x1ea7;" horiz-adv-x="546" 
d="M205 -10q-78 0 -126 36t-48 110q0 132 166 152l129 15q64 8 64 31v14q0 59 -28.5 82t-87.5 23t-88 -20t-29 -68v-12h-97v21q0 156 216 156q111 0 163 -43.5t52 -137.5v-349h-95v84h-4q-6 -11 -16.5 -23.5t-32 -30t-57.5 -29t-81 -11.5zM111 583l100 132h138l100 -132h-92
l-77 103l-77 -103h-92zM132 141q0 -72 98 -72q76 0 118 38t42 86v57q-11 -17 -71 -24l-98 -13q-48 -6 -68.5 -23.5t-20.5 -48.5zM338 814h90l93 -134h-89z" />
    <glyph glyph-name="uni1EA8" unicode="&#x1ea8;" horiz-adv-x="698" 
d="M21 0l263 700h130l263 -700h-109l-59 161h-320l-59 -161h-109zM180 763l100 132h138l100 -132h-92l-77 103l-77 -103h-92zM218 240h262l-128 351h-6zM385 980q0 47 28.5 70.5t67.5 23.5q41 0 71 -25.5t30 -71.5q0 -42 -25.5 -67t-61.5 -29l-28 44q56 2 56 48q0 21 -12 33
t-31 12q-38 0 -41 -38h-54z" />
    <glyph glyph-name="uni1EA9" unicode="&#x1ea9;" horiz-adv-x="546" 
d="M205 -10q-78 0 -126 36t-48 110q0 132 166 152l129 15q64 8 64 31v14q0 59 -28.5 82t-87.5 23t-88 -20t-29 -68v-12h-97v21q0 156 216 156q111 0 163 -43.5t52 -137.5v-349h-95v84h-4q-6 -11 -16.5 -23.5t-32 -30t-57.5 -29t-81 -11.5zM111 583l100 132h138l100 -132h-92
l-77 103l-77 -103h-92zM132 141q0 -72 98 -72q76 0 118 38t42 86v57q-11 -17 -71 -24l-98 -13q-48 -6 -68.5 -23.5t-20.5 -48.5zM316 800q0 47 28.5 70.5t67.5 23.5q41 0 71 -25.5t30 -71.5q0 -42 -25.5 -67t-61.5 -29l-28 44q56 2 56 48q0 21 -12 33t-31 12q-38 0 -41 -38
h-54z" />
    <glyph glyph-name="uni1EAA" unicode="&#x1eaa;" horiz-adv-x="698" 
d="M21 0l263 700h130l263 -700h-109l-59 161h-320l-59 -161h-109zM180 763l100 132h138l100 -132h-92l-77 103l-77 -103h-92zM187 964q0 49 24 75.5t66 26.5q31 0 55 -16t42.5 -32t36.5 -16q17 0 28 11.5t11 27.5h63q0 -49 -24 -75.5t-67 -26.5q-31 0 -55 16t-42 32t-36 16
q-17 0 -28.5 -11.5t-11.5 -27.5h-62zM218 240h262l-128 351h-6z" />
    <glyph glyph-name="uni1EAB" unicode="&#x1eab;" horiz-adv-x="546" 
d="M205 -10q-78 0 -126 36t-48 110q0 132 166 152l129 15q64 8 64 31v14q0 59 -28.5 82t-87.5 23t-88 -20t-29 -68v-12h-97v21q0 156 216 156q111 0 163 -43.5t52 -137.5v-349h-95v84h-4q-6 -11 -16.5 -23.5t-32 -30t-57.5 -29t-81 -11.5zM111 583l100 132h138l100 -132h-92
l-77 103l-77 -103h-92zM118 784q0 49 24 75.5t66 26.5q31 0 55 -16t42.5 -32t36.5 -16q17 0 28 11.5t11 27.5h63q0 -49 -24 -75.5t-67 -26.5q-31 0 -55 16t-42 32t-36 16q-17 0 -28.5 -11.5t-11.5 -27.5h-62zM132 141q0 -72 98 -72q76 0 118 38t42 86v57q-11 -17 -71 -24
l-98 -13q-48 -6 -68.5 -23.5t-20.5 -48.5z" />
    <glyph glyph-name="uni1EAC" unicode="&#x1eac;" horiz-adv-x="698" 
d="M21 0l263 700h130l263 -700h-109l-59 161h-320l-59 -161h-109zM180 763l100 132h138l100 -132h-92l-77 103l-77 -103h-92zM218 240h262l-128 351h-6zM283 -164q0 27 19.5 46.5t47.5 19.5q27 0 46.5 -19.5t19.5 -46.5q0 -28 -19.5 -47t-46.5 -19q-28 0 -47.5 19t-19.5 47z
" />
    <glyph glyph-name="uni1EAD" unicode="&#x1ead;" horiz-adv-x="546" 
d="M205 -10q-78 0 -126 36t-48 110q0 132 166 152l129 15q64 8 64 31v14q0 59 -28.5 82t-87.5 23t-88 -20t-29 -68v-12h-97v21q0 156 216 156q111 0 163 -43.5t52 -137.5v-349h-95v84h-4q-6 -11 -16.5 -23.5t-32 -30t-57.5 -29t-81 -11.5zM111 583l100 132h138l100 -132h-92
l-77 103l-77 -103h-92zM132 141q0 -72 98 -72q76 0 118 38t42 86v57q-11 -17 -71 -24l-98 -13q-48 -6 -68.5 -23.5t-20.5 -48.5zM207 -164q0 27 19.5 46.5t47.5 19.5q27 0 46.5 -19.5t19.5 -46.5q0 -28 -19.5 -47t-46.5 -19q-28 0 -47.5 19t-19.5 47z" />
    <glyph glyph-name="uni1EAE" unicode="&#x1eae;" horiz-adv-x="698" 
d="M21 0l263 700h130l263 -700h-109l-59 161h-320l-59 -161h-109zM202 895h68q3 -75 79 -75t79 75h68q0 -61 -37 -98.5t-110 -37.5t-110 37.5t-37 98.5zM218 240h262l-128 351h-6zM297 926l102 134h90l-102 -134h-90z" />
    <glyph glyph-name="uni1EAF" unicode="&#x1eaf;" horiz-adv-x="546" 
d="M205 -10q-78 0 -126 36t-48 110q0 132 166 152l129 15q64 8 64 31v14q0 59 -28.5 82t-87.5 23t-88 -20t-29 -68v-12h-97v21q0 156 216 156q111 0 163 -43.5t52 -137.5v-349h-95v84h-4q-6 -11 -16.5 -23.5t-32 -30t-57.5 -29t-81 -11.5zM132 141q0 -72 98 -72q76 0 118 38
t42 86v57q-11 -17 -71 -24l-98 -13q-48 -6 -68.5 -23.5t-20.5 -48.5zM133 715h68q3 -75 79 -75t79 75h68q0 -61 -37 -98.5t-110 -37.5t-110 37.5t-37 98.5zM228 746l102 134h90l-102 -134h-90z" />
    <glyph glyph-name="uni1EB0" unicode="&#x1eb0;" horiz-adv-x="698" 
d="M21 0l263 700h130l263 -700h-109l-59 161h-320l-59 -161h-109zM202 895h68q3 -75 79 -75t79 75h68q0 -61 -37 -98.5t-110 -37.5t-110 37.5t-37 98.5zM205 1060h90l102 -134h-90zM218 240h262l-128 351h-6z" />
    <glyph glyph-name="uni1EB1" unicode="&#x1eb1;" horiz-adv-x="546" 
d="M205 -10q-78 0 -126 36t-48 110q0 132 166 152l129 15q64 8 64 31v14q0 59 -28.5 82t-87.5 23t-88 -20t-29 -68v-12h-97v21q0 156 216 156q111 0 163 -43.5t52 -137.5v-349h-95v84h-4q-6 -11 -16.5 -23.5t-32 -30t-57.5 -29t-81 -11.5zM132 141q0 -72 98 -72q76 0 118 38
t42 86v57q-11 -17 -71 -24l-98 -13q-48 -6 -68.5 -23.5t-20.5 -48.5zM133 715h68q3 -75 79 -75t79 75h68q0 -61 -37 -98.5t-110 -37.5t-110 37.5t-37 98.5zM136 880h90l102 -134h-90z" />
    <glyph glyph-name="uni1EB2" unicode="&#x1eb2;" horiz-adv-x="698" 
d="M21 0l263 700h130l263 -700h-109l-59 161h-320l-59 -161h-109zM202 895h68q3 -75 79 -75t79 75h68q0 -61 -37 -98.5t-110 -37.5t-110 37.5t-37 98.5zM218 240h262l-128 351h-6zM225 979q0 47 28.5 70.5t67.5 23.5q41 0 71 -25.5t30 -71.5q0 -42 -25.5 -67t-61.5 -29
l-28 44q56 2 56 48q0 21 -12 33t-31 12q-38 0 -41 -38h-54z" />
    <glyph glyph-name="uni1EB3" unicode="&#x1eb3;" horiz-adv-x="546" 
d="M205 -10q-78 0 -126 36t-48 110q0 132 166 152l129 15q64 8 64 31v14q0 59 -28.5 82t-87.5 23t-88 -20t-29 -68v-12h-97v21q0 156 216 156q111 0 163 -43.5t52 -137.5v-349h-95v84h-4q-6 -11 -16.5 -23.5t-32 -30t-57.5 -29t-81 -11.5zM132 141q0 -72 98 -72q76 0 118 38
t42 86v57q-11 -17 -71 -24l-98 -13q-48 -6 -68.5 -23.5t-20.5 -48.5zM133 715h68q3 -75 79 -75t79 75h68q0 -61 -37 -98.5t-110 -37.5t-110 37.5t-37 98.5zM156 799q0 47 28.5 70.5t67.5 23.5q41 0 71 -25.5t30 -71.5q0 -42 -25.5 -67t-61.5 -29l-28 44q56 2 56 48
q0 21 -12 33t-31 12q-38 0 -41 -38h-54z" />
    <glyph glyph-name="uni1EB4" unicode="&#x1eb4;" horiz-adv-x="698" 
d="M21 0l263 700h130l263 -700h-109l-59 161h-320l-59 -161h-109zM187 969q0 49 24 75.5t66 26.5q31 0 55 -16t42.5 -32t36.5 -16q17 0 28 11.5t11 27.5h63q0 -49 -24 -75.5t-67 -26.5q-31 0 -55 16t-42 32t-36 16q-17 0 -28.5 -11.5t-11.5 -27.5h-62zM202 895h68
q3 -75 79 -75t79 75h68q0 -61 -37 -98.5t-110 -37.5t-110 37.5t-37 98.5zM218 240h262l-128 351h-6z" />
    <glyph glyph-name="uni1EB5" unicode="&#x1eb5;" horiz-adv-x="546" 
d="M205 -10q-78 0 -126 36t-48 110q0 132 166 152l129 15q64 8 64 31v14q0 59 -28.5 82t-87.5 23t-88 -20t-29 -68v-12h-97v21q0 156 216 156q111 0 163 -43.5t52 -137.5v-349h-95v84h-4q-6 -11 -16.5 -23.5t-32 -30t-57.5 -29t-81 -11.5zM117 789q0 49 24 75.5t66 26.5
q31 0 55 -16t42.5 -32t36.5 -16q17 0 28 11.5t11 27.5h63q0 -49 -24 -75.5t-67 -26.5q-31 0 -55 16t-42 32t-36 16q-17 0 -28.5 -11.5t-11.5 -27.5h-62zM132 141q0 -72 98 -72q76 0 118 38t42 86v57q-11 -17 -71 -24l-98 -13q-48 -6 -68.5 -23.5t-20.5 -48.5zM133 715h68
q3 -75 79 -75t79 75h68q0 -61 -37 -98.5t-110 -37.5t-110 37.5t-37 98.5z" />
    <glyph glyph-name="uni1EB6" unicode="&#x1eb6;" horiz-adv-x="698" 
d="M21 0l263 700h130l263 -700h-109l-59 161h-320l-59 -161h-109zM202 895h68q3 -75 79 -75t79 75h68q0 -61 -37 -98.5t-110 -37.5t-110 37.5t-37 98.5zM218 240h262l-128 351h-6zM283 -164q0 27 19.5 46.5t47.5 19.5q27 0 46.5 -19.5t19.5 -46.5q0 -28 -19.5 -47t-46.5 -19
q-28 0 -47.5 19t-19.5 47z" />
    <glyph glyph-name="uni1EB7" unicode="&#x1eb7;" horiz-adv-x="546" 
d="M205 -10q-78 0 -126 36t-48 110q0 132 166 152l129 15q64 8 64 31v14q0 59 -28.5 82t-87.5 23t-88 -20t-29 -68v-12h-97v21q0 156 216 156q111 0 163 -43.5t52 -137.5v-349h-95v84h-4q-6 -11 -16.5 -23.5t-32 -30t-57.5 -29t-81 -11.5zM132 141q0 -72 98 -72q76 0 118 38
t42 86v57q-11 -17 -71 -24l-98 -13q-48 -6 -68.5 -23.5t-20.5 -48.5zM133 715h68q3 -75 79 -75t79 75h68q0 -61 -37 -98.5t-110 -37.5t-110 37.5t-37 98.5zM207 -164q0 27 19.5 46.5t47.5 19.5q27 0 46.5 -19.5t19.5 -46.5q0 -28 -19.5 -47t-46.5 -19q-28 0 -47.5 19
t-19.5 47z" />
    <glyph glyph-name="uni1EB8" unicode="&#x1eb8;" horiz-adv-x="552" 
d="M56 0v700h455v-91h-351v-210h321v-83h-321v-225h361v-91h-465zM221 -164q0 27 19.5 46.5t47.5 19.5q27 0 46.5 -19.5t19.5 -46.5q0 -28 -19.5 -47t-46.5 -19q-28 0 -47.5 19t-19.5 47z" />
    <glyph glyph-name="uni1EB9" unicode="&#x1eb9;" horiz-adv-x="547" 
d="M283 -10q-112 0 -182 67.5t-70 201.5q0 136 70 203.5t178 67.5q106 0 171.5 -66t65.5 -197q0 -23 -3 -39h-385q12 -159 156 -159q105 0 135 84h90q-22 -83 -82 -123t-144 -40zM129 304h291q-2 69 -39 108t-103 39q-64 0 -103 -37t-46 -110zM208 -164q0 27 19.5 46.5
t47.5 19.5q27 0 46.5 -19.5t19.5 -46.5q0 -28 -19.5 -47t-46.5 -19q-28 0 -47.5 19t-19.5 47z" />
    <glyph glyph-name="uni1EBA" unicode="&#x1eba;" horiz-adv-x="552" 
d="M56 0v700h455v-91h-351v-210h321v-83h-321v-225h361v-91h-465zM197 847q0 47 28.5 70.5t67.5 23.5q41 0 71 -25.5t30 -71.5q0 -42 -25.5 -67t-61.5 -29l-28 44q56 2 56 48q0 21 -12 33t-31 12q-38 0 -41 -38h-54z" />
    <glyph glyph-name="uni1EBB" unicode="&#x1ebb;" horiz-adv-x="547" 
d="M283 -10q-112 0 -182 67.5t-70 201.5q0 136 70 203.5t178 67.5q106 0 171.5 -66t65.5 -197q0 -23 -3 -39h-385q12 -159 156 -159q105 0 135 84h90q-22 -83 -82 -123t-144 -40zM129 304h291q-2 69 -39 108t-103 39q-64 0 -103 -37t-46 -110zM184 667q0 47 28.5 70.5
t67.5 23.5q41 0 71 -25.5t30 -71.5q0 -42 -25.5 -67t-61.5 -29l-28 44q56 2 56 48q0 21 -12 33t-31 12q-38 0 -41 -38h-54z" />
    <glyph glyph-name="uni1EBC" unicode="&#x1ebc;" horiz-adv-x="552" 
d="M56 0v700h455v-91h-351v-210h321v-83h-321v-225h361v-91h-465zM125 804q0 49 24 75.5t66 26.5q31 0 55 -16t42.5 -32t36.5 -16q17 0 28 11.5t11 27.5h63q0 -49 -24 -75.5t-67 -26.5q-31 0 -55 16t-42 32t-36 16q-17 0 -28.5 -11.5t-11.5 -27.5h-62z" />
    <glyph glyph-name="uni1EBD" unicode="&#x1ebd;" horiz-adv-x="547" 
d="M283 -10q-112 0 -182 67.5t-70 201.5q0 136 70 203.5t178 67.5q106 0 171.5 -66t65.5 -197q0 -23 -3 -39h-385q12 -159 156 -159q105 0 135 84h90q-22 -83 -82 -123t-144 -40zM112 624q0 49 24 75.5t66 26.5q31 0 55 -16t42.5 -32t36.5 -16q17 0 28 11.5t11 27.5h63
q0 -49 -24 -75.5t-67 -26.5q-31 0 -55 16t-42 32t-36 16q-17 0 -28.5 -11.5t-11.5 -27.5h-62zM129 304h291q-2 69 -39 108t-103 39q-64 0 -103 -37t-46 -110z" />
    <glyph glyph-name="uni1EBE" unicode="&#x1ebe;" horiz-adv-x="552" 
d="M56 0v700h455v-91h-351v-210h321v-83h-321v-225h361v-91h-465zM119 763l100 132h138l100 -132h-92l-77 103l-77 -103h-92zM411 860l102 134h90l-102 -134h-90z" />
    <glyph glyph-name="uni1EBF" unicode="&#x1ebf;" horiz-adv-x="547" 
d="M283 -10q-112 0 -182 67.5t-70 201.5q0 136 70 203.5t178 67.5q106 0 171.5 -66t65.5 -197q0 -23 -3 -39h-385q12 -159 156 -159q105 0 135 84h90q-22 -83 -82 -123t-144 -40zM106 583l100 132h138l100 -132h-92l-77 103l-77 -103h-92zM129 304h291q-2 69 -39 108
t-103 39q-64 0 -103 -37t-46 -110zM399 680l102 134h90l-102 -134h-90z" />
    <glyph glyph-name="uni1EC0" unicode="&#x1ec0;" horiz-adv-x="552" 
d="M56 0v700h455v-91h-351v-210h321v-83h-321v-225h361v-91h-465zM119 763l100 132h138l100 -132h-92l-77 103l-77 -103h-92zM346 994h90l93 -134h-89z" />
    <glyph glyph-name="uni1EC1" unicode="&#x1ec1;" horiz-adv-x="547" 
d="M283 -10q-112 0 -182 67.5t-70 201.5q0 136 70 203.5t178 67.5q106 0 171.5 -66t65.5 -197q0 -23 -3 -39h-385q12 -159 156 -159q105 0 135 84h90q-22 -83 -82 -123t-144 -40zM106 583l100 132h138l100 -132h-92l-77 103l-77 -103h-92zM129 304h291q-2 69 -39 108
t-103 39q-64 0 -103 -37t-46 -110zM333 814h90l93 -134h-89z" />
    <glyph glyph-name="uni1EC2" unicode="&#x1ec2;" horiz-adv-x="552" 
d="M56 0v700h455v-91h-351v-210h321v-83h-321v-225h361v-91h-465zM119 763l100 132h138l100 -132h-92l-77 103l-77 -103h-92zM324 980q0 47 28.5 70.5t67.5 23.5q41 0 71 -25.5t30 -71.5q0 -42 -25.5 -67t-61.5 -29l-28 44q56 2 56 48q0 21 -12 33t-31 12q-38 0 -41 -38h-54
z" />
    <glyph glyph-name="uni1EC3" unicode="&#x1ec3;" horiz-adv-x="547" 
d="M283 -10q-112 0 -182 67.5t-70 201.5q0 136 70 203.5t178 67.5q106 0 171.5 -66t65.5 -197q0 -23 -3 -39h-385q12 -159 156 -159q105 0 135 84h90q-22 -83 -82 -123t-144 -40zM106 583l100 132h138l100 -132h-92l-77 103l-77 -103h-92zM129 304h291q-2 69 -39 108
t-103 39q-64 0 -103 -37t-46 -110zM311 800q0 47 28.5 70.5t67.5 23.5q41 0 71 -25.5t30 -71.5q0 -42 -25.5 -67t-61.5 -29l-28 44q56 2 56 48q0 21 -12 33t-31 12q-38 0 -41 -38h-54z" />
    <glyph glyph-name="uni1EC4" unicode="&#x1ec4;" horiz-adv-x="552" 
d="M56 0v700h455v-91h-351v-210h321v-83h-321v-225h361v-91h-465zM119 763l100 132h138l100 -132h-92l-77 103l-77 -103h-92zM125 964q0 49 24 75.5t66 26.5q31 0 55 -16t42.5 -32t36.5 -16q17 0 28 11.5t11 27.5h63q0 -49 -24 -75.5t-67 -26.5q-31 0 -55 16t-42 32t-36 16
q-17 0 -28.5 -11.5t-11.5 -27.5h-62z" />
    <glyph glyph-name="uni1EC5" unicode="&#x1ec5;" horiz-adv-x="547" 
d="M283 -10q-112 0 -182 67.5t-70 201.5q0 136 70 203.5t178 67.5q106 0 171.5 -66t65.5 -197q0 -23 -3 -39h-385q12 -159 156 -159q105 0 135 84h90q-22 -83 -82 -123t-144 -40zM106 583l100 132h138l100 -132h-92l-77 103l-77 -103h-92zM113 784q0 49 24 75.5t66 26.5
q31 0 55 -16t42.5 -32t36.5 -16q17 0 28 11.5t11 27.5h63q0 -49 -24 -75.5t-67 -26.5q-31 0 -55 16t-42 32t-36 16q-17 0 -28.5 -11.5t-11.5 -27.5h-62zM129 304h291q-2 69 -39 108t-103 39q-64 0 -103 -37t-46 -110z" />
    <glyph glyph-name="uni1EC6" unicode="&#x1ec6;" horiz-adv-x="552" 
d="M56 0v700h455v-91h-351v-210h321v-83h-321v-225h361v-91h-465zM119 763l100 132h138l100 -132h-92l-77 103l-77 -103h-92zM221 -164q0 27 19.5 46.5t47.5 19.5q27 0 46.5 -19.5t19.5 -46.5q0 -28 -19.5 -47t-46.5 -19q-28 0 -47.5 19t-19.5 47z" />
    <glyph glyph-name="uni1EC7" unicode="&#x1ec7;" horiz-adv-x="547" 
d="M283 -10q-112 0 -182 67.5t-70 201.5q0 136 70 203.5t178 67.5q106 0 171.5 -66t65.5 -197q0 -23 -3 -39h-385q12 -159 156 -159q105 0 135 84h90q-22 -83 -82 -123t-144 -40zM106 583l100 132h138l100 -132h-92l-77 103l-77 -103h-92zM129 304h291q-2 69 -39 108
t-103 39q-64 0 -103 -37t-46 -110zM208 -164q0 27 19.5 46.5t47.5 19.5q27 0 46.5 -19.5t19.5 -46.5q0 -28 -19.5 -47t-46.5 -19q-28 0 -47.5 19t-19.5 47z" />
    <glyph glyph-name="uni1EC8" unicode="&#x1ec8;" horiz-adv-x="215" 
d="M56 0v700h104v-700h-104zM16 847q0 47 28.5 70.5t67.5 23.5q41 0 71 -25.5t30 -71.5q0 -42 -25.5 -67t-61.5 -29l-28 44q56 2 56 48q0 21 -12 33t-31 12q-38 0 -41 -38h-54z" />
    <glyph glyph-name="uni1EC9" unicode="&#x1ec9;" horiz-adv-x="194" 
d="M46 0v520h101v-520h-101zM6 667q0 47 28.5 70.5t67.5 23.5q41 0 71 -25.5t30 -71.5q0 -42 -25.5 -67t-61.5 -29l-28 44q56 2 56 48q0 21 -12 33t-31 12q-38 0 -41 -38h-54z" />
    <glyph glyph-name="uni1ECA" unicode="&#x1eca;" horiz-adv-x="215" 
d="M56 0v700h104v-700h-104zM41 -164q0 27 19.5 46.5t47.5 19.5q27 0 46.5 -19.5t19.5 -46.5q0 -28 -19.5 -47t-46.5 -19q-28 0 -47.5 19t-19.5 47z" />
    <glyph glyph-name="uni1ECB" unicode="&#x1ecb;" horiz-adv-x="213" 
d="M56 0v520h101v-520h-101zM46 670q0 25 18 42.5t42 17.5t42 -17.5t18 -42.5t-18 -42.5t-42 -17.5t-42 17.5t-18 42.5zM50 -164q0 27 19.5 46.5t47.5 19.5q27 0 46.5 -19.5t19.5 -46.5q0 -28 -19.5 -47t-46.5 -19q-28 0 -47.5 19t-19.5 47z" />
    <glyph glyph-name="uni1ECC" unicode="&#x1ecc;" horiz-adv-x="727" 
d="M364 -10q-144 0 -233.5 96.5t-89.5 263.5t89.5 263t233.5 96t233 -96t89 -263t-89 -263.5t-233 -96.5zM147 350q0 -128 59 -199t158 -71q98 0 157 71t59 199t-59 198.5t-157 70.5q-99 0 -158 -70.5t-59 -198.5zM297 -164q0 27 19.5 46.5t47.5 19.5q27 0 46.5 -19.5
t19.5 -46.5q0 -28 -19.5 -47t-46.5 -19q-28 0 -47.5 19t-19.5 47z" />
    <glyph glyph-name="uni1ECD" unicode="&#x1ecd;" horiz-adv-x="569" 
d="M284 -10q-105 0 -179 69.5t-74 200.5t74 200.5t179 69.5q106 0 180 -69.5t74 -200.5t-74 -200.5t-180 -69.5zM127 260q0 -91 44.5 -138t112.5 -47t113 47t45 138t-45 138t-113 47t-112.5 -47t-44.5 -138zM218 -164q0 27 19.5 46.5t47.5 19.5q27 0 46.5 -19.5t19.5 -46.5
q0 -28 -19.5 -47t-46.5 -19q-28 0 -47.5 19t-19.5 47z" />
    <glyph glyph-name="uni1ECE" unicode="&#x1ece;" horiz-adv-x="727" 
d="M364 -10q-144 0 -233.5 96.5t-89.5 263.5t89.5 263t233.5 96t233 -96t89 -263t-89 -263.5t-233 -96.5zM147 350q0 -128 59 -199t158 -71q98 0 157 71t59 199t-59 198.5t-157 70.5q-99 0 -158 -70.5t-59 -198.5zM273 847q0 47 28.5 70.5t67.5 23.5q41 0 71 -25.5t30 -71.5
q0 -42 -25.5 -67t-61.5 -29l-28 44q56 2 56 48q0 21 -12 33t-31 12q-38 0 -41 -38h-54z" />
    <glyph glyph-name="uni1ECF" unicode="&#x1ecf;" horiz-adv-x="569" 
d="M284 -10q-105 0 -179 69.5t-74 200.5t74 200.5t179 69.5q106 0 180 -69.5t74 -200.5t-74 -200.5t-180 -69.5zM127 260q0 -91 44.5 -138t112.5 -47t113 47t45 138t-45 138t-113 47t-112.5 -47t-44.5 -138zM193 667q0 47 28.5 70.5t67.5 23.5q41 0 71 -25.5t30 -71.5
q0 -42 -25.5 -67t-61.5 -29l-28 44q56 2 56 48q0 21 -12 33t-31 12q-38 0 -41 -38h-54z" />
    <glyph glyph-name="uni1ED0" unicode="&#x1ed0;" horiz-adv-x="727" 
d="M364 -10q-144 0 -233.5 96.5t-89.5 263.5t89.5 263t233.5 96t233 -96t89 -263t-89 -263.5t-233 -96.5zM147 350q0 -128 59 -199t158 -71q98 0 157 71t59 199t-59 198.5t-157 70.5q-99 0 -158 -70.5t-59 -198.5zM194 763l100 132h138l100 -132h-92l-77 103l-77 -103h-92z
M487 860l102 134h90l-102 -134h-90z" />
    <glyph glyph-name="uni1ED1" unicode="&#x1ed1;" horiz-adv-x="569" 
d="M284 -10q-105 0 -179 69.5t-74 200.5t74 200.5t179 69.5q106 0 180 -69.5t74 -200.5t-74 -200.5t-180 -69.5zM115 583l100 132h138l100 -132h-92l-77 103l-77 -103h-92zM127 260q0 -91 44.5 -138t112.5 -47t113 47t45 138t-45 138t-113 47t-112.5 -47t-44.5 -138z
M408 680l102 134h90l-102 -134h-90z" />
    <glyph glyph-name="uni1ED2" unicode="&#x1ed2;" horiz-adv-x="727" 
d="M364 -10q-144 0 -233.5 96.5t-89.5 263.5t89.5 263t233.5 96t233 -96t89 -263t-89 -263.5t-233 -96.5zM147 350q0 -128 59 -199t158 -71q98 0 157 71t59 199t-59 198.5t-157 70.5q-99 0 -158 -70.5t-59 -198.5zM194 763l100 132h138l100 -132h-92l-77 103l-77 -103h-92z
M421 994h90l93 -134h-89z" />
    <glyph glyph-name="uni1ED3" unicode="&#x1ed3;" horiz-adv-x="569" 
d="M284 -10q-105 0 -179 69.5t-74 200.5t74 200.5t179 69.5q106 0 180 -69.5t74 -200.5t-74 -200.5t-180 -69.5zM115 583l100 132h138l100 -132h-92l-77 103l-77 -103h-92zM127 260q0 -91 44.5 -138t112.5 -47t113 47t45 138t-45 138t-113 47t-112.5 -47t-44.5 -138z
M342 814h90l93 -134h-89z" />
    <glyph glyph-name="uni1ED4" unicode="&#x1ed4;" horiz-adv-x="727" 
d="M364 -10q-144 0 -233.5 96.5t-89.5 263.5t89.5 263t233.5 96t233 -96t89 -263t-89 -263.5t-233 -96.5zM147 350q0 -128 59 -199t158 -71q98 0 157 71t59 199t-59 198.5t-157 70.5q-99 0 -158 -70.5t-59 -198.5zM194 763l100 132h138l100 -132h-92l-77 103l-77 -103h-92z
M399 980q0 47 28.5 70.5t67.5 23.5q41 0 71 -25.5t30 -71.5q0 -42 -25.5 -67t-61.5 -29l-28 44q56 2 56 48q0 21 -12 33t-31 12q-38 0 -41 -38h-54z" />
    <glyph glyph-name="uni1ED5" unicode="&#x1ed5;" horiz-adv-x="569" 
d="M284 -10q-105 0 -179 69.5t-74 200.5t74 200.5t179 69.5q106 0 180 -69.5t74 -200.5t-74 -200.5t-180 -69.5zM115 583l100 132h138l100 -132h-92l-77 103l-77 -103h-92zM127 260q0 -91 44.5 -138t112.5 -47t113 47t45 138t-45 138t-113 47t-112.5 -47t-44.5 -138z
M320 800q0 47 28.5 70.5t67.5 23.5q41 0 71 -25.5t30 -71.5q0 -42 -25.5 -67t-61.5 -29l-28 44q56 2 56 48q0 21 -12 33t-31 12q-38 0 -41 -38h-54z" />
    <glyph glyph-name="uni1ED6" unicode="&#x1ed6;" horiz-adv-x="727" 
d="M364 -10q-144 0 -233.5 96.5t-89.5 263.5t89.5 263t233.5 96t233 -96t89 -263t-89 -263.5t-233 -96.5zM147 350q0 -128 59 -199t158 -71q98 0 157 71t59 199t-59 198.5t-157 70.5q-99 0 -158 -70.5t-59 -198.5zM194 763l100 132h138l100 -132h-92l-77 103l-77 -103h-92z
M201 964q0 49 24 75.5t66 26.5q31 0 55 -16t42.5 -32t36.5 -16q17 0 28 11.5t11 27.5h63q0 -49 -24 -75.5t-67 -26.5q-31 0 -55 16t-42 32t-36 16q-17 0 -28.5 -11.5t-11.5 -27.5h-62z" />
    <glyph glyph-name="uni1ED7" unicode="&#x1ed7;" horiz-adv-x="569" 
d="M284 -10q-105 0 -179 69.5t-74 200.5t74 200.5t179 69.5q106 0 180 -69.5t74 -200.5t-74 -200.5t-180 -69.5zM115 583l100 132h138l100 -132h-92l-77 103l-77 -103h-92zM122 784q0 49 24 75.5t66 26.5q31 0 55 -16t42.5 -32t36.5 -16q17 0 28 11.5t11 27.5h63
q0 -49 -24 -75.5t-67 -26.5q-31 0 -55 16t-42 32t-36 16q-17 0 -28.5 -11.5t-11.5 -27.5h-62zM127 260q0 -91 44.5 -138t112.5 -47t113 47t45 138t-45 138t-113 47t-112.5 -47t-44.5 -138z" />
    <glyph glyph-name="uni1ED8" unicode="&#x1ed8;" horiz-adv-x="727" 
d="M364 -10q-144 0 -233.5 96.5t-89.5 263.5t89.5 263t233.5 96t233 -96t89 -263t-89 -263.5t-233 -96.5zM147 350q0 -128 59 -199t158 -71q98 0 157 71t59 199t-59 198.5t-157 70.5q-99 0 -158 -70.5t-59 -198.5zM194 763l100 132h138l100 -132h-92l-77 103l-77 -103h-92z
M297 -164q0 27 19.5 46.5t47.5 19.5q27 0 46.5 -19.5t19.5 -46.5q0 -28 -19.5 -47t-46.5 -19q-28 0 -47.5 19t-19.5 47z" />
    <glyph glyph-name="uni1ED9" unicode="&#x1ed9;" horiz-adv-x="569" 
d="M284 -10q-105 0 -179 69.5t-74 200.5t74 200.5t179 69.5q106 0 180 -69.5t74 -200.5t-74 -200.5t-180 -69.5zM115 583l100 132h138l100 -132h-92l-77 103l-77 -103h-92zM127 260q0 -91 44.5 -138t112.5 -47t113 47t45 138t-45 138t-113 47t-112.5 -47t-44.5 -138z
M218 -164q0 27 19.5 46.5t47.5 19.5q27 0 46.5 -19.5t19.5 -46.5q0 -28 -19.5 -47t-46.5 -19q-28 0 -47.5 19t-19.5 47z" />
    <glyph glyph-name="uni1EDA" unicode="&#x1eda;" horiz-adv-x="727" 
d="M364 -10q-144 0 -233.5 96.5t-89.5 263.5t89.5 263t233.5 96h233v79h87v-158h-104q106 -98 106 -280q0 -167 -89 -263.5t-233 -96.5zM147 350q0 -128 59 -199t158 -71q98 0 157 71t59 199t-59 198.5t-157 70.5q-99 0 -158 -70.5t-59 -198.5zM311 761l102 134h90
l-102 -134h-90z" />
    <glyph glyph-name="uni1EDB" unicode="&#x1edb;" horiz-adv-x="569" 
d="M284 -10q-105 0 -179 69.5t-74 200.5t74 200.5t179 69.5h169v78h82v-156h-63q66 -73 66 -192q0 -131 -74 -200.5t-180 -69.5zM127 260q0 -91 44.5 -138t112.5 -47t113 47t45 138t-45 138t-113 47t-112.5 -47t-44.5 -138zM232 581l102 134h90l-102 -134h-90z" />
    <glyph glyph-name="uni1EDC" unicode="&#x1edc;" horiz-adv-x="727" 
d="M364 -10q-144 0 -233.5 96.5t-89.5 263.5t89.5 263t233.5 96h233v79h87v-158h-104q106 -98 106 -280q0 -167 -89 -263.5t-233 -96.5zM147 350q0 -128 59 -199t158 -71q98 0 157 71t59 199t-59 198.5t-157 70.5q-99 0 -158 -70.5t-59 -198.5zM219 895h90l102 -134h-90z
" />
    <glyph glyph-name="uni1EDD" unicode="&#x1edd;" horiz-adv-x="569" 
d="M284 -10q-105 0 -179 69.5t-74 200.5t74 200.5t179 69.5h169v78h82v-156h-63q66 -73 66 -192q0 -131 -74 -200.5t-180 -69.5zM127 260q0 -91 44.5 -138t112.5 -47t113 47t45 138t-45 138t-113 47t-112.5 -47t-44.5 -138zM140 715h90l102 -134h-90z" />
    <glyph glyph-name="uni1EDE" unicode="&#x1ede;" horiz-adv-x="727" 
d="M364 -10q-144 0 -233.5 96.5t-89.5 263.5t89.5 263t233.5 96h233v79h87v-158h-104q106 -98 106 -280q0 -167 -89 -263.5t-233 -96.5zM147 350q0 -128 59 -199t158 -71q98 0 157 71t59 199t-59 198.5t-157 70.5q-99 0 -158 -70.5t-59 -198.5zM273 847q0 47 28.5 70.5
t67.5 23.5q41 0 71 -25.5t30 -71.5q0 -42 -25.5 -67t-61.5 -29l-28 44q56 2 56 48q0 21 -12 33t-31 12q-38 0 -41 -38h-54z" />
    <glyph glyph-name="uni1EDF" unicode="&#x1edf;" horiz-adv-x="569" 
d="M284 -10q-105 0 -179 69.5t-74 200.5t74 200.5t179 69.5h169v78h82v-156h-63q66 -73 66 -192q0 -131 -74 -200.5t-180 -69.5zM127 260q0 -91 44.5 -138t112.5 -47t113 47t45 138t-45 138t-113 47t-112.5 -47t-44.5 -138zM193 667q0 47 28.5 70.5t67.5 23.5q41 0 71 -25.5
t30 -71.5q0 -42 -25.5 -67t-61.5 -29l-28 44q56 2 56 48q0 21 -12 33t-31 12q-38 0 -41 -38h-54z" />
    <glyph glyph-name="uni1EE0" unicode="&#x1ee0;" horiz-adv-x="727" 
d="M364 -10q-144 0 -233.5 96.5t-89.5 263.5t89.5 263t233.5 96h233v79h87v-158h-104q106 -98 106 -280q0 -167 -89 -263.5t-233 -96.5zM147 350q0 -128 59 -199t158 -71q98 0 157 71t59 199t-59 198.5t-157 70.5q-99 0 -158 -70.5t-59 -198.5zM201 804q0 49 24 75.5
t66 26.5q31 0 55 -16t42.5 -32t36.5 -16q17 0 28 11.5t11 27.5h63q0 -49 -24 -75.5t-67 -26.5q-31 0 -55 16t-42 32t-36 16q-17 0 -28.5 -11.5t-11.5 -27.5h-62z" />
    <glyph glyph-name="uni1EE1" unicode="&#x1ee1;" horiz-adv-x="569" 
d="M284 -10q-105 0 -179 69.5t-74 200.5t74 200.5t179 69.5h169v78h82v-156h-63q66 -73 66 -192q0 -131 -74 -200.5t-180 -69.5zM122 624q0 49 24 75.5t66 26.5q31 0 55 -16t42.5 -32t36.5 -16q17 0 28 11.5t11 27.5h63q0 -49 -24 -75.5t-67 -26.5q-31 0 -55 16t-42 32
t-36 16q-17 0 -28.5 -11.5t-11.5 -27.5h-62zM127 260q0 -91 44.5 -138t112.5 -47t113 47t45 138t-45 138t-113 47t-112.5 -47t-44.5 -138z" />
    <glyph glyph-name="uni1EE2" unicode="&#x1ee2;" horiz-adv-x="727" 
d="M364 -10q-144 0 -233.5 96.5t-89.5 263.5t89.5 263t233.5 96h233v79h87v-158h-104q106 -98 106 -280q0 -167 -89 -263.5t-233 -96.5zM147 350q0 -128 59 -199t158 -71q98 0 157 71t59 199t-59 198.5t-157 70.5q-99 0 -158 -70.5t-59 -198.5zM297 -164q0 27 19.5 46.5
t47.5 19.5q27 0 46.5 -19.5t19.5 -46.5q0 -28 -19.5 -47t-46.5 -19q-28 0 -47.5 19t-19.5 47z" />
    <glyph glyph-name="uni1EE3" unicode="&#x1ee3;" horiz-adv-x="569" 
d="M284 -10q-105 0 -179 69.5t-74 200.5t74 200.5t179 69.5h169v78h82v-156h-63q66 -73 66 -192q0 -131 -74 -200.5t-180 -69.5zM127 260q0 -91 44.5 -138t112.5 -47t113 47t45 138t-45 138t-113 47t-112.5 -47t-44.5 -138zM218 -164q0 27 19.5 46.5t47.5 19.5
q27 0 46.5 -19.5t19.5 -46.5q0 -28 -19.5 -47t-46.5 -19q-28 0 -47.5 19t-19.5 47z" />
    <glyph glyph-name="uni1EE4" unicode="&#x1ee4;" horiz-adv-x="662" 
d="M331 -10q-128 0 -201.5 71t-73.5 204v435h104v-428q0 -92 45 -141.5t126 -49.5t126 49.5t45 141.5v428h105v-435q0 -132 -74.5 -203.5t-201.5 -71.5zM265 -164q0 27 19.5 46.5t47.5 19.5q27 0 46.5 -19.5t19.5 -46.5q0 -28 -19.5 -47t-46.5 -19q-28 0 -47.5 19t-19.5 47z
" />
    <glyph glyph-name="uni1EE5" unicode="&#x1ee5;" 
d="M157 219q0 -144 122 -144q63 0 101 38t38 106v301h101v-520h-101v104h-3q-9 -39 -53.5 -76.5t-121.5 -37.5q-82 0 -133 50.5t-51 155.5v324h101v-301zM224 -164q0 27 19.5 46.5t47.5 19.5q27 0 46.5 -19.5t19.5 -46.5q0 -28 -19.5 -47t-46.5 -19q-28 0 -47.5 19t-19.5 47
z" />
    <glyph glyph-name="uni1EE6" unicode="&#x1ee6;" horiz-adv-x="662" 
d="M331 -10q-128 0 -201.5 71t-73.5 204v435h104v-428q0 -92 45 -141.5t126 -49.5t126 49.5t45 141.5v428h105v-435q0 -132 -74.5 -203.5t-201.5 -71.5zM234 847q0 47 28.5 70.5t67.5 23.5q41 0 71 -25.5t30 -71.5q0 -42 -25.5 -67t-61.5 -29l-28 44q56 2 56 48q0 21 -12 33
t-31 12q-38 0 -41 -38h-54z" />
    <glyph glyph-name="uni1EE7" unicode="&#x1ee7;" 
d="M157 219q0 -144 122 -144q63 0 101 38t38 106v301h101v-520h-101v104h-3q-9 -39 -53.5 -76.5t-121.5 -37.5q-82 0 -133 50.5t-51 155.5v324h101v-301zM193 667q0 47 28.5 70.5t67.5 23.5q41 0 71 -25.5t30 -71.5q0 -42 -25.5 -67t-61.5 -29l-28 44q56 2 56 48
q0 21 -12 33t-31 12q-38 0 -41 -38h-54z" />
    <glyph glyph-name="uni1EE8" unicode="&#x1ee8;" horiz-adv-x="662" 
d="M331 -10q-128 0 -201.5 71t-73.5 204v435h104v-428q0 -92 45 -141.5t126 -49.5t126 49.5t45 141.5v428h122v88h87v-168h-104v-355q0 -132 -74.5 -203.5t-201.5 -71.5zM279 761l102 134h90l-102 -134h-90z" />
    <glyph glyph-name="uni1EE9" unicode="&#x1ee9;" 
d="M157 219q0 -144 122 -144q63 0 101 38t38 106v301h122v88h87v-168h-108v-440h-101v104h-3q-9 -39 -53.5 -76.5t-121.5 -37.5q-82 0 -133 50.5t-51 155.5v324h101v-301zM235 581l102 134h90l-102 -134h-90z" />
    <glyph glyph-name="uni1EEA" unicode="&#x1eea;" horiz-adv-x="662" 
d="M331 -10q-128 0 -201.5 71t-73.5 204v435h104v-428q0 -92 45 -141.5t126 -49.5t126 49.5t45 141.5v428h122v88h87v-168h-104v-355q0 -132 -74.5 -203.5t-201.5 -71.5zM187 895h90l102 -134h-90z" />
    <glyph glyph-name="uni1EEB" unicode="&#x1eeb;" 
d="M157 219q0 -144 122 -144q63 0 101 38t38 106v301h122v88h87v-168h-108v-440h-101v104h-3q-9 -39 -53.5 -76.5t-121.5 -37.5q-82 0 -133 50.5t-51 155.5v324h101v-301zM143 715h90l102 -134h-90z" />
    <glyph glyph-name="uni1EEC" unicode="&#x1eec;" horiz-adv-x="662" 
d="M331 -10q-128 0 -201.5 71t-73.5 204v435h104v-428q0 -92 45 -141.5t126 -49.5t126 49.5t45 141.5v428h122v88h87v-168h-104v-355q0 -132 -74.5 -203.5t-201.5 -71.5zM240 847q0 47 28.5 70.5t67.5 23.5q41 0 71 -25.5t30 -71.5q0 -42 -25.5 -67t-61.5 -29l-28 44
q56 2 56 48q0 21 -12 33t-31 12q-38 0 -41 -38h-54z" />
    <glyph glyph-name="uni1EED" unicode="&#x1eed;" 
d="M157 219q0 -144 122 -144q63 0 101 38t38 106v301h122v88h87v-168h-108v-440h-101v104h-3q-9 -39 -53.5 -76.5t-121.5 -37.5q-82 0 -133 50.5t-51 155.5v324h101v-301zM197 667q0 47 28.5 70.5t67.5 23.5q41 0 71 -25.5t30 -71.5q0 -42 -25.5 -67t-61.5 -29l-28 44
q56 2 56 48q0 21 -12 33t-31 12q-38 0 -41 -38h-54z" />
    <glyph glyph-name="uni1EEE" unicode="&#x1eee;" horiz-adv-x="662" 
d="M331 -10q-128 0 -201.5 71t-73.5 204v435h104v-428q0 -92 45 -141.5t126 -49.5t126 49.5t45 141.5v428h122v88h87v-168h-104v-355q0 -132 -74.5 -203.5t-201.5 -71.5zM168 804q0 49 24 75.5t66 26.5q31 0 55 -16t42.5 -32t36.5 -16q17 0 28 11.5t11 27.5h63
q0 -49 -24 -75.5t-67 -26.5q-31 0 -55 16t-42 32t-36 16q-17 0 -28.5 -11.5t-11.5 -27.5h-62z" />
    <glyph glyph-name="uni1EEF" unicode="&#x1eef;" 
d="M157 219q0 -144 122 -144q63 0 101 38t38 106v301h122v88h87v-168h-108v-440h-101v104h-3q-9 -39 -53.5 -76.5t-121.5 -37.5q-82 0 -133 50.5t-51 155.5v324h101v-301zM125 624q0 49 24 75.5t66 26.5q31 0 55 -16t42.5 -32t36.5 -16q17 0 28 11.5t11 27.5h63
q0 -49 -24 -75.5t-67 -26.5q-31 0 -55 16t-42 32t-36 16q-17 0 -28.5 -11.5t-11.5 -27.5h-62z" />
    <glyph glyph-name="uni1EF0" unicode="&#x1ef0;" horiz-adv-x="662" 
d="M331 -10q-128 0 -201.5 71t-73.5 204v435h104v-428q0 -92 45 -141.5t126 -49.5t126 49.5t45 141.5v428h122v88h87v-168h-104v-355q0 -132 -74.5 -203.5t-201.5 -71.5zM265 -164q0 27 19.5 46.5t47.5 19.5q27 0 46.5 -19.5t19.5 -46.5q0 -28 -19.5 -47t-46.5 -19
q-28 0 -47.5 19t-19.5 47z" />
    <glyph glyph-name="uni1EF1" unicode="&#x1ef1;" 
d="M157 219q0 -144 122 -144q63 0 101 38t38 106v301h122v88h87v-168h-108v-440h-101v104h-3q-9 -39 -53.5 -76.5t-121.5 -37.5q-82 0 -133 50.5t-51 155.5v324h101v-301zM221 -164q0 27 19.5 46.5t47.5 19.5q27 0 46.5 -19.5t19.5 -46.5q0 -28 -19.5 -47t-46.5 -19
q-28 0 -47.5 19t-19.5 47z" />
    <glyph glyph-name="Ygrave" unicode="&#x1ef2;" horiz-adv-x="669" 
d="M281 0v268l-255 432h117l191 -331l192 331h117l-255 -432v-268h-107zM200 895h90l102 -134h-90z" />
    <glyph glyph-name="ygrave" unicode="&#x1ef3;" horiz-adv-x="549" 
d="M74 -108q60 -8 91.5 11t48.5 60q14 36 2 69l-195 488h104l149 -397l150 397h104l-220 -550q-40 -100 -93.5 -138t-140.5 -27v87zM141 715h90l102 -134h-90z" />
    <glyph glyph-name="uni1EF4" unicode="&#x1ef4;" horiz-adv-x="669" 
d="M281 0v268l-255 432h117l191 -331l192 331h117l-255 -432v-268h-107zM268 -164q0 27 19.5 46.5t47.5 19.5q27 0 46.5 -19.5t19.5 -46.5q0 -28 -19.5 -47t-46.5 -19q-28 0 -47.5 19t-19.5 47z" />
    <glyph glyph-name="uni1EF5" unicode="&#x1ef5;" horiz-adv-x="549" 
d="M74 -108q60 -8 91.5 11t48.5 60q14 36 2 69l-195 488h104l149 -397l150 397h104l-220 -550q-40 -100 -93.5 -138t-140.5 -27v87zM331 -164q0 27 19.5 46.5t47.5 19.5q27 0 46.5 -19.5t19.5 -46.5q0 -28 -19.5 -47t-46.5 -19q-28 0 -47.5 19t-19.5 47z" />
    <glyph glyph-name="uni1EF6" unicode="&#x1ef6;" horiz-adv-x="669" 
d="M281 0v268l-255 432h117l191 -331l192 331h117l-255 -432v-268h-107zM244 847q0 47 28.5 70.5t67.5 23.5q41 0 71 -25.5t30 -71.5q0 -42 -25.5 -67t-61.5 -29l-28 44q56 2 56 48q0 21 -12 33t-31 12q-38 0 -41 -38h-54z" />
    <glyph glyph-name="uni1EF7" unicode="&#x1ef7;" horiz-adv-x="549" 
d="M74 -108q60 -8 91.5 11t48.5 60q14 36 2 69l-195 488h104l149 -397l150 397h104l-220 -550q-40 -100 -93.5 -138t-140.5 -27v87zM184 667q0 47 28.5 70.5t67.5 23.5q41 0 71 -25.5t30 -71.5q0 -42 -25.5 -67t-61.5 -29l-28 44q56 2 56 48q0 21 -12 33t-31 12
q-38 0 -41 -38h-54z" />
    <glyph glyph-name="uni1EF8" unicode="&#x1ef8;" horiz-adv-x="669" 
d="M281 0v268l-255 432h117l191 -331l192 331h117l-255 -432v-268h-107zM172 804q0 49 24 75.5t66 26.5q31 0 55 -16t42.5 -32t36.5 -16q17 0 28 11.5t11 27.5h63q0 -49 -24 -75.5t-67 -26.5q-31 0 -55 16t-42 32t-36 16q-17 0 -28.5 -11.5t-11.5 -27.5h-62z" />
    <glyph glyph-name="uni1EF9" unicode="&#x1ef9;" horiz-adv-x="549" 
d="M74 -108q60 -8 91.5 11t48.5 60q14 36 2 69l-195 488h104l149 -397l150 397h104l-220 -550q-40 -100 -93.5 -138t-140.5 -27v87zM113 624q0 49 24 75.5t66 26.5q31 0 55 -16t42.5 -32t36.5 -16q17 0 28 11.5t11 27.5h63q0 -49 -24 -75.5t-67 -26.5q-31 0 -55 16t-42 32
t-36 16q-17 0 -28.5 -11.5t-11.5 -27.5h-62z" />
    <glyph glyph-name="endash" unicode="&#x2013;" horiz-adv-x="600" 
d="M45 240v77h510v-77h-510z" />
    <glyph glyph-name="emdash" unicode="&#x2014;" horiz-adv-x="660" 
d="M45 240v77h570v-77h-570z" />
    <glyph glyph-name="quoteleft" unicode="&#x2018;" horiz-adv-x="218" 
d="M161 661q-34 -1 -49 -16t-15 -44q37 0 58.5 -19t21.5 -48q0 -27 -18.5 -45t-47.5 -18q-33 0 -54 25.5t-21 76.5q0 62 32 97.5t85 35.5h8v-45z" />
    <glyph glyph-name="quoteright" unicode="&#x2019;" horiz-adv-x="218" 
d="M57 519q34 1 49 16t15 44q-37 0 -58.5 19t-21.5 48q0 27 18.5 45t46.5 18q34 0 55 -25.5t21 -76.5q0 -62 -32 -97.5t-85 -35.5h-8v45z" />
    <glyph glyph-name="quotesinglbase" unicode="&#x201a;" horiz-adv-x="223" 
d="M57 -68q34 1 49 16t15 44q-37 0 -58.5 19t-21.5 48q0 27 18.5 45t46.5 18q34 0 55 -25.5t21 -76.5q0 -62 -32 -97.5t-85 -35.5h-8v45z" />
    <glyph glyph-name="quotedblleft" unicode="&#x201c;" horiz-adv-x="396" 
d="M161 661q-34 -1 -49 -16t-15 -44q37 0 58.5 -19t21.5 -48q0 -27 -18.5 -45t-47.5 -18q-33 0 -54 25.5t-21 76.5q0 62 32 97.5t85 35.5h8v-45zM214 573q0 62 32 97.5t85 35.5h8v-45q-34 -1 -49 -16t-15 -44q37 0 58.5 -19t21.5 -48q0 -27 -18.5 -45t-46.5 -18
q-34 0 -55 25.5t-21 76.5z" />
    <glyph glyph-name="quotedblright" unicode="&#x201d;" horiz-adv-x="396" 
d="M57 519q34 1 49 16t15 44q-37 0 -58.5 19t-21.5 48q0 27 18.5 45t46.5 18q34 0 55 -25.5t21 -76.5q0 -62 -32 -97.5t-85 -35.5h-8v45zM219 646q0 27 18.5 45t46.5 18q34 0 55 -25.5t21 -76.5q0 -62 -32 -97.5t-85 -35.5h-8v45q34 1 49 16t15 44q-37 0 -58.5 19t-21.5 48z
" />
    <glyph glyph-name="quotedblbase" unicode="&#x201e;" horiz-adv-x="401" 
d="M235 -77q34 1 49 16t15 44q-37 0 -58.5 19t-21.5 48q0 27 18.5 45t46.5 18q34 0 55 -25.5t21 -76.5q0 -62 -32 -97.5t-85 -35.5h-8v45zM41 50q0 27 18.5 45t46.5 18q34 0 55 -25.5t21 -76.5q0 -62 -32 -97.5t-85 -35.5h-8v45q34 1 49 16t15 44q-37 0 -58.5 19t-21.5 48z
" />
    <glyph glyph-name="dagger" unicode="&#x2020;" horiz-adv-x="367" 
d="M143 241v252h-93v77h93v130h82v-130h92v-77h-92v-252h-82z" />
    <glyph glyph-name="daggerdbl" unicode="&#x2021;" horiz-adv-x="367" 
d="M143 0v146h-93v77h93v254h-93v77h93v146h82v-146h92v-77h-92v-254h92v-77h-92v-146h-82z" />
    <glyph glyph-name="bullet" unicode="&#x2022;" horiz-adv-x="267" 
d="M134 180q-35 0 -59.5 24.5t-24.5 59.5q0 34 24.5 58.5t59.5 24.5q34 0 58.5 -24.5t24.5 -58.5t-24.5 -59t-58.5 -25z" />
    <glyph glyph-name="ellipsis" unicode="&#x2026;" horiz-adv-x="659" 
d="M329 -10q-27 0 -46.5 19t-19.5 47q0 27 19.5 46.5t46.5 19.5q28 0 47.5 -19.5t19.5 -46.5q0 -28 -19.5 -47t-47.5 -19zM41 56q0 27 19.5 46.5t46.5 19.5q28 0 47.5 -19.5t19.5 -46.5q0 -28 -19.5 -47t-47.5 -19q-27 0 -46.5 19t-19.5 47zM485 56q0 27 19.5 46.5
t46.5 19.5q28 0 47.5 -19.5t19.5 -46.5q0 -28 -19.5 -47t-47.5 -19q-27 0 -46.5 19t-19.5 47z" />
    <glyph glyph-name="perthousand" unicode="&#x2030;" horiz-adv-x="1063" 
d="M883 -9q-62 0 -101 41t-39 116q0 73 39.5 114t100.5 41t100 -41t39 -114q0 -75 -39 -116t-100 -41zM41 553q0 73 39 114t100 41t100 -41t39 -114q0 -75 -39 -115.5t-100 -40.5q-62 0 -100.5 40.5t-38.5 115.5zM69 178l551 402l43 -59l-551 -402zM115 553
q0 -44 18.5 -65.5t46.5 -21.5t46.5 21.5t18.5 65.5t-18 65t-47 21t-47 -21t-18 -65zM413 148q0 73 39 114t100 41t100 -41t39 -114q0 -75 -39 -116t-100 -41t-100 41t-39 116zM487 148q0 -44 18 -65.5t47 -21.5t47 21.5t18 65.5q0 43 -18 64t-47 21t-47 -21t-18 -64z
M818 148q0 -45 18 -66t47 -21t47 21.5t18 65.5q0 43 -18 64t-47 21t-47 -21t-18 -64z" />
    <glyph glyph-name="guilsinglleft" unicode="&#x2039;" horiz-adv-x="236" 
d="M196 128l-156 130v79l156 132v-94l-91 -76l91 -77v-94z" />
    <glyph glyph-name="guilsinglright" unicode="&#x203a;" horiz-adv-x="226" 
d="M35 128v94l91 77l-91 76v94l156 -132v-79z" />
    <glyph glyph-name="fraction" unicode="&#x2044;" horiz-adv-x="152" 
d="M-169 0l437 700h53l-436 -700h-54z" />
    <glyph glyph-name="Euro" unicode="&#x20ac;" horiz-adv-x="715" 
d="M35 366v54h55q18 139 102 214t215 75q113 0 188 -57.5t90 -168.5h-102q-16 67 -63 101.5t-116 34.5q-85 0 -139 -52t-69 -147h174v-54h-179v-16q0 -26 1 -38h178v-54h-170q18 -85 71 -131.5t133 -46.5q69 0 116 34.5t63 102.5h102q-15 -112 -90 -169.5t-189 -57.5
q-125 0 -207.5 69.5t-105.5 198.5h-58v54h52q-1 12 -1 38v16h-51z" />
    <glyph glyph-name="trademark" unicode="&#x2122;" horiz-adv-x="502" 
d="M244 520v180h47l62 -140l61 140h48v-180h-45v104l-45 -104h-38l-45 104v-104h-45zM40 662v38h170v-38h-63v-142h-45v142h-62z" />
    <glyph glyph-name="partialdiff" unicode="&#x2202;" horiz-adv-x="591" 
d="M292 -10q-102 0 -174 63t-72 179q0 112 66 173t161 61q120 0 182 -91q-4 253 -168 253q-55 0 -90.5 -28t-40.5 -77h-89q0 74 56.5 130t162.5 56q58 0 103.5 -19.5t75.5 -53t49.5 -80.5t27.5 -99t8 -112q0 -180 -69.5 -267.5t-188.5 -87.5zM142 233q0 -74 42.5 -117
t107.5 -43q64 0 107 43t43 117q0 73 -42.5 114t-107.5 41t-107.5 -41t-42.5 -114z" />
    <glyph glyph-name="product" unicode="&#x220f;" horiz-adv-x="699" 
d="M45 -190v990h609v-990h-96v898h-417v-898h-96z" />
    <glyph glyph-name="summation" unicode="&#x2211;" horiz-adv-x="674" 
d="M45 -190l275 495l-275 495h584v-92h-422l223 -403l-223 -403h422v-92h-584z" />
    <glyph glyph-name="minus" unicode="&#x2212;" horiz-adv-x="421" 
d="M56 219v77h309v-77h-309z" />
    <glyph glyph-name="radical" unicode="&#x221a;" horiz-adv-x="765" 
d="M339 -190l-179 449h-115v107h182l163 -422l231 856h99l-268 -990h-113z" />
    <glyph glyph-name="infinity" unicode="&#x221e;" horiz-adv-x="815" 
d="M212 91q-71 0 -121 48t-50 123t49.5 121.5t121.5 46.5q98 0 195 -106q97 106 196 106q72 0 121.5 -46.5t49.5 -121.5t-50 -123t-121 -48q-100 0 -196 107q-96 -107 -195 -107zM130 262q0 -39 25.5 -65.5t66.5 -26.5q69 0 134 92q-66 91 -134 91q-41 0 -66.5 -26.5
t-25.5 -64.5zM459 262q65 -92 134 -92q41 0 66.5 26.5t25.5 65.5q0 38 -25.5 64.5t-66.5 26.5q-68 0 -134 -91z" />
    <glyph glyph-name="integral" unicode="&#x222b;" horiz-adv-x="303" 
d="M21 -103q41 0 59.5 25t18.5 77v532q0 89 42 129.5t137 40.5v-87q-41 0 -59.5 -24.5t-18.5 -77.5v-532q0 -92 -44 -131t-135 -39v87z" />
    <glyph glyph-name="approxequal" unicode="&#x2248;" horiz-adv-x="540" 
d="M373 119q-30 0 -59.5 14t-48.5 31.5t-44 31.5t-48 14q-26 0 -40.5 -16t-14.5 -37h-62q-2 51 29.5 83t80.5 32q38 0 73.5 -22.5t67 -45t59.5 -22.5q27 0 41.5 15.5t14.5 37.5h62q1 -52 -30.5 -84t-80.5 -32zM56 317q-2 51 29.5 83t80.5 32q38 0 73.5 -22.5t67 -45
t59.5 -22.5q27 0 41.5 15.5t14.5 37.5h62q1 -52 -30.5 -84t-80.5 -32q-30 0 -59.5 14t-48.5 31.5t-44 31.5t-48 14q-26 0 -40.5 -16t-14.5 -37h-62z" />
    <glyph glyph-name="notequal" unicode="&#x2260;" horiz-adv-x="421" 
d="M68 0l63 160h-75v77h106l33 83h-139v77h169l65 164h64l-65 -164h76v-77h-107l-33 -83h140v-77h-170l-64 -160h-63z" />
    <glyph glyph-name="lessequal" unicode="&#x2264;" horiz-adv-x="443" 
d="M393 157l-343 177v83l343 177v-87l-268 -132l268 -131v-87zM50 0v78h343v-78h-343z" />
    <glyph glyph-name="greaterequal" unicode="&#x2265;" horiz-adv-x="444" 
d="M51 157v87l268 131l-268 132v87l343 -177v-83zM51 0v78h343v-78h-343z" />
    <glyph glyph-name="lozenge" unicode="&#x25ca;" horiz-adv-x="539" 
d="M200 0l-155 350l155 350h139l155 -350l-155 -350h-139zM148 350l122 -274l121 274l-121 274z" />
    <glyph glyph-name="uniA78B" unicode="&#xa78b;" horiz-adv-x="215" 
d="M56 240v460h104v-460h-104z" />
    <glyph glyph-name="uniA78C" unicode="&#xa78c;" horiz-adv-x="213" 
d="M56 298v402h101v-402h-101z" />
    <glyph glyph-name="uni004A0301" horiz-adv-x="656" 
d="M327 -10q-126 0 -198.5 70.5t-72.5 201.5h104q0 -87 44.5 -134t123.5 -47q80 0 124.5 48.5t44.5 142.5v428h104v-436q0 -132 -73.5 -203t-200.5 -71zM498 761l102 134h90l-102 -134h-90z" />
    <glyph glyph-name="G.ss01" horiz-adv-x="698" 
d="M346 -10q-136 0 -220.5 94.5t-84.5 265.5t89 265t235 94q107 0 179.5 -51.5t92.5 -150.5h-106q-37 112 -165 112q-103 0 -161 -70t-58 -199q0 -126 59.5 -197.5t160.5 -72.5q84 -1 135.5 47t51.5 128v28h-167v84h265v-367h-97v100q-66 -110 -209 -110z" />
    <glyph glyph-name="R.ss01" horiz-adv-x="635" 
d="M481 0q-10 20 -10 78v87q0 111 -128 111h-183v-276h-104v700h279q121 0 181.5 -54t60.5 -146q0 -132 -116 -175q59 -18 86 -56.5t27 -103.5v-87q0 -58 10 -78h-103zM160 360h170q69 0 105 32.5t36 94.5q0 122 -141 122h-170v-249z" />
    <glyph glyph-name="G.ss05" horiz-adv-x="698" 
d="M346 -10q-136 0 -220.5 94.5t-84.5 265.5t89 265t235 94q107 0 179.5 -51.5t92.5 -150.5h-106q-37 112 -165 112q-103 0 -161 -70t-58 -199q0 -126 59.5 -197.5t160.5 -72.5q84 -1 135.5 47t51.5 128v28h-167v84h265v-367h-97v100q-66 -110 -209 -110z" />
    <glyph glyph-name="i.loclTRK" horiz-adv-x="194" 
d="M46 0v520h101v-520h-101zM38 669q0 24 18 41.5t42 17.5t42 -17.5t18 -41.5t-18 -41.5t-42 -17.5t-42 17.5t-18 41.5z" />
    <glyph glyph-name="uni006A0301" horiz-adv-x="219" 
d="M26 -190q-42 0 -65 3v79h39q39 0 55.5 17.5t16.5 56.5v554h101v-571q0 -139 -147 -139zM74 581l102 134h90l-102 -134h-90z" />
    <glyph glyph-name="a.ss01" horiz-adv-x="594" 
d="M263 -10q-96 0 -164 69t-68 201q0 133 68 201.5t164 68.5q57 0 104 -24.5t70 -67.5v82h101v-520h-101v82q-23 -43 -70 -67.5t-104 -24.5zM127 260q0 -89 45.5 -136.5t111.5 -47.5q65 0 111.5 47.5t46.5 136.5t-46.5 136.5t-111.5 47.5q-66 0 -111.5 -47.5t-45.5 -136.5z
" />
    <glyph glyph-name="aacute.ss01" horiz-adv-x="594" 
d="M263 -10q-96 0 -164 69t-68 201q0 133 68 201.5t164 68.5q57 0 104 -24.5t70 -67.5v82h101v-520h-101v82q-23 -43 -70 -67.5t-104 -24.5zM127 260q0 -89 45.5 -136.5t111.5 -47.5q65 0 111.5 47.5t46.5 136.5t-46.5 136.5t-111.5 47.5q-66 0 -111.5 -47.5t-45.5 -136.5z
M251 581l102 134h90l-102 -134h-90z" />
    <glyph glyph-name="abreve.ss01" horiz-adv-x="594" 
d="M263 -10q-96 0 -164 69t-68 201q0 133 68 201.5t164 68.5q57 0 104 -24.5t70 -67.5v82h101v-520h-101v82q-23 -43 -70 -67.5t-104 -24.5zM127 260q0 -89 45.5 -136.5t111.5 -47.5q65 0 111.5 47.5t46.5 136.5t-46.5 136.5t-111.5 47.5q-66 0 -111.5 -47.5t-45.5 -136.5z
M152 715h68q3 -75 79 -75t79 75h68q0 -61 -37 -98.5t-110 -37.5t-110 37.5t-37 98.5z" />
    <glyph glyph-name="uni01CE.ss01" horiz-adv-x="594" 
d="M263 -10q-96 0 -164 69t-68 201q0 133 68 201.5t164 68.5q57 0 104 -24.5t70 -67.5v82h101v-520h-101v82q-23 -43 -70 -67.5t-104 -24.5zM124 714h92l77 -103l77 103h92l-100 -132h-138zM127 260q0 -89 45.5 -136.5t111.5 -47.5q65 0 111.5 47.5t46.5 136.5t-46.5 136.5
t-111.5 47.5q-66 0 -111.5 -47.5t-45.5 -136.5z" />
    <glyph glyph-name="acircumflex.ss01" horiz-adv-x="594" 
d="M263 -10q-96 0 -164 69t-68 201q0 133 68 201.5t164 68.5q57 0 104 -24.5t70 -67.5v82h101v-520h-101v82q-23 -43 -70 -67.5t-104 -24.5zM127 260q0 -89 45.5 -136.5t111.5 -47.5q65 0 111.5 47.5t46.5 136.5t-46.5 136.5t-111.5 47.5q-66 0 -111.5 -47.5t-45.5 -136.5z
M129 583l100 132h138l100 -132h-92l-77 103l-77 -103h-92z" />
    <glyph glyph-name="adieresis.ss01" horiz-adv-x="594" 
d="M263 -10q-96 0 -164 69t-68 201q0 133 68 201.5t164 68.5q57 0 104 -24.5t70 -67.5v82h101v-520h-101v82q-23 -43 -70 -67.5t-104 -24.5zM127 260q0 -89 45.5 -136.5t111.5 -47.5q65 0 111.5 47.5t46.5 136.5t-46.5 136.5t-111.5 47.5q-66 0 -111.5 -47.5t-45.5 -136.5z
M136 669q0 24 18 41.5t42 17.5t42 -17.5t18 -41.5t-18 -41.5t-42 -17.5t-42 17.5t-18 41.5zM341 669q0 24 18 41.5t42 17.5t42 -17.5t18 -41.5t-18 -41.5t-42 -17.5t-42 17.5t-18 41.5z" />
    <glyph glyph-name="agrave.ss01" horiz-adv-x="594" 
d="M263 -10q-96 0 -164 69t-68 201q0 133 68 201.5t164 68.5q57 0 104 -24.5t70 -67.5v82h101v-520h-101v82q-23 -43 -70 -67.5t-104 -24.5zM127 260q0 -89 45.5 -136.5t111.5 -47.5q65 0 111.5 47.5t46.5 136.5t-46.5 136.5t-111.5 47.5q-66 0 -111.5 -47.5t-45.5 -136.5z
M165 715h90l102 -134h-90z" />
    <glyph glyph-name="amacron.ss01" horiz-adv-x="594" 
d="M263 -10q-96 0 -164 69t-68 201q0 133 68 201.5t164 68.5q57 0 104 -24.5t70 -67.5v82h101v-520h-101v82q-23 -43 -70 -67.5t-104 -24.5zM127 260q0 -89 45.5 -136.5t111.5 -47.5q65 0 111.5 47.5t46.5 136.5t-46.5 136.5t-111.5 47.5q-66 0 -111.5 -47.5t-45.5 -136.5z
M146 654v61h306v-61h-306z" />
    <glyph glyph-name="aogonek.ss01" horiz-adv-x="594" 
d="M263 -10q-96 0 -164 69t-68 201q0 133 68 201.5t164 68.5q57 0 104 -24.5t70 -67.5v82h101v-520q-59 0 -90 -22.5t-31 -56.5q0 -30 23 -44t59 -6v-58q-51 -15 -105 10t-54 87q0 45 27.5 74t69.5 40v58q-23 -43 -70 -67.5t-104 -24.5zM127 260q0 -89 45.5 -136.5
t111.5 -47.5q65 0 111.5 47.5t46.5 136.5t-46.5 136.5t-111.5 47.5q-66 0 -111.5 -47.5t-45.5 -136.5z" />
    <glyph glyph-name="aring.ss01" horiz-adv-x="594" 
d="M263 -10q-96 0 -164 69t-68 201q0 133 68 201.5t164 68.5q57 0 104 -24.5t70 -67.5v82h101v-520h-101v82q-23 -43 -70 -67.5t-104 -24.5zM127 260q0 -89 45.5 -136.5t111.5 -47.5q65 0 111.5 47.5t46.5 136.5t-46.5 136.5t-111.5 47.5q-66 0 -111.5 -47.5t-45.5 -136.5z
M206 657q0 38 26.5 64t66.5 26t66.5 -26t26.5 -64t-26.5 -64t-66.5 -26t-66.5 26t-26.5 64zM257 657q0 -19 12 -31t30 -12t30 12t12 31q0 18 -12 30t-30 12t-30 -12t-12 -30z" />
    <glyph glyph-name="atilde.ss01" horiz-adv-x="594" 
d="M263 -10q-96 0 -164 69t-68 201q0 133 68 201.5t164 68.5q57 0 104 -24.5t70 -67.5v82h101v-520h-101v82q-23 -43 -70 -67.5t-104 -24.5zM127 260q0 -89 45.5 -136.5t111.5 -47.5q65 0 111.5 47.5t46.5 136.5t-46.5 136.5t-111.5 47.5q-66 0 -111.5 -47.5t-45.5 -136.5z
M136 624q0 49 24 75.5t66 26.5q31 0 55 -16t42.5 -32t36.5 -16q17 0 28 11.5t11 27.5h63q0 -49 -24 -75.5t-67 -26.5q-31 0 -55 16t-42 32t-36 16q-17 0 -28.5 -11.5t-11.5 -27.5h-62z" />
    <glyph glyph-name="g.ss01" horiz-adv-x="536" 
d="M264 -200q-98 0 -165.5 40t-67.5 123q0 101 98 134q-38 1 -64.5 22t-26.5 57q0 29 18 49t48 26q-36 42 -36 106q0 79 53 124t139 45q88 0 140 -46q29 41 93 40v-75q-36 0 -56 -15q15 -31 15 -73q0 -79 -53 -123.5t-139 -44.5q-60 0 -104 22q-37 -3 -37 -34q0 -40 93 -40
h53q63 0 113 -14.5t86.5 -53.5t36.5 -99q0 -87 -69 -128.5t-168 -41.5zM127 -30q0 -46 37.5 -71.5t101.5 -25.5t101 25.5t37 71.5t-36.5 71t-101.5 25t-102 -25t-37 -71zM153 357q0 -41 27 -68t80 -27t80 27t27 68q0 42 -27 69t-80 27t-80 -27t-27 -69z" />
    <glyph glyph-name="i.ss01" horiz-adv-x="213" 
d="M56 0v520h101v-520h-101zM56 623v86h101v-86h-101z" />
    <glyph glyph-name="l.ss01" horiz-adv-x="230" 
d="M206 -1q-80 -9 -115 15.5t-35 96.5v595h101v-595q0 -38 49 -37v-75z" />
    <glyph glyph-name="a.ss02" horiz-adv-x="594" 
d="M263 -10q-96 0 -164 69t-68 201q0 133 68 201.5t164 68.5q57 0 104 -24.5t70 -67.5v82h101v-520h-101v82q-23 -43 -70 -67.5t-104 -24.5zM127 260q0 -89 45.5 -136.5t111.5 -47.5q65 0 111.5 47.5t46.5 136.5t-46.5 136.5t-111.5 47.5q-66 0 -111.5 -47.5t-45.5 -136.5z
" />
    <glyph glyph-name="aacute.ss02" horiz-adv-x="594" 
d="M263 -10q-96 0 -164 69t-68 201q0 133 68 201.5t164 68.5q57 0 104 -24.5t70 -67.5v82h101v-520h-101v82q-23 -43 -70 -67.5t-104 -24.5zM127 260q0 -89 45.5 -136.5t111.5 -47.5q65 0 111.5 47.5t46.5 136.5t-46.5 136.5t-111.5 47.5q-66 0 -111.5 -47.5t-45.5 -136.5z
M251 581l102 134h90l-102 -134h-90z" />
    <glyph glyph-name="abreve.ss02" horiz-adv-x="594" 
d="M263 -10q-96 0 -164 69t-68 201q0 133 68 201.5t164 68.5q57 0 104 -24.5t70 -67.5v82h101v-520h-101v82q-23 -43 -70 -67.5t-104 -24.5zM127 260q0 -89 45.5 -136.5t111.5 -47.5q65 0 111.5 47.5t46.5 136.5t-46.5 136.5t-111.5 47.5q-66 0 -111.5 -47.5t-45.5 -136.5z
M152 715h68q3 -75 79 -75t79 75h68q0 -61 -37 -98.5t-110 -37.5t-110 37.5t-37 98.5z" />
    <glyph glyph-name="uni01CE.ss02" horiz-adv-x="594" 
d="M263 -10q-96 0 -164 69t-68 201q0 133 68 201.5t164 68.5q57 0 104 -24.5t70 -67.5v82h101v-520h-101v82q-23 -43 -70 -67.5t-104 -24.5zM124 714h92l77 -103l77 103h92l-100 -132h-138zM127 260q0 -89 45.5 -136.5t111.5 -47.5q65 0 111.5 47.5t46.5 136.5t-46.5 136.5
t-111.5 47.5q-66 0 -111.5 -47.5t-45.5 -136.5z" />
    <glyph glyph-name="acircumflex.ss02" horiz-adv-x="594" 
d="M263 -10q-96 0 -164 69t-68 201q0 133 68 201.5t164 68.5q57 0 104 -24.5t70 -67.5v82h101v-520h-101v82q-23 -43 -70 -67.5t-104 -24.5zM127 260q0 -89 45.5 -136.5t111.5 -47.5q65 0 111.5 47.5t46.5 136.5t-46.5 136.5t-111.5 47.5q-66 0 -111.5 -47.5t-45.5 -136.5z
M129 583l100 132h138l100 -132h-92l-77 103l-77 -103h-92z" />
    <glyph glyph-name="adieresis.ss02" horiz-adv-x="594" 
d="M263 -10q-96 0 -164 69t-68 201q0 133 68 201.5t164 68.5q57 0 104 -24.5t70 -67.5v82h101v-520h-101v82q-23 -43 -70 -67.5t-104 -24.5zM127 260q0 -89 45.5 -136.5t111.5 -47.5q65 0 111.5 47.5t46.5 136.5t-46.5 136.5t-111.5 47.5q-66 0 -111.5 -47.5t-45.5 -136.5z
M136 669q0 24 18 41.5t42 17.5t42 -17.5t18 -41.5t-18 -41.5t-42 -17.5t-42 17.5t-18 41.5zM341 669q0 24 18 41.5t42 17.5t42 -17.5t18 -41.5t-18 -41.5t-42 -17.5t-42 17.5t-18 41.5z" />
    <glyph glyph-name="agrave.ss02" horiz-adv-x="594" 
d="M263 -10q-96 0 -164 69t-68 201q0 133 68 201.5t164 68.5q57 0 104 -24.5t70 -67.5v82h101v-520h-101v82q-23 -43 -70 -67.5t-104 -24.5zM127 260q0 -89 45.5 -136.5t111.5 -47.5q65 0 111.5 47.5t46.5 136.5t-46.5 136.5t-111.5 47.5q-66 0 -111.5 -47.5t-45.5 -136.5z
M165 715h90l102 -134h-90z" />
    <glyph glyph-name="amacron.ss02" horiz-adv-x="594" 
d="M263 -10q-96 0 -164 69t-68 201q0 133 68 201.5t164 68.5q57 0 104 -24.5t70 -67.5v82h101v-520h-101v82q-23 -43 -70 -67.5t-104 -24.5zM127 260q0 -89 45.5 -136.5t111.5 -47.5q65 0 111.5 47.5t46.5 136.5t-46.5 136.5t-111.5 47.5q-66 0 -111.5 -47.5t-45.5 -136.5z
M146 654v61h306v-61h-306z" />
    <glyph glyph-name="aogonek.ss02" horiz-adv-x="594" 
d="M263 -10q-96 0 -164 69t-68 201q0 133 68 201.5t164 68.5q57 0 104 -24.5t70 -67.5v82h101v-520q-59 0 -90 -22.5t-31 -56.5q0 -30 23 -44t59 -6v-58q-51 -15 -105 10t-54 87q0 45 27.5 74t69.5 40v58q-23 -43 -70 -67.5t-104 -24.5zM127 260q0 -89 45.5 -136.5
t111.5 -47.5q65 0 111.5 47.5t46.5 136.5t-46.5 136.5t-111.5 47.5q-66 0 -111.5 -47.5t-45.5 -136.5z" />
    <glyph glyph-name="aring.ss02" horiz-adv-x="594" 
d="M263 -10q-96 0 -164 69t-68 201q0 133 68 201.5t164 68.5q57 0 104 -24.5t70 -67.5v82h101v-520h-101v82q-23 -43 -70 -67.5t-104 -24.5zM127 260q0 -89 45.5 -136.5t111.5 -47.5q65 0 111.5 47.5t46.5 136.5t-46.5 136.5t-111.5 47.5q-66 0 -111.5 -47.5t-45.5 -136.5z
M206 657q0 38 26.5 64t66.5 26t66.5 -26t26.5 -64t-26.5 -64t-66.5 -26t-66.5 26t-26.5 64zM257 657q0 -19 12 -31t30 -12t30 12t12 31q0 18 -12 30t-30 12t-30 -12t-12 -30z" />
    <glyph glyph-name="atilde.ss02" horiz-adv-x="594" 
d="M263 -10q-96 0 -164 69t-68 201q0 133 68 201.5t164 68.5q57 0 104 -24.5t70 -67.5v82h101v-520h-101v82q-23 -43 -70 -67.5t-104 -24.5zM127 260q0 -89 45.5 -136.5t111.5 -47.5q65 0 111.5 47.5t46.5 136.5t-46.5 136.5t-111.5 47.5q-66 0 -111.5 -47.5t-45.5 -136.5z
M136 624q0 49 24 75.5t66 26.5q31 0 55 -16t42.5 -32t36.5 -16q17 0 28 11.5t11 27.5h63q0 -49 -24 -75.5t-67 -26.5q-31 0 -55 16t-42 32t-36 16q-17 0 -28.5 -11.5t-11.5 -27.5h-62z" />
    <glyph glyph-name="a.ss03" horiz-adv-x="536" 
d="M198 -10q-74 0 -120.5 35.5t-46.5 104.5q0 68 46 101.5t130 45.5l107 14q39 6 54 16t15 29v19q0 54 -28.5 76.5t-83.5 22.5q-113 0 -113 -87v-8h-96v17q0 154 213 154q109 0 159 -41.5t50 -130.5v-259q0 -20 7.5 -27t24.5 -7v-61q-14 -10 -43 -10q-38 0 -61.5 18
t-23.5 55v27h-4q-11 -34 -59 -69t-127 -35zM131 142q0 -37 26 -56.5t73 -19.5q71 0 112 38t41 73v81q-5 -17 -65 -25l-87 -13q-100 -14 -100 -78z" />
    <glyph glyph-name="g.ss03" horiz-adv-x="536" 
d="M264 -200q-98 0 -165.5 40t-67.5 123q0 101 98 134q-38 1 -64.5 22t-26.5 57q0 29 18 49t48 26q-36 42 -36 106q0 79 53 124t139 45q88 0 140 -46q29 41 93 40v-75q-36 0 -56 -15q15 -31 15 -73q0 -79 -53 -123.5t-139 -44.5q-60 0 -104 22q-37 -3 -37 -34q0 -40 93 -40
h53q63 0 113 -14.5t86.5 -53.5t36.5 -99q0 -87 -69 -128.5t-168 -41.5zM127 -30q0 -46 37.5 -71.5t101.5 -25.5t101 25.5t37 71.5t-36.5 71t-101.5 25t-102 -25t-37 -71zM153 357q0 -41 27 -68t80 -27t80 27t27 68q0 42 -27 69t-80 27t-80 -27t-27 -69z" />
    <glyph glyph-name="l.ss04" horiz-adv-x="230" 
d="M206 -1q-80 -9 -115 15.5t-35 96.5v595h101v-595q0 -38 49 -37v-75z" />
    <glyph glyph-name="f_t" horiz-adv-x="670" 
d="M21 441v79h72v58q0 138 147 138h63v-79h-38q-39 0 -55 -17t-16 -56v-44h239v131h101v-131h103v-80h-103v-291q0 -39 16 -56.5t57 -17.5q21 0 37 2v-76q-30 -8 -65 -8q-146 0 -146 139v308h-85v1h-154v-441h-101v441h-72z" />
    <glyph glyph-name="r_t" horiz-adv-x="633" 
d="M542 -7q-145 0 -145 139v308h-49q-88 0 -139.5 -46t-51.5 -134v-260h-101v520h101v-139h3q13 61 61 100t131 39h45v131h101v-131h103v-80h-103v-291q0 -39 16 -56.5t56 -17.5q21 0 37 2v-76q-30 -8 -65 -8z" />
    <glyph glyph-name="zero.dnom" horiz-adv-x="283" 
d="M142 -2q-48 0 -77.5 35t-29.5 91v13q0 56 29.5 91t77.5 35t77 -35t29 -91v-13q0 -56 -29 -91t-77 -35zM77 124q0 -39 18 -63t47 -24t46.5 23.5t17.5 63.5v13q0 40 -17.5 63.5t-46.5 23.5t-47 -24t-18 -63v-13z" />
    <glyph glyph-name="one.dnom" horiz-adv-x="180" 
d="M95 206q-15 -27 -55 -20v39q18 -1 33.5 10t21.5 26h40v-261h-40v206z" />
    <glyph glyph-name="two.dnom" horiz-adv-x="257" 
d="M40 8q0 40 15.5 67.5t57.5 52.5q3 2 11.5 7t11 6.5t9 6t8 6.5t5.5 6.5t5.5 8t2.5 8.5t1 11q0 18 -12 28.5t-30 10.5q-19 0 -31 -11.5t-12 -33.5v-7h-42v7q0 37 22 60t63 23t63.5 -21.5t22.5 -55.5q0 -30 -19 -49.5t-59 -42.5q-46 -27 -46 -55v-3h125v-38h-172v8z" />
    <glyph glyph-name="three.dnom" horiz-adv-x="271" 
d="M135 -4q-46 0 -70.5 23t-24.5 62h40q1 -50 56 -50q54 0 54 45t-60 45h-11v31h11q25 0 37 12.5t12 28.5q0 17 -11.5 27t-32.5 10q-48 0 -48 -47h-38q0 39 23.5 60.5t63.5 21.5q39 0 61 -19.5t22 -49.5q0 -22 -13 -37t-32 -20q21 -3 39 -19.5t18 -45.5q0 -35 -25.5 -56.5
t-70.5 -21.5z" />
    <glyph glyph-name="four.dnom" horiz-adv-x="269" 
d="M158 0v66h-118v33l118 162h41v-162h30v-33h-30v-66h-41zM77 99h81v112z" />
    <glyph glyph-name="five.dnom" horiz-adv-x="249" 
d="M122 -5q-43 0 -67.5 23.5t-24.5 61.5h39q1 -21 16 -35t38 -14q24 0 40 14.5t16 42.5q0 29 -16.5 42t-37.5 13q-32 0 -50 -23h-39l21 141h138v-37h-108l-11 -69q16 21 57 21q36 0 61 -24t25 -65q0 -43 -26 -67.5t-71 -24.5z" />
    <glyph glyph-name="six.dnom" horiz-adv-x="275" 
d="M140 -5q-44 0 -72 33t-28 99q0 61 25 99t76 38q40 0 62 -22t23 -49h-37q-8 35 -48 35q-61 0 -61 -91q7 13 26 24t42 11q39 0 63 -21t24 -63q0 -46 -27.5 -69.5t-67.5 -23.5zM85 89q0 -26 16 -41t39 -15t37.5 14.5t14.5 41.5q0 25 -15 38t-38 13q-22 0 -38 -13.5
t-16 -37.5z" />
    <glyph glyph-name="seven.dnom" horiz-adv-x="227" 
d="M50 0l109 224h-139v37h177v-37l-104 -224h-43z" />
    <glyph glyph-name="eight.dnom" horiz-adv-x="237" 
d="M118 -2q-41 0 -67 20.5t-26 56.5q0 46 45 68q-30 18 -30 53q0 28 20.5 47.5t57.5 19.5t58 -19.5t21 -47.5q0 -35 -31 -53q46 -21 46 -68q0 -36 -26.5 -56.5t-67.5 -20.5zM63 76q0 -21 15.5 -33.5t39.5 -12.5q25 0 40.5 12.5t15.5 33.5q0 23 -15.5 35.5t-40.5 12.5
q-24 0 -39.5 -12.5t-15.5 -35.5zM77 196q0 -17 11.5 -27.5t29.5 -10.5q19 0 30.5 10.5t11.5 27.5q0 36 -42 36q-20 0 -30.5 -10t-10.5 -26z" />
    <glyph glyph-name="nine.dnom" horiz-adv-x="275" 
d="M134 -5q-40 0 -62 22t-23 49h37q6 -35 48 -35q58 0 61 91q-8 -14 -26.5 -24.5t-41.5 -10.5q-39 0 -63 21t-24 63q0 46 27.5 69.5t67.5 23.5q44 0 72 -33t28 -99q0 -61 -25 -99t-76 -38zM83 170q0 -25 15 -38t38 -13q22 0 38 13.5t16 37.5q0 26 -16 41t-39 15t-37.5 -14.5
t-14.5 -41.5z" />
    <glyph glyph-name="zero.numr" horiz-adv-x="283" 
d="M142 438q-48 0 -77.5 35t-29.5 91v13q0 56 29.5 91t77.5 35t77 -35t29 -91v-13q0 -56 -29 -91t-77 -35zM77 564q0 -39 18 -63t47 -24t46.5 23.5t17.5 63.5v13q0 40 -17.5 63.5t-46.5 23.5t-47 -24t-18 -63v-13z" />
    <glyph glyph-name="one.numr" horiz-adv-x="180" 
d="M95 645q-15 -27 -55 -20v39q18 -1 33.5 10t21.5 26h40v-261h-40v206z" />
    <glyph glyph-name="two.numr" horiz-adv-x="257" 
d="M40 448q0 40 15.5 67.5t57.5 52.5q3 2 11.5 7t11 6.5t9 6t8 6.5t5.5 6.5t5.5 8t2.5 8.5t1 11q0 18 -12 28.5t-30 10.5q-19 0 -31 -11.5t-12 -33.5v-7h-42v7q0 37 22 60t63 23t63.5 -21.5t22.5 -55.5q0 -30 -19 -49.5t-59 -42.5q-46 -27 -46 -55v-3h125v-38h-172v8z" />
    <glyph glyph-name="three.numr" horiz-adv-x="271" 
d="M135 436q-46 0 -70.5 23t-24.5 62h40q1 -50 56 -50q54 0 54 45t-60 45h-11v31h11q25 0 37 12.5t12 28.5q0 17 -11.5 27t-32.5 10q-48 0 -48 -47h-38q0 39 23.5 60.5t63.5 21.5q39 0 61 -19.5t22 -49.5q0 -22 -13 -37t-32 -20q21 -3 39 -19.5t18 -45.5q0 -35 -25.5 -56.5
t-70.5 -21.5z" />
    <glyph glyph-name="four.numr" horiz-adv-x="269" 
d="M158 440v66h-118v33l118 162h41v-162h30v-33h-30v-66h-41zM77 539h81v112z" />
    <glyph glyph-name="five.numr" horiz-adv-x="249" 
d="M122 435q-43 0 -67.5 23.5t-24.5 61.5h39q1 -21 16 -35t38 -14q24 0 40 14.5t16 42.5q0 29 -16.5 42t-37.5 13q-32 0 -50 -23h-39l21 141h138v-37h-108l-11 -69q16 21 57 21q36 0 61 -24t25 -65q0 -43 -26 -67.5t-71 -24.5z" />
    <glyph glyph-name="six.numr" horiz-adv-x="275" 
d="M140 434q-44 0 -72 33t-28 99q0 61 25 99t76 38q40 0 62 -22t23 -49h-37q-8 35 -48 35q-61 0 -61 -91q7 13 26 24t42 11q39 0 63 -21t24 -63q0 -46 -27.5 -69.5t-67.5 -23.5zM85 528q0 -26 16 -41t39 -15t37.5 14.5t14.5 41.5q0 25 -15 38t-38 13q-22 0 -38 -13.5
t-16 -37.5z" />
    <glyph glyph-name="seven.numr" horiz-adv-x="227" 
d="M50 440l109 224h-139v37h177v-37l-104 -224h-43z" />
    <glyph glyph-name="eight.numr" horiz-adv-x="237" 
d="M118 438q-41 0 -67 20.5t-26 56.5q0 46 45 68q-30 18 -30 53q0 28 20.5 47.5t57.5 19.5t58 -19.5t21 -47.5q0 -35 -31 -53q46 -21 46 -68q0 -36 -26.5 -56.5t-67.5 -20.5zM63 516q0 -21 15.5 -33.5t39.5 -12.5q25 0 40.5 12.5t15.5 33.5q0 23 -15.5 35.5t-40.5 12.5
q-24 0 -39.5 -12.5t-15.5 -35.5zM77 636q0 -17 11.5 -27.5t29.5 -10.5q19 0 30.5 10.5t11.5 27.5q0 36 -42 36q-20 0 -30.5 -10t-10.5 -26z" />
    <glyph glyph-name="nine.numr" horiz-adv-x="275" 
d="M134 435q-40 0 -62 22t-23 49h37q6 -35 48 -35q58 0 61 91q-8 -14 -26.5 -24.5t-41.5 -10.5q-39 0 -63 21t-24 63q0 46 27.5 69.5t67.5 23.5q44 0 72 -33t28 -99q0 -61 -25 -99t-76 -38zM83 610q0 -25 15 -38t38 -13q22 0 38 13.5t16 37.5q0 26 -16 41t-39 15
t-37.5 -14.5t-14.5 -41.5z" />
    <glyph glyph-name="period.ss01" horiz-adv-x="215" 
d="M50 0v122h115v-122h-115z" />
    <glyph glyph-name="uni03060301" horiz-adv-x="0" 
d="M152 579q-73 0 -110 37.5t-37 98.5h68q3 -75 79 -75t79 75h68q0 -61 -37 -98.5t-110 -37.5zM100 746l102 134h90l-102 -134h-90z" />
    <glyph glyph-name="uni03060300" horiz-adv-x="0" 
d="M152 579q-73 0 -110 37.5t-37 98.5h68q3 -75 79 -75t79 75h68q0 -61 -37 -98.5t-110 -37.5zM8 880h90l102 -134h-90z" />
    <glyph glyph-name="uni03060309" horiz-adv-x="0" 
d="M152 579q-73 0 -110 37.5t-37 98.5h68q3 -75 79 -75t79 75h68q0 -61 -37 -98.5t-110 -37.5zM28 799q0 47 28.5 70.5t67.5 23.5q41 0 71 -25.5t30 -71.5q0 -42 -25.5 -67t-61.5 -29l-28 44q56 2 56 48q0 21 -12 33t-31 12q-38 0 -41 -38h-54z" />
    <glyph glyph-name="uni03060303" horiz-adv-x="0" 
d="M152 579q-73 0 -110 37.5t-37 98.5h68q3 -75 79 -75t79 75h68q0 -61 -37 -98.5t-110 -37.5zM-11 789q0 49 24 75.5t66 26.5q31 0 55 -16t42.5 -32t36.5 -16q17 0 28 11.5t11 27.5h63q0 -49 -24 -75.5t-67 -26.5q-31 0 -55 16t-42 32t-36 16q-17 0 -28.5 -11.5
t-11.5 -27.5h-62z" />
    <glyph glyph-name="uni03020301" horiz-adv-x="0" 
d="M0 583l100 132h138l100 -132h-92l-77 103l-77 -103h-92zM293 680l102 134h90l-102 -134h-90z" />
    <glyph glyph-name="uni03020300" horiz-adv-x="0" 
d="M321 680l-94 134h90l93 -134h-89zM0 583l100 132h138l100 -132h-92l-77 103l-77 -103h-92z" />
    <glyph glyph-name="uni03020309" horiz-adv-x="0" 
d="M0 583l100 132h138l100 -132h-92l-77 103l-77 -103h-92zM205 800q0 47 28.5 70.5t67.5 23.5q41 0 71 -25.5t30 -71.5q0 -42 -25.5 -67t-61.5 -29l-28 44q56 2 56 48q0 21 -12 33t-31 12q-38 0 -41 -38h-54z" />
    <glyph glyph-name="uni03020303" horiz-adv-x="0" 
d="M0 583l100 132h138l100 -132h-92l-77 103l-77 -103h-92zM7 784q0 49 24 75.5t66 26.5q31 0 55 -16t42.5 -32t36.5 -16q17 0 28 11.5t11 27.5h63q0 -49 -24 -75.5t-67 -26.5q-31 0 -55 16t-42 32t-36 16q-17 0 -28.5 -11.5t-11.5 -27.5h-62z" />
    </font>
</defs>
</svg>
