<?xml version="1.0" standalone="no"?>
<!DOCTYPE svg PUBLIC "-//W3C//DTD SVG 1.1//EN" "http://www.w3.org/Graphics/SVG/1.1/DTD/svg11.dtd" >
<svg xmlns="http://www.w3.org/2000/svg" xmlns:xlink="http://www.w3.org/1999/xlink" version="1.1">
<metadata>
Created by FontForge 20190801 at Wed Mar 30 20:57:50 2022
 By www-data
Copyright (c) 2022 by Connary Fagen. All rights reserved.
</metadata>
<defs>
<font id="articulatecflight" horiz-adv-x="550" >
  <font-face 
    font-family="articulatecflight"
    font-weight="300"
    font-stretch="normal"
    units-per-em="1000"
    panose-1="0 0 0 0 0 0 0 0 0 0"
    ascent="800"
    descent="-200"
    x-height="520"
    cap-height="700"
    bbox="-162 -236 1053 1066"
    underline-thickness="50"
    underline-position="-125"
    unicode-range="U+0020-A78C"
  />
<missing-glyph horiz-adv-x="729" 
d="M59 0v700h610v-700h-610zM111 52h506v596h-506v-596zM148 90l188 263l-185 257h58l154 -218l154 218h58l-185 -257l188 -263h-58l-157 225l-157 -225h-58z" />
    <glyph glyph-name=".notdef" horiz-adv-x="729" 
d="M59 0v700h610v-700h-610zM111 52h506v596h-506v-596zM148 90l188 263l-185 257h58l154 -218l154 218h58l-185 -257l188 -263h-58l-157 225l-157 -225h-58z" />
    <glyph glyph-name=".null" horiz-adv-x="0" 
 />
    <glyph glyph-name="nonmarkingreturn" horiz-adv-x="333" 
 />
    <glyph glyph-name="space" unicode=" " horiz-adv-x="230" 
 />
    <glyph glyph-name="exclam" unicode="!" horiz-adv-x="211" 
d="M80 183l-5 517h61l-5 -517h-51zM59 36q0 19 13.5 32.5t33.5 13.5q19 0 32.5 -13.5t13.5 -32.5t-13.5 -32.5t-32.5 -13.5t-33 13.5t-14 32.5z" />
    <glyph glyph-name="quotedbl" unicode="&#x22;" horiz-adv-x="253" 
d="M157 471v229h56v-229h-56zM40 471v229h56v-229h-56z" />
    <glyph glyph-name="numbersign" unicode="#" horiz-adv-x="596" 
d="M348 0l20 197h-171l-20 -197h-42l20 197h-106v42h110l22 222h-107v42h111l20 197h42l-20 -197h171l20 197h42l-20 -197h107v-42h-111l-22 -222h108v-42h-112l-20 -197h-42zM201 239h171l22 222h-171z" />
    <glyph glyph-name="dollar" unicode="$" horiz-adv-x="581" 
d="M275 -10q-112 5 -171.5 61.5t-59.5 143.5h59q4 -64 47 -105t125 -46v295l-34 8q-177 41 -177 181q0 80 54.5 129t156.5 52v81h35v-81q98 -5 151.5 -53.5t53.5 -124.5h-57q-3 52 -39.5 85.5t-108.5 37.5v-266l37 -9q92 -22 141 -64.5t49 -124.5q0 -90 -59.5 -143
t-167.5 -57v-80h-35v80zM125 528q0 -51 34.5 -84t115.5 -50v262q-77 -4 -113.5 -38t-36.5 -90zM310 44q83 3 124.5 41t41.5 104q0 63 -41 95t-125 50v-290z" />
    <glyph glyph-name="percent" unicode="%" horiz-adv-x="718" 
d="M98 128l-26 38l549 403l26 -38zM44 556q0 70 36.5 110t94.5 40t94.5 -40t36.5 -110q0 -71 -36.5 -111t-94.5 -40t-94.5 40t-36.5 111zM91 556q0 -52 22.5 -79t61.5 -27t61.5 27t22.5 79q0 51 -22.5 78t-61.5 27t-61.5 -27t-22.5 -78zM412 141q0 70 36.5 110t94.5 40
t94.5 -40t36.5 -110t-36.5 -110t-94.5 -40t-94.5 40t-36.5 110zM459 141q0 -52 22.5 -79t61.5 -27t61.5 27t22.5 79t-22.5 79t-61.5 27t-61.5 -27t-22.5 -79z" />
    <glyph glyph-name="ampersand" unicode="&#x26;" horiz-adv-x="666" 
d="M281 -10q-105 0 -171 55.5t-66 143.5q0 128 168 213q-86 97 -86 169q0 58 40 98t117 40q73 0 114 -38.5t41 -100.5q0 -110 -144 -180l200 -228q41 77 41 197h54q0 -147 -58 -239l106 -120h-68l-70 79q-81 -89 -218 -89zM105 195q0 -68 51.5 -111t131.5 -43q110 0 176 77
l-220 249q-139 -66 -139 -172zM178 572q0 -27 14 -55.5t28.5 -46.5t39.5 -44q66 31 96 65t30 79q0 44 -28.5 68.5t-75.5 24.5t-75.5 -25.5t-28.5 -65.5z" />
    <glyph glyph-name="quotesingle" unicode="'" horiz-adv-x="136" 
d="M40 471v229h56v-229h-56z" />
    <glyph glyph-name="parenleft" unicode="(" horiz-adv-x="250" 
d="M151 -130q-106 189 -106 450q0 248 106 425h54q-101 -183 -101 -425q0 -256 101 -450h-54z" />
    <glyph glyph-name="parenright" unicode=")" horiz-adv-x="250" 
d="M45 -130q101 194 101 450q0 242 -101 425h54q106 -177 106 -425q0 -261 -106 -450h-54z" />
    <glyph glyph-name="asterisk" unicode="*" horiz-adv-x="467" 
d="M316 376l-78 117l32 24l82 -115zM64 558l13 42l129 -38l-11 -39zM115 402l83 115l32 -24l-78 -117zM210 700h46l-3 -134h-39zM261 562l130 38l12 -42l-130 -35z" />
    <glyph glyph-name="plus" unicode="+" horiz-adv-x="523" 
d="M233 79v176h-174v54h174v175h56v-175h175v-54h-175v-176h-56z" />
    <glyph glyph-name="comma" unicode="," horiz-adv-x="188" 
d="M51 -65q28 1 39.5 15t11.5 40q-26 -1 -42 12.5t-16 35.5q0 19 12.5 31.5t33.5 12.5q23 0 38 -19t15 -57q0 -49 -24 -76t-61 -27h-7v32z" />
    <glyph glyph-name="hyphen" unicode="-" horiz-adv-x="345" 
d="M40 257v48h265v-48h-265z" />
    <glyph glyph-name="period" unicode="." horiz-adv-x="181" 
d="M91 -10q-19 0 -33 13.5t-14 32.5t13.5 32.5t33.5 13.5q19 0 32.5 -13.5t13.5 -32.5t-13.5 -32.5t-32.5 -13.5z" />
    <glyph glyph-name="slash" unicode="/" horiz-adv-x="389" 
d="M30 0l271 700h58l-271 -700h-58z" />
    <glyph glyph-name="zero" unicode="0" horiz-adv-x="622" 
d="M311 -10q-120 0 -193.5 94.5t-73.5 265.5q0 169 74 264t193 95t192.5 -95t73.5 -264q0 -171 -73.5 -265.5t-192.5 -94.5zM101 350q0 -145 57 -227t153 -82t153 82t57 227t-57 226.5t-153 81.5t-153 -81.5t-57 -226.5z" />
    <glyph glyph-name="one" unicode="1" horiz-adv-x="303" 
d="M165 614q-45 -54 -121 -57v50q44 4 78 31t43 62h59v-700h-59v614z" />
    <glyph glyph-name="two" unicode="2" horiz-adv-x="534" 
d="M40 26q0 90 45.5 152t154.5 130q44 27 61.5 38.5t47.5 34.5t42 39.5t22.5 41t10.5 52.5q0 65 -43 104.5t-113 39.5q-73 0 -117 -43t-44 -121v-14h-59v18q0 95 59 153t161 58q98 0 156.5 -54t58.5 -139q0 -41 -13.5 -75t-44 -63.5t-58 -49t-77.5 -49.5
q-93 -57 -138.5 -106.5t-45.5 -113.5v-8h383v-51h-449v26z" />
    <glyph glyph-name="three" unicode="3" horiz-adv-x="568" 
d="M279 -10q-113 0 -176 63t-64 166h57q1 -81 50 -129t136 -48q82 0 135 43t53 117q0 72 -53 112t-146 40h-27v48h23q86 0 124.5 37t38.5 92q0 58 -40 92t-110 34q-74 0 -117.5 -40.5t-43.5 -127.5h-57q0 109 59 164.5t160 55.5q98 0 152.5 -48t54.5 -124q0 -55 -30.5 -96
t-88.5 -59q68 -12 114 -59.5t46 -124.5q0 -92 -69.5 -150t-180.5 -58z" />
    <glyph glyph-name="four" unicode="4" 
d="M371 0v193h-332v49l332 458h59v-458h80v-49h-80v-193h-59zM96 242h275v381z" />
    <glyph glyph-name="five" unicode="5" horiz-adv-x="564" 
d="M287 -10q-110 0 -173 61t-65 157h54q2 -75 52 -121.5t132 -46.5q83 0 134 51t51 141t-50.5 141.5t-132.5 51.5q-106 0 -162 -82h-60l57 357h347v-48h-305l-43 -259q26 36 73 57.5t105 21.5q100 0 164.5 -64t64.5 -176q0 -111 -66 -176.5t-177 -65.5z" />
    <glyph glyph-name="six" unicode="6" horiz-adv-x="574" 
d="M295 -10q-118 0 -182 87.5t-64 260.5q0 58 6.5 108.5t24 100t45 84.5t73 56.5t103.5 21.5q96 0 149.5 -50.5t55.5 -119.5h-53q-4 50 -43.5 85.5t-108.5 35.5q-194 0 -196 -314q26 61 80 91.5t121 30.5q100 0 162 -64t62 -170q0 -109 -64.5 -176.5t-170.5 -67.5zM117 234
q0 -84 48.5 -139t130.5 -55t130 54.5t48 139.5q0 84 -47 134.5t-130 50.5t-131.5 -51t-48.5 -134z" />
    <glyph glyph-name="seven" unicode="7" horiz-adv-x="478" 
d="M131 0q31 303 254 650h-355v50h413v-50q-224 -346 -254 -650h-58z" />
    <glyph glyph-name="eight" unicode="8" horiz-adv-x="562" 
d="M281 -10q-107 0 -174.5 55t-67.5 151q0 72 39 120.5t105 69.5q-44 17 -72.5 58t-28.5 95q0 73 53 121.5t146 48.5t146 -48.5t53 -121.5q0 -54 -28.5 -95t-73.5 -58q66 -21 105 -69.5t39 -120.5q0 -96 -67 -151t-174 -55zM96 199q0 -74 51 -116t134 -42t134 42t51 116
t-51.5 117t-133.5 43t-133.5 -43t-51.5 -117zM137 536q0 -58 39 -92t105 -34t104.5 34t38.5 92q0 56 -37.5 89.5t-105.5 33.5t-106 -33.5t-38 -89.5z" />
    <glyph glyph-name="nine" unicode="9" horiz-adv-x="574" 
d="M279 708q118 0 182 -87.5t64 -260.5q0 -58 -6.5 -108.5t-24 -100t-45 -84.5t-73 -56.5t-103.5 -21.5q-96 0 -149.5 50.5t-55.5 119.5h53q4 -50 43.5 -85.5t108.5 -35.5q194 0 196 314q-26 -61 -80 -91.5t-121 -30.5q-100 0 -162 64t-62 170q0 109 64.5 176.5t170.5 67.5z
M100 464q0 -84 47 -134.5t130 -50.5t131.5 51t48.5 134q0 84 -48.5 139t-130.5 55t-130 -54.5t-48 -139.5z" />
    <glyph glyph-name="colon" unicode=":" horiz-adv-x="181" 
d="M91 -10q-19 0 -33 13.5t-14 32.5t13.5 32.5t33.5 13.5q19 0 32.5 -13.5t13.5 -32.5t-13.5 -32.5t-32.5 -13.5zM44 474q0 19 13.5 32.5t33.5 13.5q19 0 32.5 -13.5t13.5 -32.5t-13.5 -32.5t-32.5 -13.5t-33 13.5t-14 32.5z" />
    <glyph glyph-name="semicolon" unicode=";" horiz-adv-x="188" 
d="M91 428q-19 0 -33 13.5t-14 32.5t13.5 32.5t33.5 13.5q19 0 32.5 -13.5t13.5 -32.5t-13.5 -32.5t-32.5 -13.5zM44 38q0 19 12.5 31.5t33.5 12.5q23 0 38 -19t15 -57q0 -49 -24 -76t-61 -27h-7v32q28 1 39.5 15t11.5 40q-26 -1 -42 12.5t-16 35.5z" />
    <glyph glyph-name="less" unicode="&#x3c;" horiz-adv-x="507" 
d="M462 0l-417 210v60l417 211v-60l-366 -181l366 -180v-60z" />
    <glyph glyph-name="equal" unicode="=" horiz-adv-x="405" 
d="M60 177v48h286v-48h-286zM60 337v48h286v-48h-286z" />
    <glyph glyph-name="greater" unicode="&#x3e;" horiz-adv-x="507" 
d="M45 0v60l366 180l-366 181v60l417 -211v-60z" />
    <glyph glyph-name="question" unicode="?" horiz-adv-x="511" 
d="M226 232q0 46 18.5 80.5t45 55.5t53.5 40.5t45.5 47t18.5 64.5q0 65 -41 99.5t-110 34.5q-68 0 -110 -42t-42 -123h-59q-1 103 57 160.5t154 57.5q94 0 152 -49.5t58 -137.5q0 -45 -18.5 -77.5t-44.5 -53t-52 -39.5t-44.5 -48.5t-18.5 -69.5v-47h-62v47zM214 36
q0 19 13.5 32.5t33.5 13.5q19 0 32.5 -13.5t13.5 -32.5t-13.5 -32.5t-32.5 -13.5t-33 13.5t-14 32.5z" />
    <glyph glyph-name="at" unicode="@" horiz-adv-x="794" 
d="M419 -10q-162 0 -268.5 98t-106.5 264q0 162 103 259.5t256 97.5q151 0 249 -97t98 -255q0 -94 -36 -144t-93 -50q-41 0 -69 26t-34 71q-13 -44 -49.5 -70.5t-83.5 -26.5q-63 0 -109.5 48t-46.5 135q0 86 46 131.5t110 45.5q47 0 83 -24.5t46 -66.5l4 80h34v-214
q0 -45 19.5 -72t50.5 -27q40 0 64 42t24 115q0 143 -86 228t-222 85t-226.5 -85.5t-90.5 -231.5q0 -150 96 -236t240 -86q67 0 107 13v-39q-39 -14 -109 -14zM269 346q0 -68 35 -107t84 -39q50 0 85 39.5t35 106.5q0 66 -34.5 102.5t-84.5 36.5t-85 -35.5t-35 -103.5z" />
    <glyph glyph-name="A" unicode="A" horiz-adv-x="665" 
d="M24 0l272 700h73l272 -700h-65l-72 189h-343l-72 -189h-65zM180 237h305l-150 394h-5z" />
    <glyph glyph-name="B" unicode="B" horiz-adv-x="595" 
d="M59 0v700h257q101 0 151 -45.5t50 -120.5q0 -117 -107 -151q71 -16 110.5 -62.5t39.5 -120.5q0 -92 -61.5 -146t-182.5 -54h-257zM120 54h192q91 0 137.5 39.5t46.5 109.5q0 69 -47 108.5t-137 39.5h-192v-297zM120 405h189q145 0 145 123q0 119 -145 119h-189v-242z" />
    <glyph glyph-name="C" unicode="C" horiz-adv-x="654" 
d="M356 -10q-141 0 -226.5 92.5t-85.5 267.5q0 174 85.5 266.5t226.5 92.5q106 0 177.5 -52t90.5 -149h-61q-19 70 -73 108.5t-134 38.5q-114 0 -182.5 -78.5t-68.5 -226.5t68.5 -227t182.5 -79q80 0 134 38.5t73 109.5h61q-19 -98 -90.5 -150t-177.5 -52z" />
    <glyph glyph-name="D" unicode="D" horiz-adv-x="649" 
d="M59 0v700h215q164 0 247.5 -90.5t83.5 -259.5t-83.5 -259.5t-247.5 -90.5h-215zM120 55h148q141 0 208 73t67 222t-67 222t-208 73h-148v-590z" />
    <glyph glyph-name="E" unicode="E" horiz-adv-x="538" 
d="M59 0v700h435v-55h-374v-258h344v-52h-344v-280h384v-55h-445z" />
    <glyph glyph-name="F" unicode="F" horiz-adv-x="529" 
d="M59 0v700h440v-55h-379v-268h310v-53h-310v-324h-61z" />
    <glyph glyph-name="G" unicode="G" horiz-adv-x="692" 
d="M359 -10q-145 0 -230 92.5t-85 267.5q0 174 85.5 266.5t228.5 92.5q101 0 168 -45.5t89 -130.5h-60q-45 122 -197 122q-117 0 -185 -78t-68 -227t68.5 -227.5t185.5 -78.5q107 0 166 64.5t59 190.5h-189v52h248v-42q0 -155 -74 -237t-210 -82z" />
    <glyph glyph-name="H" unicode="H" horiz-adv-x="640" 
d="M520 0v315h-400v-315h-61v700h61v-333h400v333h61v-700h-61z" />
    <glyph glyph-name="I" unicode="I" horiz-adv-x="180" 
d="M59 0v700h61v-700h-61z" />
    <glyph glyph-name="J" unicode="J" horiz-adv-x="639" 
d="M318 -10q-122 0 -190.5 70.5t-68.5 198.5h62q0 -102 52.5 -158t145.5 -56q94 0 146.5 57.5t52.5 164.5v433h62v-437q0 -129 -69.5 -201t-192.5 -72z" />
    <glyph glyph-name="K" unicode="K" horiz-adv-x="614" 
d="M59 0v700h61v-409l371 409h74l-296 -326l321 -374h-73l-287 331l-110 -121v-210h-61z" />
    <glyph glyph-name="L" unicode="L" horiz-adv-x="525" 
d="M59 0v700h61v-645h370v-55h-431z" />
    <glyph glyph-name="M" unicode="M" horiz-adv-x="823" 
d="M59 0v700h71l281 -624l281 624h71v-700h-61v581h-2l-262 -581h-54l-261 581h-3v-581h-61z" />
    <glyph glyph-name="N" unicode="N" horiz-adv-x="652" 
d="M59 0v700h72l398 -610h2v610h61v-700h-73l-396 609h-3v-609h-61z" />
    <glyph glyph-name="O" unicode="O" horiz-adv-x="713" 
d="M357 -10q-138 0 -225.5 94t-87.5 266t87.5 265.5t225.5 93.5q137 0 224.5 -93.5t87.5 -265.5t-87.5 -266t-224.5 -94zM106 350q0 -149 69.5 -227.5t181.5 -78.5q111 0 180.5 78.5t69.5 227.5q0 148 -69.5 226.5t-180.5 78.5q-112 0 -181.5 -78.5t-69.5 -226.5z" />
    <glyph glyph-name="P" unicode="P" horiz-adv-x="580" 
d="M59 0v700h247q117 0 178.5 -55t61.5 -155q0 -99 -61.5 -154t-178.5 -55h-186v-281h-61zM120 336h184q88 0 134 39.5t46 114.5q0 155 -180 155h-184v-309z" />
    <glyph glyph-name="Q" unicode="Q" horiz-adv-x="713" 
d="M632 -11l-72 73q-82 -72 -203 -72q-138 0 -225.5 94t-87.5 266t87.5 265.5t225.5 93.5q137 0 224.5 -93.5t87.5 -265.5q0 -154 -74 -251l73 -74zM106 350q0 -149 69.5 -227.5t181.5 -78.5q97 0 162 59l-141 143l36 36l138 -140q55 79 55 208q0 148 -69.5 226.5
t-180.5 78.5q-112 0 -181.5 -78.5t-69.5 -226.5z" />
    <glyph glyph-name="R" unicode="R" horiz-adv-x="585" 
d="M59 0v700h247q117 0 178.5 -55t61.5 -155q0 -81 -42.5 -133.5t-123.5 -68.5l171 -288h-63l-167 281h-201v-281h-61zM120 336h184q88 0 134 39.5t46 114.5q0 155 -180 155h-184v-309z" />
    <glyph glyph-name="S" unicode="S" horiz-adv-x="600" 
d="M305 -10q-126 0 -193.5 57.5t-67.5 147.5h61q4 -68 54 -110t147 -42q92 0 139.5 39.5t47.5 106.5q0 62 -39 93.5t-112 46.5l-91 18q-186 38 -186 181q0 82 60 131.5t174 49.5q112 0 173.5 -49t61.5 -129h-59q-4 56 -47.5 90.5t-128.5 34.5q-86 0 -128.5 -35.5
t-42.5 -92.5q0 -103 142 -131l90 -18q95 -19 145.5 -62.5t50.5 -126.5q0 -93 -66 -146.5t-185 -53.5z" />
    <glyph glyph-name="T" unicode="T" horiz-adv-x="573" 
d="M256 0v644h-227v56h515v-56h-227v-644h-61z" />
    <glyph glyph-name="U" unicode="U" horiz-adv-x="645" 
d="M322 -10q-123 0 -193 72.5t-70 201.5v436h62v-433q0 -107 52.5 -164.5t148.5 -57.5t149 57.5t53 164.5v433h62v-436q0 -129 -70.5 -201.5t-193.5 -72.5z" />
    <glyph glyph-name="V" unicode="V" horiz-adv-x="675" 
d="M301 0l-272 700h65l241 -631h5l241 631h65l-272 -700h-73z" />
    <glyph glyph-name="W" unicode="W" horiz-adv-x="956" 
d="M219 0l-190 700h63l162 -615h3l187 615h68l187 -615h3l162 615h63l-189 -700h-68l-192 622l-192 -622h-67z" />
    <glyph glyph-name="X" unicode="X" horiz-adv-x="635" 
d="M541 0l-224 313l-224 -313h-69l259 362l-242 338h69l207 -290l207 290h70l-242 -338l258 -362h-69z" />
    <glyph glyph-name="Y" unicode="Y" horiz-adv-x="635" 
d="M287 0v279l-258 421h69l220 -361l219 361h69l-258 -421v-279h-61z" />
    <glyph glyph-name="Z" unicode="Z" horiz-adv-x="607" 
d="M40 0v55l453 590h-433v55h503v-55l-454 -590h458v-55h-527z" />
    <glyph glyph-name="bracketleft" unicode="[" horiz-adv-x="266" 
d="M59 -130v875h148v-52h-89v-771h89v-52h-148z" />
    <glyph glyph-name="backslash" unicode="\" horiz-adv-x="389" 
d="M359 0h-58l-271 700h58z" />
    <glyph glyph-name="bracketright" unicode="]" horiz-adv-x="266" 
d="M207 -130h-148v52h89v771h-89v52h148v-875z" />
    <glyph glyph-name="asciicircum" unicode="^" horiz-adv-x="473" 
d="M45 465l169 235h45l169 -235h-57l-134 186l-134 -186h-58z" />
    <glyph glyph-name="underscore" unicode="_" horiz-adv-x="590" 
d="M45 -53v53h500v-53h-500z" />
    <glyph glyph-name="grave" unicode="`" horiz-adv-x="155" 
d="M100 582l-100 129h55l100 -129h-55z" />
    <glyph glyph-name="a" unicode="a" horiz-adv-x="529" 
d="M203 -10q-78 0 -123.5 35.5t-45.5 103.5q0 127 163 146l137 16q77 8 77 36v29q0 68 -35 97.5t-109 29.5q-145 0 -145 -106v-12h-57v16q0 149 204 149q103 0 152 -41.5t49 -133.5v-355h-57v95h-3q-17 -35 -70.5 -70t-136.5 -35zM93 133q0 -94 122 -94q90 0 143 47.5
t53 92.5v93q-5 -21 -81 -30l-119 -13q-64 -8 -91 -32t-27 -64z" />
    <glyph glyph-name="b" unicode="b" horiz-adv-x="582" 
d="M312 -10q-60 0 -112 26t-82 76v-92h-59v700h59v-272q30 50 82 76t112 26q100 0 168 -69t68 -201t-68 -201t-168 -69zM115 260q0 -106 55.5 -163t133.5 -57q79 0 133.5 57t54.5 163t-54.5 163t-133.5 57q-78 0 -133.5 -57t-55.5 -163z" />
    <glyph glyph-name="c" unicode="c" horiz-adv-x="528" 
d="M282 -10q-107 0 -177.5 69.5t-70.5 199.5t70.5 200.5t177.5 70.5q80 0 141.5 -42.5t74.5 -136.5h-54q-12 66 -57.5 97t-105.5 31q-84 0 -137 -57t-53 -163t53 -162t137 -56q61 0 106 31.5t57 99.5h54q-13 -96 -74 -139t-142 -43z" />
    <glyph glyph-name="d" unicode="d" horiz-adv-x="582" 
d="M270 -10q-100 0 -168 69t-68 201t68 201t168 69q60 0 112 -26t82 -76v272h59v-700h-59v92q-30 -50 -82 -76t-112 -26zM90 260q0 -106 54.5 -163t133.5 -57q78 0 133.5 57t55.5 163t-55.5 163t-133.5 57q-79 0 -133.5 -57t-54.5 -163z" />
    <glyph glyph-name="e" unicode="e" horiz-adv-x="533" 
d="M277 -10q-113 0 -178 68.5t-65 199.5q0 135 66.5 203.5t171.5 68.5q103 0 165 -65.5t62 -187.5q0 -23 -3 -36h-405q3 -101 51 -152t136 -51q124 0 159 101h55q-47 -149 -215 -149zM91 288h351q-1 94 -46.5 144t-124.5 50q-77 0 -126.5 -49.5t-53.5 -144.5z" />
    <glyph glyph-name="f" unicode="f" horiz-adv-x="293" 
d="M96 599q0 117 123 117h49v-48h-34q-43 0 -61 -17.5t-18 -62.5v-68h110v-49h-110v-471h-59v471h-72v49h72v79z" />
    <glyph glyph-name="g" unicode="g" horiz-adv-x="578" 
d="M274 -209q-92 0 -156 39.5t-65 117.5h51q2 -50 49.5 -79.5t121.5 -29.5q83 0 134 40.5t51 125.5v105h-2q-28 -49 -80 -74.5t-112 -25.5q-98 0 -165 66.5t-67 193.5t67 193.5t165 66.5q60 0 112 -25.5t80 -74.5h2v90h59v-515q0 -60 -21.5 -103.5t-58.5 -66.5t-77.5 -33.5
t-87.5 -10.5zM91 270q0 -102 53 -155.5t131 -53.5t133 54t55 155t-55 155.5t-133 54.5t-131 -54t-53 -156z" />
    <glyph glyph-name="h" unicode="h" 
d="M432 308q0 171 -147 171q-78 0 -122.5 -46t-44.5 -125v-308h-59v700h59v-280h1q10 36 56 73t127 37q84 0 136.5 -50t52.5 -162v-318h-59v308z" />
    <glyph glyph-name="i" unicode="i" horiz-adv-x="178" 
d="M59 0v520h59v-520h-59zM48 677q0 17 12 29t29 12t29 -12t12 -29t-12 -29t-29 -12t-29 12t-12 29z" />
    <glyph glyph-name="j" unicode="j" horiz-adv-x="197" 
d="M15 -186q-20 0 -47 3v47h28q46 0 64.5 18t18.5 63v575h59v-588q0 -118 -123 -118zM67 677q0 17 12 29t29 12t29 -12t12 -29t-12.5 -29t-28.5 -12t-28.5 12t-12.5 29z" />
    <glyph glyph-name="k" unicode="k" horiz-adv-x="526" 
d="M59 0v700h59v-482l295 302h69l-225 -227l255 -293h-70l-222 255l-102 -104v-151h-59z" />
    <glyph glyph-name="l" unicode="l" horiz-adv-x="178" 
d="M59 0v700h59v-700h-59z" />
    <glyph glyph-name="m" unicode="m" horiz-adv-x="865" 
d="M746 308q0 171 -136 171q-70 0 -109 -46t-39 -125v-308h-59v308q0 171 -135 171q-71 0 -110.5 -46t-39.5 -125v-308h-59v520h59v-100q9 36 50.5 73t117.5 37q127 0 163 -115q7 18 18 34.5t31 36.5t53.5 32t75.5 12q81 0 129.5 -50t48.5 -162v-318h-59v308z" />
    <glyph glyph-name="n" unicode="n" 
d="M432 308q0 171 -147 171q-78 0 -122.5 -46t-44.5 -125v-308h-59v520h59v-100h1q10 36 56 73t127 37q84 0 136.5 -50t52.5 -162v-318h-59v308z" />
    <glyph glyph-name="o" unicode="o" horiz-adv-x="562" 
d="M281 -10q-104 0 -175.5 69.5t-71.5 200.5t71.5 200.5t175.5 69.5t175 -69.5t71 -200.5t-71 -200.5t-175 -69.5zM91 260q0 -107 55.5 -163.5t134.5 -56.5t134 56.5t55 163.5t-55 163.5t-134 56.5t-134.5 -56.5t-55.5 -163.5z" />
    <glyph glyph-name="p" unicode="p" horiz-adv-x="582" 
d="M59 -190v710h59v-92q30 50 82 76t112 26q100 0 168 -69t68 -201t-68 -201t-168 -69q-60 0 -112 26t-82 76v-282h-59zM115 260q0 -106 55.5 -163t133.5 -57q79 0 133.5 57t54.5 163t-54.5 163t-133.5 57q-78 0 -133.5 -57t-55.5 -163z" />
    <glyph glyph-name="q" unicode="q" horiz-adv-x="582" 
d="M523 -190h-59v282q-30 -50 -82 -76t-112 -26q-100 0 -168 69t-68 201t68 201t168 69q60 0 112 -26t82 -76v92h59v-710zM90 260q0 -106 54.5 -163t133.5 -57q78 0 133.5 57t55.5 163t-55.5 163t-133.5 57q-79 0 -133.5 -57t-54.5 -163z" />
    <glyph glyph-name="r" unicode="r" horiz-adv-x="351" 
d="M59 0v520h59v-113h2q12 45 54.5 82t114.5 37q24 0 38 -5v-50q-12 2 -37 2q-82 0 -127 -51.5t-45 -133.5v-288h-59z" />
    <glyph glyph-name="s" unicode="s" horiz-adv-x="473" 
d="M240 -10q-90 0 -148 37.5t-63 112.5h54q8 -54 52.5 -78t105.5 -24q63 0 102.5 25.5t39.5 77.5q0 42 -24.5 60.5t-78.5 31.5l-99 24q-135 33 -135 136q0 66 51 101.5t139 35.5q87 0 139 -36t57 -110h-50q-17 98 -145 98q-133 0 -133 -90q0 -34 22.5 -55t74.5 -34l97 -23
q73 -17 109.5 -47.5t36.5 -90.5q0 -80 -59 -116t-145 -36z" />
    <glyph glyph-name="t" unicode="t" horiz-adv-x="308" 
d="M227 -7q-120 0 -120 118v359h-83v50h83v129h59v-129h104v-50h-104v-346q0 -45 18 -63t61 -18q21 0 33 2v-47q-25 -5 -51 -5z" />
    <glyph glyph-name="u" unicode="u" 
d="M118 212q0 -171 147 -171q78 0 122.5 46t44.5 125v308h59v-520h-59v100h-1q-10 -36 -56 -73t-127 -37q-84 0 -136.5 50t-52.5 162v318h59v-308z" />
    <glyph glyph-name="v" unicode="v" horiz-adv-x="533" 
d="M230 0l-206 520h60l181 -464h2l181 464h60l-205 -520h-73z" />
    <glyph glyph-name="w" unicode="w" horiz-adv-x="785" 
d="M176 0l-152 520h59l127 -457h4l152 457h53l151 -457h4l128 457h58l-151 -520h-68l-149 442l-149 -442h-67z" />
    <glyph glyph-name="x" unicode="x" horiz-adv-x="508" 
d="M34 0l187 263l-183 257h67l149 -212l148 212h68l-184 -257l187 -263h-67l-152 219l-152 -219h-68z" />
    <glyph glyph-name="y" unicode="y" horiz-adv-x="521" 
d="M78 -138q101 -14 140 90q15 39 5 66l-199 502h61l176 -455l175 455h61l-228 -575q-32 -80 -78.5 -112t-112.5 -23v52z" />
    <glyph glyph-name="z" unicode="z" horiz-adv-x="494" 
d="M40 0v51l344 418h-334v51h404v-51l-344 -418h344v-51h-414z" />
    <glyph glyph-name="braceleft" unicode="{" horiz-adv-x="264" 
d="M167 -130q-33 0 -55 21.5t-22 57.5v286l-45 71l45 73v287q0 36 22 57.5t55 21.5h52v-52h-35q-16 0 -25.5 -9.5t-9.5 -25.5v-284l-41 -68l41 -66v-283q0 -16 9.5 -25.5t25.5 -9.5h35v-52h-52z" />
    <glyph glyph-name="bar" unicode="|" horiz-adv-x="203" 
d="M75 -190v990h53v-990h-53z" />
    <glyph glyph-name="braceright" unicode="}" horiz-adv-x="264" 
d="M97 -130h-52v52h35q16 0 25.5 9.5t9.5 25.5v283l41 66l-41 68v284q0 16 -9.5 25.5t-25.5 9.5h-35v52h52q33 0 55 -21.5t22 -57.5v-287l45 -73l-45 -71v-286q0 -36 -22 -57.5t-55 -21.5z" />
    <glyph glyph-name="asciitilde" unicode="~" horiz-adv-x="491" 
d="M338 231q-27 0 -53 13t-43 28.5t-40 28.5t-46 13q-30 0 -44.5 -18t-14.5 -40h-38q-1 45 27 71t68 26q42 0 95 -42t86 -42q29 0 43.5 18t14.5 40h38q1 -45 -26 -70.5t-67 -25.5z" />
    <glyph glyph-name="uni00A0" unicode="&#xa0;" horiz-adv-x="230" 
 />
    <glyph glyph-name="exclamdown" unicode="&#xa1;" horiz-adv-x="211" 
d="M80 337h51l5 -517h-61zM59 484q0 19 14 32.5t33 13.5t32.5 -13.5t13.5 -32.5t-13.5 -32.5t-32.5 -13.5q-20 0 -33.5 13.5t-13.5 32.5z" />
    <glyph glyph-name="cent" unicode="&#xa2;" horiz-adv-x="528" 
d="M255 -40v106q-98 9 -159.5 76.5t-61.5 186.5t62 187t159 77v107h32v-106q50 -1 92 -16.5t76 -56t43 -102.5h-54q-12 62 -55.5 92.5t-101.5 32.5v-429q58 2 101.5 33t55.5 96h54q-13 -93 -72 -135t-139 -44v-105h-32zM91 329q0 -95 45 -149.5t119 -63.5v427
q-74 -9 -119 -64t-45 -150z" />
    <glyph glyph-name="sterling" unicode="&#xa3;" horiz-adv-x="535" 
d="M50 35q98 97 97 196q0 27 -11 64h-87v39h71q-4 9 -15 32t-16.5 35.5t-13 33t-10.5 40.5t-3 41q0 88 59 139.5t152 51.5q96 0 154 -56t58 -152v-19h-55v17q0 76 -43.5 116.5t-112.5 40.5q-67 0 -110.5 -37t-43.5 -102q0 -30 8 -57.5t27.5 -69.5t24.5 -54h142v-39h-128
q9 -30 9 -62q0 -96 -93 -189q45 17 95 17t88 -9t88 -11t96 11v-52q-49 -13 -102.5 -9.5t-94.5 13.5t-94.5 9t-104.5 -23z" />
    <glyph glyph-name="currency" unicode="&#xa4;" horiz-adv-x="553" 
d="M276 252q-78 0 -139 48l-45 -45l-40 40l45 45q-45 61 -45 136q0 77 46 137l-46 46l40 39l46 -46q61 48 138 48q78 0 139 -48l46 46l40 -39l-47 -47q46 -60 46 -136q0 -74 -45 -135l46 -46l-40 -40l-46 46q-60 -49 -139 -49zM103 476q0 -70 51 -121.5t122 -51.5
t122.5 51.5t51.5 121.5q0 69 -51.5 121t-122.5 52t-122 -52t-51 -121z" />
    <glyph glyph-name="yen" unicode="&#xa5;" horiz-adv-x="635" 
d="M151 239v38h136v2l-258 421h69l220 -361l219 361h69l-258 -421v-2h137v-38h-137v-55h137v-38h-137v-146h-61v146h-136v38h136v55h-136z" />
    <glyph glyph-name="brokenbar" unicode="&#xa6;" horiz-adv-x="203" 
d="M75 480v320h53v-320h-53zM75 -190v320h53v-320h-53z" />
    <glyph glyph-name="section" unicode="&#xa7;" horiz-adv-x="617" 
d="M305 -236q-119 0 -181.5 53.5t-73.5 144.5h63q12 -67 55.5 -105.5t136.5 -38.5q189 0 189 139q0 63 -37 94.5t-106 45.5l-104 22q-180 37 -180 181q0 75 48 120q-38 44 -38 108q0 80 59 130t172 50q211 0 234 -171h-62q-9 55 -48 86t-124 31q-87 0 -127 -35t-40 -91
q0 -51 29.5 -83.5t100.5 -46.5l89 -18q100 -21 153.5 -66.5t53.5 -130.5q0 -73 -44 -120q34 -43 34 -107q0 -91 -65.5 -141.5t-186.5 -50.5zM131 300q0 -103 130 -130l88 -18q85 -19 128 -52q27 32 27 83q0 113 -142 142l-104 22q-57 12 -96 38q-31 -32 -31 -85z" />
    <glyph glyph-name="dieresis" unicode="&#xa8;" horiz-adv-x="255" 
d="M214 636q-16 0 -28.5 12t-12.5 29t12.5 29t28.5 12t28.5 -12t12.5 -29t-12.5 -29t-28.5 -12zM0 677q0 17 12 29t29 12t29 -12t12 -29t-12 -29t-29 -12t-29 12t-12 29z" />
    <glyph glyph-name="copyright" unicode="&#xa9;" horiz-adv-x="803" 
d="M401 -7q-150 0 -253.5 101.5t-103.5 255.5q0 153 104 254.5t253 101.5t253 -101.5t104 -254.5q0 -154 -103.5 -255.5t-253.5 -101.5zM85 350q0 -138 92 -228t224 -90q133 0 225 90t92 228q0 137 -92 227t-225 90q-132 0 -224 -90t-92 -227zM199 350q0 99 58 156t146 57
q59 0 106 -29t67 -91h-43q-30 80 -131 80q-71 0 -116 -45.5t-45 -127.5t45 -128t116 -46q103 0 133 82h43q-20 -64 -67.5 -93t-107.5 -29q-88 0 -146 57t-58 157z" />
    <glyph glyph-name="ordfeminine" unicode="&#xaa;" horiz-adv-x="364" 
d="M141 384q-48 0 -77.5 23t-29.5 69q0 80 107 89l123 10q-1 51 -18.5 72.5t-66.5 21.5q-84 0 -84 -58h-40q1 95 124 95q71 0 98.5 -32.5t27.5 -105.5v-182h-37l-2 57q-43 -59 -125 -59zM78 479q0 -57 73 -57q47 0 76 21.5t37 43.5v58l-116 -11q-70 -5 -70 -55z" />
    <glyph glyph-name="guillemotleft" unicode="&#xab;" horiz-adv-x="383" 
d="M343 153l-139 121v48l139 121v-61l-96 -84l96 -84v-61zM40 274v48l139 121v-61l-95 -84l95 -84v-61z" />
    <glyph glyph-name="logicalnot" unicode="&#xac;" horiz-adv-x="508" 
d="M390 144v119h-331v49h390v-168h-59z" />
    <glyph glyph-name="uni00AD" unicode="&#xad;" horiz-adv-x="345" 
d="M40 257v48h265v-48h-265z" />
    <glyph glyph-name="registered" unicode="&#xae;" horiz-adv-x="803" 
d="M401 -7q-150 0 -253.5 101.5t-103.5 255.5q0 153 104 254.5t253 101.5t253 -101.5t104 -254.5q0 -154 -103.5 -255.5t-253.5 -101.5zM85 350q0 -138 92 -228t224 -90q133 0 225 90t92 228q0 137 -92 227t-225 90q-132 0 -224 -90t-92 -227zM258 157v385h177
q65 0 102 -32.5t37 -90.5q0 -46 -26 -76.5t-72 -40.5l98 -145h-46l-94 141h-134v-141h-42zM300 333h130q53 0 78.5 23.5t25.5 62.5q0 41 -25.5 64.5t-78.5 23.5h-130v-174z" />
    <glyph glyph-name="macron" unicode="&#xaf;" horiz-adv-x="285" 
d="M0 671v40h285v-40h-285z" />
    <glyph glyph-name="degree" unicode="&#xb0;" horiz-adv-x="371" 
d="M186 424q-63 0 -105 41.5t-42 104.5t42 104.5t105 41.5q62 0 104 -41.5t42 -104.5t-42 -104.5t-104 -41.5zM84 570q0 -45 28.5 -73.5t73.5 -28.5q44 0 72.5 28.5t28.5 73.5t-28.5 73.5t-72.5 28.5q-45 0 -73.5 -28.5t-28.5 -73.5z" />
    <glyph glyph-name="plusminus" unicode="&#xb1;" horiz-adv-x="523" 
d="M233 141v175h-174v54h174v175h56v-175h175v-54h-175v-175h-56zM90 0v47h344v-47h-344z" />
    <glyph glyph-name="uni00B2" unicode="&#xb2;" horiz-adv-x="250" 
d="M40 449q0 36 17.5 63t57.5 53q23 14 32.5 21t17 19t7.5 27q0 21 -13.5 33.5t-37.5 12.5t-38 -14t-14 -39v-6h-29v6q0 36 22 58t59 22t58.5 -20.5t21.5 -52.5q0 -28 -17.5 -47.5t-54.5 -42.5q-59 -35 -59 -73v-3h135v-26h-165v9z" />
    <glyph glyph-name="uni00B3" unicode="&#xb3;" horiz-adv-x="266" 
d="M133 436q-44 0 -68.5 23t-24.5 62h28q1 -60 66 -60q28 0 46 13.5t18 39.5q0 51 -70 51h-11v23h11q28 0 43.5 14t15.5 33q0 20 -14.5 32.5t-39.5 12.5q-57 0 -57 -57h-27q0 39 22.5 60.5t61.5 21.5q38 0 59.5 -19.5t21.5 -49.5q0 -21 -13 -36.5t-34 -20.5
q24 -5 41.5 -21.5t17.5 -45.5q0 -33 -24.5 -54.5t-68.5 -21.5z" />
    <glyph glyph-name="acute" unicode="&#xb4;" horiz-adv-x="155" 
d="M0 582l100 129h55l-100 -129h-55z" />
    <glyph glyph-name="uni00B5" unicode="&#xb5;" 
d="M59 -190v710h59v-308q0 -171 147 -171q78 0 122.5 46t44.5 125v308h59v-520h-59v97q-5 -15 -16 -30.5t-30.5 -34t-52.5 -30.5t-74 -12q-99 0 -141 74v-254h-59z" />
    <glyph glyph-name="paragraph" unicode="&#xb6;" horiz-adv-x="559" 
d="M312 -220v530h-76q-94 0 -148 54t-54 140q0 88 54 142t148 54h264v-920h-50v877h-85v-877h-53z" />
    <glyph glyph-name="periodcentered" unicode="&#xb7;" horiz-adv-x="191" 
d="M96 235q-19 0 -33 13.5t-14 32.5t13.5 32.5t33.5 13.5q19 0 32.5 -13.5t13.5 -32.5t-13.5 -32.5t-32.5 -13.5z" />
    <glyph glyph-name="cedilla" unicode="&#xb8;" horiz-adv-x="146" 
d="M18 -175q81 0 81 51q0 26 -22.5 37.5t-53.5 -1.5l-23 26l50 62h50l-42 -48q4 1 13 1q30 0 52.5 -20t22.5 -55q0 -45 -36 -68t-92 -23v38z" />
    <glyph glyph-name="uni00B9" unicode="&#xb9;" horiz-adv-x="165" 
d="M92 661q-15 -26 -52 -23v26q17 0 31.5 11t20.5 25h28v-261h-28v222z" />
    <glyph glyph-name="ordmasculine" unicode="&#xba;" horiz-adv-x="382" 
d="M191 384q-63 0 -110 43.5t-47 117.5q0 75 46.5 118t110.5 43q63 0 109.5 -43t46.5 -118q0 -74 -46.5 -117.5t-109.5 -43.5zM77 545q0 -56 33 -87.5t81 -31.5t80.5 31t32.5 88t-32.5 88t-80.5 31t-81 -31.5t-33 -87.5z" />
    <glyph glyph-name="guillemotright" unicode="&#xbb;" horiz-adv-x="364" 
d="M26 153v61l96 84l-96 84v61l139 -121v-48zM190 153v61l95 84l-95 84v61l139 -121v-48z" />
    <glyph glyph-name="onequarter" unicode="&#xbc;" horiz-adv-x="582" 
d="M92 661q-15 -26 -52 -23v26q17 0 31.5 11t20.5 25h28v-261h-28v222zM50 0l437 700h34l-436 -700h-35zM360 66v23l120 172h27v-172h30v-23h-30v-66h-27v66h-120zM387 89h93v134z" />
    <glyph glyph-name="onehalf" unicode="&#xbd;" horiz-adv-x="582" 
d="M96 661q-15 -26 -52 -23v26q17 0 31.5 11t20.5 25h28v-261h-28v222zM62 0l437 700h34l-436 -700h-35zM373 0v9q0 36 17.5 63t57.5 53q23 14 32.5 21t17 19t7.5 27q0 21 -13.5 33.5t-37.5 12.5t-38 -14t-14 -39v-6h-29v6q0 36 22 58t59 22t58.5 -20.5t21.5 -52.5
q0 -28 -17.5 -47.5t-54.5 -42.5q-59 -35 -59 -73v-3h135v-26h-165z" />
    <glyph glyph-name="threequarters" unicode="&#xbe;" horiz-adv-x="619" 
d="M133 436q-44 0 -68.5 23t-24.5 62h28q1 -60 66 -60q28 0 46 13.5t18 39.5q0 51 -70 51h-11v23h11q28 0 43.5 14t15.5 33q0 20 -14.5 32.5t-39.5 12.5q-57 0 -57 -57h-27q0 39 22.5 60.5t61.5 21.5q38 0 59.5 -19.5t21.5 -49.5q0 -21 -13 -36.5t-34 -20.5
q24 -5 41.5 -21.5t17.5 -45.5q0 -33 -24.5 -54.5t-68.5 -21.5zM105 0l437 700h34l-436 -700h-35zM381 66v23l120 172h27v-172h30v-23h-30v-66h-27v66h-120zM408 89h93v134z" />
    <glyph glyph-name="questiondown" unicode="&#xbf;" horiz-adv-x="511" 
d="M285 288q0 -46 -18.5 -80.5t-45 -55.5t-53.5 -40.5t-45.5 -47t-18.5 -64.5q0 -65 41 -99.5t110 -34.5q68 0 110 42t42 123h59q1 -103 -57 -160.5t-154 -57.5q-94 0 -152 49.5t-58 137.5q0 45 18.5 77.5t44.5 53t52 39.5t44.5 48.5t18.5 69.5v47h62v-47zM204 484
q0 19 13.5 32.5t32.5 13.5t33 -13.5t14 -32.5t-13.5 -32.5t-33.5 -13.5q-19 0 -32.5 13.5t-13.5 32.5z" />
    <glyph glyph-name="Agrave" unicode="&#xc0;" horiz-adv-x="665" 
d="M24 0l272 700h73l272 -700h-65l-72 189h-343l-72 -189h-65zM180 237h305l-150 394h-5zM217 891h55l100 -129h-55z" />
    <glyph glyph-name="Aacute" unicode="&#xc1;" horiz-adv-x="665" 
d="M24 0l272 700h73l272 -700h-65l-72 189h-343l-72 -189h-65zM180 237h305l-150 394h-5zM304 762l100 129h55l-100 -129h-55z" />
    <glyph glyph-name="Acircumflex" unicode="&#xc2;" horiz-adv-x="665" 
d="M24 0l272 700h73l272 -700h-65l-72 189h-343l-72 -189h-65zM180 237h305l-150 394h-5zM191 765l102 126h78l102 -126h-57l-84 103l-84 -103h-57z" />
    <glyph glyph-name="Atilde" unicode="&#xc3;" horiz-adv-x="665" 
d="M24 0l272 700h73l272 -700h-65l-72 189h-343l-72 -189h-65zM180 237h305l-150 394h-5zM180 811q0 45 22.5 67.5t58.5 22.5q24 0 44 -11t31.5 -24.5t28.5 -24.5t34 -11q24 0 35 15t10 34h41q0 -45 -22.5 -67.5t-58.5 -22.5q-24 0 -44 11t-32 24.5t-28.5 24.5t-34.5 11
q-23 0 -34 -15t-10 -34h-41z" />
    <glyph glyph-name="Adieresis" unicode="&#xc4;" horiz-adv-x="665" 
d="M24 0l272 700h73l272 -700h-65l-72 189h-343l-72 -189h-65zM180 237h305l-150 394h-5zM205 857q0 17 12.5 29t28.5 12t28.5 -12t12.5 -29t-12.5 -29t-28.5 -12t-28.5 12t-12.5 29zM378 857q0 17 12 29t29 12t29 -12t12 -29t-12 -29t-29 -12t-29 12t-12 29z" />
    <glyph glyph-name="Aring" unicode="&#xc5;" horiz-adv-x="665" 
d="M24 0l272 700h73l272 -700h-65l-72 189h-343l-72 -189h-65zM180 237h305l-150 394h-5zM250 835q0 34 24 57.5t59 23.5t59 -23.5t24 -57.5q0 -33 -24 -57t-59 -24t-59 24t-24 57zM284 835q0 -20 14.5 -34t34.5 -14t34.5 14t14.5 34q0 21 -14.5 35t-34.5 14t-34.5 -14
t-14.5 -35z" />
    <glyph glyph-name="AE" unicode="&#xc6;" horiz-adv-x="982" 
d="M24 0l458 700h456v-55h-374v-258h344v-52h-344v-280h384v-55h-445v194h-284l-126 -194h-69zM252 244h251v387z" />
    <glyph glyph-name="Ccedilla" unicode="&#xc7;" horiz-adv-x="654" 
d="M299 -175q81 0 81 51q0 26 -22 37.5t-54 -1.5l-23 26l43 53q-128 11 -204 103t-76 256q0 174 85.5 266.5t226.5 92.5q106 0 177.5 -52t90.5 -149h-61q-19 70 -73 108.5t-134 38.5q-114 0 -182.5 -78.5t-68.5 -226.5t68.5 -227t182.5 -79q80 0 134 38.5t73 109.5h61
q-18 -94 -84.5 -145.5t-166.5 -56.5l-34 -38q4 1 13 1q30 0 52.5 -20t22.5 -55q0 -45 -36 -68t-92 -23v38z" />
    <glyph glyph-name="Egrave" unicode="&#xc8;" horiz-adv-x="538" 
d="M59 0v700h435v-55h-374v-258h344v-52h-344v-280h384v-55h-445zM158 891h55l100 -129h-55z" />
    <glyph glyph-name="Eacute" unicode="&#xc9;" horiz-adv-x="538" 
d="M59 0v700h435v-55h-374v-258h344v-52h-344v-280h384v-55h-445zM245 762l100 129h55l-100 -129h-55z" />
    <glyph glyph-name="Ecircumflex" unicode="&#xca;" horiz-adv-x="538" 
d="M59 0v700h435v-55h-374v-258h344v-52h-344v-280h384v-55h-445zM132 765l102 126h78l102 -126h-57l-84 103l-84 -103h-57z" />
    <glyph glyph-name="Edieresis" unicode="&#xcb;" horiz-adv-x="538" 
d="M59 0v700h435v-55h-374v-258h344v-52h-344v-280h384v-55h-445zM146 857q0 17 12 29t29 12t29 -12t12 -29t-12 -29t-29 -12t-29 12t-12 29zM319 857q0 17 12.5 29t28.5 12t28.5 -12t12.5 -29t-12.5 -29t-28.5 -12t-28.5 12t-12.5 29z" />
    <glyph glyph-name="Igrave" unicode="&#xcc;" horiz-adv-x="180" 
d="M59 0v700h61v-700h-61zM-26 891h55l100 -129h-55z" />
    <glyph glyph-name="Iacute" unicode="&#xcd;" horiz-adv-x="180" 
d="M59 0v700h61v-700h-61zM61 762l100 129h55l-100 -129h-55z" />
    <glyph glyph-name="Icircumflex" unicode="&#xce;" horiz-adv-x="180" 
d="M59 0v700h61v-700h-61zM-52 765l102 126h78l102 -126h-57l-84 103l-84 -103h-57z" />
    <glyph glyph-name="Idieresis" unicode="&#xcf;" horiz-adv-x="180" 
d="M59 0v700h61v-700h-61zM-38 857q0 17 12 29t29 12t29 -12t12 -29t-12 -29t-29 -12t-29 12t-12 29zM135 857q0 17 12.5 29t28.5 12t28.5 -12t12.5 -29t-12.5 -29t-28.5 -12t-28.5 12t-12.5 29z" />
    <glyph glyph-name="Eth" unicode="&#xd0;" horiz-adv-x="668" 
d="M79 0v325h-59v48h59v327h215q164 0 247.5 -90.5t83.5 -259.5t-83.5 -259.5t-247.5 -90.5h-215zM140 55h148q141 0 208 73t67 222t-67 222t-208 73h-148v-272h145v-48h-145v-270z" />
    <glyph glyph-name="Ntilde" unicode="&#xd1;" horiz-adv-x="652" 
d="M59 0v700h72l398 -610h2v610h61v-700h-73l-396 609h-3v-609h-61zM174 811q0 45 22.5 67.5t58.5 22.5q24 0 44 -11t31.5 -24.5t28.5 -24.5t34 -11q24 0 35 15t10 34h41q0 -45 -22.5 -67.5t-58.5 -22.5q-24 0 -44 11t-32 24.5t-28.5 24.5t-34.5 11q-23 0 -34 -15t-10 -34
h-41z" />
    <glyph glyph-name="Ograve" unicode="&#xd2;" horiz-adv-x="713" 
d="M357 -10q-138 0 -225.5 94t-87.5 266t87.5 265.5t225.5 93.5q137 0 224.5 -93.5t87.5 -265.5t-87.5 -266t-224.5 -94zM106 350q0 -149 69.5 -227.5t181.5 -78.5q111 0 180.5 78.5t69.5 227.5q0 148 -69.5 226.5t-180.5 78.5q-112 0 -181.5 -78.5t-69.5 -226.5zM241 891
h55l100 -129h-55z" />
    <glyph glyph-name="Oacute" unicode="&#xd3;" horiz-adv-x="713" 
d="M357 -10q-138 0 -225.5 94t-87.5 266t87.5 265.5t225.5 93.5q137 0 224.5 -93.5t87.5 -265.5t-87.5 -266t-224.5 -94zM106 350q0 -149 69.5 -227.5t181.5 -78.5q111 0 180.5 78.5t69.5 227.5q0 148 -69.5 226.5t-180.5 78.5q-112 0 -181.5 -78.5t-69.5 -226.5zM327 762
l100 129h55l-100 -129h-55z" />
    <glyph glyph-name="Ocircumflex" unicode="&#xd4;" horiz-adv-x="713" 
d="M357 -10q-138 0 -225.5 94t-87.5 266t87.5 265.5t225.5 93.5q137 0 224.5 -93.5t87.5 -265.5t-87.5 -266t-224.5 -94zM106 350q0 -149 69.5 -227.5t181.5 -78.5q111 0 180.5 78.5t69.5 227.5q0 148 -69.5 226.5t-180.5 78.5q-112 0 -181.5 -78.5t-69.5 -226.5zM215 765
l102 126h78l102 -126h-57l-84 103l-84 -103h-57z" />
    <glyph glyph-name="Otilde" unicode="&#xd5;" horiz-adv-x="713" 
d="M357 -10q-138 0 -225.5 94t-87.5 266t87.5 265.5t225.5 93.5q137 0 224.5 -93.5t87.5 -265.5t-87.5 -266t-224.5 -94zM106 350q0 -149 69.5 -227.5t181.5 -78.5q111 0 180.5 78.5t69.5 227.5q0 148 -69.5 226.5t-180.5 78.5q-112 0 -181.5 -78.5t-69.5 -226.5zM204 811
q0 45 22.5 67.5t58.5 22.5q24 0 44 -11t31.5 -24.5t28.5 -24.5t34 -11q24 0 35 15t10 34h41q0 -45 -22.5 -67.5t-58.5 -22.5q-24 0 -44 11t-32 24.5t-28.5 24.5t-34.5 11q-23 0 -34 -15t-10 -34h-41z" />
    <glyph glyph-name="Odieresis" unicode="&#xd6;" horiz-adv-x="713" 
d="M357 -10q-138 0 -225.5 94t-87.5 266t87.5 265.5t225.5 93.5q137 0 224.5 -93.5t87.5 -265.5t-87.5 -266t-224.5 -94zM106 350q0 -149 69.5 -227.5t181.5 -78.5q111 0 180.5 78.5t69.5 227.5q0 148 -69.5 226.5t-180.5 78.5q-112 0 -181.5 -78.5t-69.5 -226.5zM229 857
q0 17 12.5 29t28.5 12t28.5 -12t12.5 -29t-12.5 -29t-28.5 -12t-28.5 12t-12.5 29zM402 857q0 17 12 29t29 12t29 -12t12 -29t-12 -29t-29 -12t-29 12t-12 29z" />
    <glyph glyph-name="multiply" unicode="&#xd7;" horiz-adv-x="422" 
d="M87 89l-37 37l124 125l-124 125l37 37l124 -125l123 125l38 -37l-124 -125l124 -125l-38 -37l-123 125z" />
    <glyph glyph-name="Oslash" unicode="&#xd8;" horiz-adv-x="713" 
d="M135 -50l45 92q-136 92 -136 308q0 172 87.5 265.5t225.5 93.5q72 0 136 -28l31 64h54l-43 -89q134 -93 134 -306q0 -172 -87.5 -266t-224.5 -94q-75 0 -135 28l-33 -68h-54zM106 350q0 -178 99 -256l263 537q-50 24 -111 24q-112 0 -181.5 -78.5t-69.5 -226.5zM247 68
q49 -24 110 -24q111 0 180.5 78.5t69.5 227.5q0 176 -98 254z" />
    <glyph glyph-name="Ugrave" unicode="&#xd9;" horiz-adv-x="645" 
d="M322 -10q-123 0 -193 72.5t-70 201.5v436h62v-433q0 -107 52.5 -164.5t148.5 -57.5t149 57.5t53 164.5v433h62v-436q0 -129 -70.5 -201.5t-193.5 -72.5zM206 891h55l100 -129h-55z" />
    <glyph glyph-name="Uacute" unicode="&#xda;" horiz-adv-x="645" 
d="M322 -10q-123 0 -193 72.5t-70 201.5v436h62v-433q0 -107 52.5 -164.5t148.5 -57.5t149 57.5t53 164.5v433h62v-436q0 -129 -70.5 -201.5t-193.5 -72.5zM293 762l100 129h55l-100 -129h-55z" />
    <glyph glyph-name="Ucircumflex" unicode="&#xdb;" horiz-adv-x="645" 
d="M322 -10q-123 0 -193 72.5t-70 201.5v436h62v-433q0 -107 52.5 -164.5t148.5 -57.5t149 57.5t53 164.5v433h62v-436q0 -129 -70.5 -201.5t-193.5 -72.5zM180 765l102 126h78l102 -126h-57l-84 103l-84 -103h-57z" />
    <glyph glyph-name="Udieresis" unicode="&#xdc;" horiz-adv-x="645" 
d="M322 -10q-123 0 -193 72.5t-70 201.5v436h62v-433q0 -107 52.5 -164.5t148.5 -57.5t149 57.5t53 164.5v433h62v-436q0 -129 -70.5 -201.5t-193.5 -72.5zM195 857q0 17 12.5 29t28.5 12t28.5 -12t12.5 -29t-12.5 -29t-28.5 -12t-28.5 12t-12.5 29zM368 857q0 17 12 29
t29 12t29 -12t12 -29t-12 -29t-29 -12t-29 12t-12 29z" />
    <glyph glyph-name="Yacute" unicode="&#xdd;" horiz-adv-x="635" 
d="M287 0v279l-258 421h69l220 -361l219 361h69l-258 -421v-279h-61zM289 762l100 129h55l-100 -129h-55z" />
    <glyph glyph-name="Thorn" unicode="&#xde;" horiz-adv-x="580" 
d="M59 0v700h61v-140h186q117 0 178.5 -55t61.5 -156q0 -99 -62 -153.5t-178 -54.5h-186v-141h-61zM120 195h184q88 0 134 39.5t46 114.5q0 77 -46 116.5t-134 39.5h-184v-310z" />
    <glyph glyph-name="germandbls" unicode="&#xdf;" horiz-adv-x="565" 
d="M59 524q0 185 214 185q103 0 158.5 -43t55.5 -127q0 -120 -112 -146q155 -33 155 -189q0 -204 -258 -204h-71v53h66q204 0 204 153q0 79 -53 119t-148 40h-69v49h69q80 0 119 28.5t39 90.5q0 124 -156 124q-78 0 -116 -32t-38 -101v-524h-59v524z" />
    <glyph glyph-name="agrave" unicode="&#xe0;" horiz-adv-x="529" 
d="M203 -10q-78 0 -123.5 35.5t-45.5 103.5q0 127 163 146l137 16q77 8 77 36v29q0 68 -35 97.5t-109 29.5q-145 0 -145 -106v-12h-57v16q0 149 204 149q103 0 152 -41.5t49 -133.5v-355h-57v95h-3q-17 -35 -70.5 -70t-136.5 -35zM93 133q0 -94 122 -94q90 0 143 47.5
t53 92.5v93q-5 -21 -81 -30l-119 -13q-64 -8 -91 -32t-27 -64zM156 711h55l100 -129h-55z" />
    <glyph glyph-name="aacute" unicode="&#xe1;" horiz-adv-x="529" 
d="M203 -10q-78 0 -123.5 35.5t-45.5 103.5q0 127 163 146l137 16q77 8 77 36v29q0 68 -35 97.5t-109 29.5q-145 0 -145 -106v-12h-57v16q0 149 204 149q103 0 152 -41.5t49 -133.5v-355h-57v95h-3q-17 -35 -70.5 -70t-136.5 -35zM93 133q0 -94 122 -94q90 0 143 47.5
t53 92.5v93q-5 -21 -81 -30l-119 -13q-64 -8 -91 -32t-27 -64zM243 582l100 129h55l-100 -129h-55z" />
    <glyph glyph-name="acircumflex" unicode="&#xe2;" horiz-adv-x="529" 
d="M203 -10q-78 0 -123.5 35.5t-45.5 103.5q0 127 163 146l137 16q77 8 77 36v29q0 68 -35 97.5t-109 29.5q-145 0 -145 -106v-12h-57v16q0 149 204 149q103 0 152 -41.5t49 -133.5v-355h-57v95h-3q-17 -35 -70.5 -70t-136.5 -35zM93 133q0 -94 122 -94q90 0 143 47.5
t53 92.5v93q-5 -21 -81 -30l-119 -13q-64 -8 -91 -32t-27 -64zM130 585l102 126h78l102 -126h-57l-84 103l-84 -103h-57z" />
    <glyph glyph-name="atilde" unicode="&#xe3;" horiz-adv-x="529" 
d="M203 -10q-78 0 -123.5 35.5t-45.5 103.5q0 127 163 146l137 16q77 8 77 36v29q0 68 -35 97.5t-109 29.5q-145 0 -145 -106v-12h-57v16q0 149 204 149q103 0 152 -41.5t49 -133.5v-355h-57v95h-3q-17 -35 -70.5 -70t-136.5 -35zM93 133q0 -94 122 -94q90 0 143 47.5
t53 92.5v93q-5 -21 -81 -30l-119 -13q-64 -8 -91 -32t-27 -64zM120 631q0 45 22.5 67.5t58.5 22.5q24 0 44 -11t31.5 -24.5t28.5 -24.5t34 -11q24 0 35 15t10 34h41q0 -45 -22.5 -67.5t-58.5 -22.5q-24 0 -44 11t-32 24.5t-28.5 24.5t-34.5 11q-23 0 -34 -15t-10 -34h-41z
" />
    <glyph glyph-name="adieresis" unicode="&#xe4;" horiz-adv-x="529" 
d="M203 -10q-78 0 -123.5 35.5t-45.5 103.5q0 127 163 146l137 16q77 8 77 36v29q0 68 -35 97.5t-109 29.5q-145 0 -145 -106v-12h-57v16q0 149 204 149q103 0 152 -41.5t49 -133.5v-355h-57v95h-3q-17 -35 -70.5 -70t-136.5 -35zM93 133q0 -94 122 -94q90 0 143 47.5
t53 92.5v93q-5 -21 -81 -30l-119 -13q-64 -8 -91 -32t-27 -64zM144 677q0 17 12 29t29 12t29 -12t12 -29t-12 -29t-29 -12t-29 12t-12 29zM317 677q0 17 12.5 29t28.5 12t28.5 -12t12.5 -29t-12.5 -29t-28.5 -12t-28.5 12t-12.5 29z" />
    <glyph glyph-name="aring" unicode="&#xe5;" horiz-adv-x="529" 
d="M203 -10q-78 0 -123.5 35.5t-45.5 103.5q0 127 163 146l137 16q77 8 77 36v29q0 68 -35 97.5t-109 29.5q-145 0 -145 -106v-12h-57v16q0 149 204 149q103 0 152 -41.5t49 -133.5v-355h-57v95h-3q-17 -35 -70.5 -70t-136.5 -35zM93 133q0 -94 122 -94q90 0 143 47.5
t53 92.5v93q-5 -21 -81 -30l-119 -13q-64 -8 -91 -32t-27 -64zM190 655q0 34 24 57.5t59 23.5t59 -23.5t24 -57.5q0 -33 -24 -57t-59 -24t-59 24t-24 57zM224 655q0 -20 14.5 -34t34.5 -14t34.5 14t14.5 34q0 21 -14.5 35t-34.5 14t-34.5 -14t-14.5 -35z" />
    <glyph glyph-name="ae" unicode="&#xe6;" horiz-adv-x="905" 
d="M205 -10q-81 0 -126 38t-45 107t46.5 108.5t139.5 39.5h186v85q0 115 -142 115q-70 0 -106 -26t-36 -72v-12h-55v16q0 69 53 105t147 36q78 0 122 -27t60 -90q57 117 195 117q103 0 165 -65.5t62 -187.5q0 -23 -3 -36h-404q2 -100 50 -151.5t136 -51.5q124 0 159 101h55
q-47 -149 -215 -149q-160 0 -212 142q-25 -61 -85.5 -101.5t-146.5 -40.5zM93 138q0 -50 34.5 -75t90.5 -25q86 0 137 50t51 97v57h-172q-76 0 -108.5 -29.5t-32.5 -74.5zM464 288h350q-1 94 -46.5 144t-124.5 50q-77 0 -126 -49.5t-53 -144.5z" />
    <glyph glyph-name="ccedilla" unicode="&#xe7;" horiz-adv-x="528" 
d="M225 -175q81 0 81 51q0 26 -22 37.5t-54 -1.5l-23 26l43 54q-95 10 -155.5 78.5t-60.5 188.5q0 130 70.5 200.5t177.5 70.5q80 0 141.5 -42.5t74.5 -136.5h-54q-12 66 -57.5 97t-105.5 31q-84 0 -137 -57t-53 -163t53 -162t137 -56q61 0 106 31.5t57 99.5h54
q-6 -47 -25.5 -82.5t-47.5 -56t-59.5 -31t-66.5 -12.5l-34 -38q4 1 13 1q30 0 52.5 -20t22.5 -55q0 -45 -36 -68t-92 -23v38z" />
    <glyph glyph-name="egrave" unicode="&#xe8;" horiz-adv-x="533" 
d="M277 -10q-113 0 -178 68.5t-65 199.5q0 135 66.5 203.5t171.5 68.5q103 0 165 -65.5t62 -187.5q0 -23 -3 -36h-405q3 -101 51 -152t136 -51q124 0 159 101h55q-47 -149 -215 -149zM91 288h351q-1 94 -46.5 144t-124.5 50q-77 0 -126.5 -49.5t-53.5 -144.5zM153 711h55
l100 -129h-55z" />
    <glyph glyph-name="eacute" unicode="&#xe9;" horiz-adv-x="533" 
d="M277 -10q-113 0 -178 68.5t-65 199.5q0 135 66.5 203.5t171.5 68.5q103 0 165 -65.5t62 -187.5q0 -23 -3 -36h-405q3 -101 51 -152t136 -51q124 0 159 101h55q-47 -149 -215 -149zM91 288h351q-1 94 -46.5 144t-124.5 50q-77 0 -126.5 -49.5t-53.5 -144.5zM240 582
l100 129h55l-100 -129h-55z" />
    <glyph glyph-name="ecircumflex" unicode="&#xea;" horiz-adv-x="533" 
d="M277 -10q-113 0 -178 68.5t-65 199.5q0 135 66.5 203.5t171.5 68.5q103 0 165 -65.5t62 -187.5q0 -23 -3 -36h-405q3 -101 51 -152t136 -51q124 0 159 101h55q-47 -149 -215 -149zM91 288h351q-1 94 -46.5 144t-124.5 50q-77 0 -126.5 -49.5t-53.5 -144.5zM127 585
l102 126h78l102 -126h-57l-84 103l-84 -103h-57z" />
    <glyph glyph-name="edieresis" unicode="&#xeb;" horiz-adv-x="533" 
d="M277 -10q-113 0 -178 68.5t-65 199.5q0 135 66.5 203.5t171.5 68.5q103 0 165 -65.5t62 -187.5q0 -23 -3 -36h-405q3 -101 51 -152t136 -51q124 0 159 101h55q-47 -149 -215 -149zM91 288h351q-1 94 -46.5 144t-124.5 50q-77 0 -126.5 -49.5t-53.5 -144.5zM142 677
q0 17 12 29t29 12t29 -12t12 -29t-12 -29t-29 -12t-29 12t-12 29zM315 677q0 17 12.5 29t28.5 12t28.5 -12t12.5 -29t-12.5 -29t-28.5 -12t-28.5 12t-12.5 29z" />
    <glyph glyph-name="igrave" unicode="&#xec;" horiz-adv-x="154" 
d="M48 0v520h59v-520h-59zM-39 711h55l100 -129h-55z" />
    <glyph glyph-name="iacute" unicode="&#xed;" horiz-adv-x="154" 
d="M48 0v520h59v-520h-59zM48 582l100 129h55l-100 -129h-55z" />
    <glyph glyph-name="icircumflex" unicode="&#xee;" horiz-adv-x="154" 
d="M48 0v520h59v-520h-59zM-65 585l102 126h78l102 -126h-57l-84 103l-84 -103h-57z" />
    <glyph glyph-name="idieresis" unicode="&#xef;" horiz-adv-x="154" 
d="M48 0v520h59v-520h-59zM-50 677q0 17 12 29t29 12t29 -12t12 -29t-12 -29t-29 -12t-29 12t-12 29zM123 677q0 17 12.5 29t28.5 12t28.5 -12t12.5 -29t-12.5 -29t-28.5 -12t-28.5 12t-12.5 29z" />
    <glyph glyph-name="eth" unicode="&#xf0;" horiz-adv-x="567" 
d="M270 -10q-103 0 -169.5 71t-66.5 201q0 122 60.5 190t170.5 68q88 0 139 -52q-46 74 -102 144h-108v34h81q-30 36 -46 54h63l43 -54h134v-34h-107q85 -111 115 -183t30 -163q0 -133 -66.5 -204.5t-170.5 -71.5zM93 262q0 -109 50.5 -164t127.5 -55t127.5 55t50.5 164
q0 206 -178 206t-178 -206z" />
    <glyph glyph-name="ntilde" unicode="&#xf1;" 
d="M432 308q0 171 -147 171q-78 0 -122.5 -46t-44.5 -125v-308h-59v520h59v-100h1q10 36 56 73t127 37q84 0 136.5 -50t52.5 -162v-318h-59v308zM124 631q0 45 22.5 67.5t58.5 22.5q24 0 44 -11t31.5 -24.5t28.5 -24.5t34 -11q24 0 35 15t10 34h41q0 -45 -22.5 -67.5
t-58.5 -22.5q-24 0 -44 11t-32 24.5t-28.5 24.5t-34.5 11q-23 0 -34 -15t-10 -34h-41z" />
    <glyph glyph-name="ograve" unicode="&#xf2;" horiz-adv-x="562" 
d="M281 -10q-104 0 -175.5 69.5t-71.5 200.5t71.5 200.5t175.5 69.5t175 -69.5t71 -200.5t-71 -200.5t-175 -69.5zM91 260q0 -107 55.5 -163.5t134.5 -56.5t134 56.5t55 163.5t-55 163.5t-134 56.5t-134.5 -56.5t-55.5 -163.5zM165 711h55l100 -129h-55z" />
    <glyph glyph-name="oacute" unicode="&#xf3;" horiz-adv-x="562" 
d="M281 -10q-104 0 -175.5 69.5t-71.5 200.5t71.5 200.5t175.5 69.5t175 -69.5t71 -200.5t-71 -200.5t-175 -69.5zM91 260q0 -107 55.5 -163.5t134.5 -56.5t134 56.5t55 163.5t-55 163.5t-134 56.5t-134.5 -56.5t-55.5 -163.5zM252 582l100 129h55l-100 -129h-55z" />
    <glyph glyph-name="ocircumflex" unicode="&#xf4;" horiz-adv-x="562" 
d="M281 -10q-104 0 -175.5 69.5t-71.5 200.5t71.5 200.5t175.5 69.5t175 -69.5t71 -200.5t-71 -200.5t-175 -69.5zM91 260q0 -107 55.5 -163.5t134.5 -56.5t134 56.5t55 163.5t-55 163.5t-134 56.5t-134.5 -56.5t-55.5 -163.5zM139 585l102 126h78l102 -126h-57l-84 103
l-84 -103h-57z" />
    <glyph glyph-name="otilde" unicode="&#xf5;" horiz-adv-x="562" 
d="M281 -10q-104 0 -175.5 69.5t-71.5 200.5t71.5 200.5t175.5 69.5t175 -69.5t71 -200.5t-71 -200.5t-175 -69.5zM91 260q0 -107 55.5 -163.5t134.5 -56.5t134 56.5t55 163.5t-55 163.5t-134 56.5t-134.5 -56.5t-55.5 -163.5zM129 631q0 45 22.5 67.5t58.5 22.5
q24 0 44 -11t31.5 -24.5t28.5 -24.5t34 -11q24 0 35 15t10 34h41q0 -45 -22.5 -67.5t-58.5 -22.5q-24 0 -44 11t-32 24.5t-28.5 24.5t-34.5 11q-23 0 -34 -15t-10 -34h-41z" />
    <glyph glyph-name="odieresis" unicode="&#xf6;" horiz-adv-x="562" 
d="M281 -10q-104 0 -175.5 69.5t-71.5 200.5t71.5 200.5t175.5 69.5t175 -69.5t71 -200.5t-71 -200.5t-175 -69.5zM91 260q0 -107 55.5 -163.5t134.5 -56.5t134 56.5t55 163.5t-55 163.5t-134 56.5t-134.5 -56.5t-55.5 -163.5zM153 677q0 17 12.5 29t28.5 12t28.5 -12
t12.5 -29t-12.5 -29t-28.5 -12t-28.5 12t-12.5 29zM326 677q0 17 12 29t29 12t29 -12t12 -29t-12 -29t-29 -12t-29 12t-12 29z" />
    <glyph glyph-name="divide" unicode="&#xf7;" horiz-adv-x="405" 
d="M203 403q-13 0 -22.5 9t-9.5 22t9.5 22t22.5 9t22 -9t9 -22t-9 -22t-22 -9zM60 257v48h286v-48h-286zM171 127q0 13 9.5 22t22.5 9t22 -9t9 -22t-9 -22t-22 -9t-22.5 9t-9.5 22z" />
    <glyph glyph-name="oslash" unicode="&#xf8;" horiz-adv-x="562" 
d="M105 -50l38 79q-109 72 -109 231q0 131 71.5 200.5t175.5 69.5q50 0 95 -17l32 65h50l-42 -86q111 -69 111 -232q0 -131 -71 -200.5t-175 -69.5q-54 0 -99 19l-28 -59h-49zM91 260q0 -123 76 -182l187 388q-36 14 -73 14q-79 0 -134.5 -56.5t-55.5 -163.5zM205 55
q36 -15 76 -15q79 0 134 56.5t55 163.5q0 125 -77 184z" />
    <glyph glyph-name="ugrave" unicode="&#xf9;" 
d="M118 212q0 -171 147 -171q78 0 122.5 46t44.5 125v308h59v-520h-59v100h-1q-10 -36 -56 -73t-127 -37q-84 0 -136.5 50t-52.5 162v318h59v-308zM155 711h55l100 -129h-55z" />
    <glyph glyph-name="uacute" unicode="&#xfa;" 
d="M118 212q0 -171 147 -171q78 0 122.5 46t44.5 125v308h59v-520h-59v100h-1q-10 -36 -56 -73t-127 -37q-84 0 -136.5 50t-52.5 162v318h59v-308zM242 582l100 129h55l-100 -129h-55z" />
    <glyph glyph-name="ucircumflex" unicode="&#xfb;" 
d="M118 212q0 -171 147 -171q78 0 122.5 46t44.5 125v308h59v-520h-59v100h-1q-10 -36 -56 -73t-127 -37q-84 0 -136.5 50t-52.5 162v318h59v-308zM129 585l102 126h78l102 -126h-57l-84 103l-84 -103h-57z" />
    <glyph glyph-name="udieresis" unicode="&#xfc;" 
d="M118 212q0 -171 147 -171q78 0 122.5 46t44.5 125v308h59v-520h-59v100h-1q-10 -36 -56 -73t-127 -37q-84 0 -136.5 50t-52.5 162v318h59v-308zM143 677q0 17 12.5 29t28.5 12t28.5 -12t12.5 -29t-12.5 -29t-28.5 -12t-28.5 12t-12.5 29zM316 677q0 17 12 29t29 12
t29 -12t12 -29t-12 -29t-29 -12t-29 12t-12 29z" />
    <glyph glyph-name="yacute" unicode="&#xfd;" horiz-adv-x="521" 
d="M78 -138q101 -14 140 90q15 39 5 66l-199 502h61l176 -455l175 455h61l-228 -575q-32 -80 -78.5 -112t-112.5 -23v52zM234 582l100 129h55l-100 -129h-55z" />
    <glyph glyph-name="thorn" unicode="&#xfe;" horiz-adv-x="582" 
d="M59 -190v890h59v-271q30 49 81.5 75t112.5 26q100 0 168 -69t68 -201t-68 -201t-168 -69q-61 0 -112.5 26t-81.5 75v-281h-59zM115 260q0 -106 55.5 -163t133.5 -57q79 0 133.5 57t54.5 163t-54.5 163t-133.5 57q-78 0 -133.5 -57t-55.5 -163z" />
    <glyph glyph-name="ydieresis" unicode="&#xff;" horiz-adv-x="521" 
d="M78 -138q101 -14 140 90q15 39 5 66l-199 502h61l176 -455l175 455h61l-228 -575q-32 -80 -78.5 -112t-112.5 -23v52zM135 677q0 17 12.5 29t28.5 12t28.5 -12t12.5 -29t-12.5 -29t-28.5 -12t-28.5 12t-12.5 29zM308 677q0 17 12 29t29 12t29 -12t12 -29t-12 -29t-29 -12
t-29 12t-12 29z" />
    <glyph glyph-name="Amacron" unicode="&#x100;" horiz-adv-x="665" 
d="M24 0l272 700h73l272 -700h-65l-72 189h-343l-72 -189h-65zM180 237h305l-150 394h-5zM190 851v40h285v-40h-285z" />
    <glyph glyph-name="amacron" unicode="&#x101;" horiz-adv-x="529" 
d="M203 -10q-78 0 -123.5 35.5t-45.5 103.5q0 127 163 146l137 16q77 8 77 36v29q0 68 -35 97.5t-109 29.5q-145 0 -145 -106v-12h-57v16q0 149 204 149q103 0 152 -41.5t49 -133.5v-355h-57v95h-3q-17 -35 -70.5 -70t-136.5 -35zM93 133q0 -94 122 -94q90 0 143 47.5
t53 92.5v93q-5 -21 -81 -30l-119 -13q-64 -8 -91 -32t-27 -64zM130 671v40h285v-40h-285z" />
    <glyph glyph-name="Abreve" unicode="&#x102;" horiz-adv-x="665" 
d="M24 0l272 700h73l272 -700h-65l-72 189h-343l-72 -189h-65zM180 237h305l-150 394h-5zM200 891h43q4 -81 90 -81t90 81h43q0 -52 -32 -86.5t-101 -34.5t-101 34.5t-32 86.5z" />
    <glyph glyph-name="abreve" unicode="&#x103;" horiz-adv-x="529" 
d="M203 -10q-78 0 -123.5 35.5t-45.5 103.5q0 127 163 146l137 16q77 8 77 36v29q0 68 -35 97.5t-109 29.5q-145 0 -145 -106v-12h-57v16q0 149 204 149q103 0 152 -41.5t49 -133.5v-355h-57v95h-3q-17 -35 -70.5 -70t-136.5 -35zM93 133q0 -94 122 -94q90 0 143 47.5
t53 92.5v93q-5 -21 -81 -30l-119 -13q-64 -8 -91 -32t-27 -64zM139 711h43q4 -81 90 -81t90 81h43q0 -52 -32 -86.5t-101 -34.5t-101 34.5t-32 86.5z" />
    <glyph glyph-name="Aogonek" unicode="&#x104;" horiz-adv-x="665" 
d="M24 0l272 700h73l272 -700q-56 0 -86 -23t-30 -60q0 -34 25.5 -51t66.5 -11v-38q-54 -11 -96.5 15.5t-42.5 79.5q0 41 26 69t65 37l-65 171h-343l-72 -189h-65zM180 237h305l-150 394h-5z" />
    <glyph glyph-name="aogonek" unicode="&#x105;" horiz-adv-x="529" 
d="M203 -10q-78 0 -123.5 35.5t-45.5 103.5q0 127 163 146l137 16q77 8 77 36v29q0 68 -35 97.5t-109 29.5q-145 0 -145 -106v-12h-57v16q0 149 204 149q103 0 152 -41.5t49 -133.5v-355h-2q-56 0 -86 -23t-30 -60q0 -34 25.5 -51t66.5 -11v-38q-54 -11 -96.5 15.5
t-42.5 79.5q0 46 31.5 75t76.5 34v74h-3q-17 -35 -70.5 -70t-136.5 -35zM93 133q0 -94 122 -94q90 0 143 47.5t53 92.5v93q-5 -21 -81 -30l-119 -13q-64 -8 -91 -32t-27 -64z" />
    <glyph glyph-name="Cacute" unicode="&#x106;" horiz-adv-x="654" 
d="M356 -10q-141 0 -226.5 92.5t-85.5 267.5q0 174 85.5 266.5t226.5 92.5q106 0 177.5 -52t90.5 -149h-61q-19 70 -73 108.5t-134 38.5q-114 0 -182.5 -78.5t-68.5 -226.5t68.5 -227t182.5 -79q80 0 134 38.5t73 109.5h61q-19 -98 -90.5 -150t-177.5 -52zM326 762l100 129
h55l-100 -129h-55z" />
    <glyph glyph-name="cacute" unicode="&#x107;" horiz-adv-x="528" 
d="M282 -10q-107 0 -177.5 69.5t-70.5 199.5t70.5 200.5t177.5 70.5q80 0 141.5 -42.5t74.5 -136.5h-54q-12 66 -57.5 97t-105.5 31q-84 0 -137 -57t-53 -163t53 -162t137 -56q61 0 106 31.5t57 99.5h54q-13 -96 -74 -139t-142 -43zM248 582l100 129h55l-100 -129h-55z" />
    <glyph glyph-name="Ccircumflex" unicode="&#x108;" horiz-adv-x="654" 
d="M356 -10q-141 0 -226.5 92.5t-85.5 267.5q0 174 85.5 266.5t226.5 92.5q106 0 177.5 -52t90.5 -149h-61q-19 70 -73 108.5t-134 38.5q-114 0 -182.5 -78.5t-68.5 -226.5t68.5 -227t182.5 -79q80 0 134 38.5t73 109.5h61q-19 -98 -90.5 -150t-177.5 -52zM212 765l102 126
h78l102 -126h-57l-84 103l-84 -103h-57z" />
    <glyph glyph-name="ccircumflex" unicode="&#x109;" horiz-adv-x="528" 
d="M282 -10q-107 0 -177.5 69.5t-70.5 199.5t70.5 200.5t177.5 70.5q80 0 141.5 -42.5t74.5 -136.5h-54q-12 66 -57.5 97t-105.5 31q-84 0 -137 -57t-53 -163t53 -162t137 -56q61 0 106 31.5t57 99.5h54q-13 -96 -74 -139t-142 -43zM135 585l102 126h78l102 -126h-57
l-84 103l-84 -103h-57z" />
    <glyph glyph-name="Cdotaccent" unicode="&#x10a;" horiz-adv-x="654" 
d="M356 -10q-141 0 -226.5 92.5t-85.5 267.5q0 174 85.5 266.5t226.5 92.5q106 0 177.5 -52t90.5 -149h-61q-19 70 -73 108.5t-134 38.5q-114 0 -182.5 -78.5t-68.5 -226.5t68.5 -227t182.5 -79q80 0 134 38.5t73 109.5h61q-19 -98 -90.5 -150t-177.5 -52zM314 857
q0 17 12 29t29 12t29 -12t12 -29t-12 -29t-29 -12t-29 12t-12 29z" />
    <glyph glyph-name="cdotaccent" unicode="&#x10b;" horiz-adv-x="528" 
d="M282 -10q-107 0 -177.5 69.5t-70.5 199.5t70.5 200.5t177.5 70.5q80 0 141.5 -42.5t74.5 -136.5h-54q-12 66 -57.5 97t-105.5 31q-84 0 -137 -57t-53 -163t53 -162t137 -56q61 0 106 31.5t57 99.5h54q-13 -96 -74 -139t-142 -43zM236 677q0 17 12 29t29 12t29 -12t12 -29
t-12 -29t-29 -12t-29 12t-12 29z" />
    <glyph glyph-name="Ccaron" unicode="&#x10c;" horiz-adv-x="654" 
d="M356 -10q-141 0 -226.5 92.5t-85.5 267.5q0 174 85.5 266.5t226.5 92.5q106 0 177.5 -52t90.5 -149h-61q-19 70 -73 108.5t-134 38.5q-114 0 -182.5 -78.5t-68.5 -226.5t68.5 -227t182.5 -79q80 0 134 38.5t73 109.5h61q-19 -98 -90.5 -150t-177.5 -52zM208 890h57
l84 -103l84 103h57l-102 -126h-78z" />
    <glyph glyph-name="ccaron" unicode="&#x10d;" horiz-adv-x="528" 
d="M282 -10q-107 0 -177.5 69.5t-70.5 199.5t70.5 200.5t177.5 70.5q80 0 141.5 -42.5t74.5 -136.5h-54q-12 66 -57.5 97t-105.5 31q-84 0 -137 -57t-53 -163t53 -162t137 -56q61 0 106 31.5t57 99.5h54q-13 -96 -74 -139t-142 -43zM130 710h57l84 -103l84 103h57l-102 -126
h-78z" />
    <glyph glyph-name="Dcaron" unicode="&#x10e;" horiz-adv-x="649" 
d="M59 0v700h215q164 0 247.5 -90.5t83.5 -259.5t-83.5 -259.5t-247.5 -90.5h-215zM120 55h148q141 0 208 73t67 222t-67 222t-208 73h-148v-590zM182 890h57l84 -103l84 103h57l-102 -126h-78z" />
    <glyph glyph-name="dcaron" unicode="&#x10f;" horiz-adv-x="583" 
d="M270 -10q-100 0 -168 69t-68 201t68 201t168 69q60 0 112 -26t82 -76v272h59v-700h-59v92q-30 -50 -82 -76t-112 -26zM90 260q0 -106 54.5 -163t133.5 -57q78 0 133.5 57t55.5 163t-55.5 163t-133.5 57q-79 0 -133.5 -57t-54.5 -163zM551 571l100 129h55l-100 -129h-55z
" />
    <glyph glyph-name="Dcroat" unicode="&#x110;" horiz-adv-x="668" 
d="M79 0v325h-59v48h59v327h215q164 0 247.5 -90.5t83.5 -259.5t-83.5 -259.5t-247.5 -90.5h-215zM140 55h148q141 0 208 73t67 222t-67 222t-208 73h-148v-272h145v-48h-145v-270z" />
    <glyph glyph-name="dcroat" unicode="&#x111;" horiz-adv-x="620" 
d="M311 612v34h153v54h59v-54h63v-34h-63v-612h-59v92q-30 -50 -82 -76t-112 -26q-100 0 -168 69t-68 201t68 201t168 69q60 0 112 -26t82 -76v184h-153zM90 260q0 -106 54.5 -163t133.5 -57q78 0 133.5 57t55.5 163t-55.5 163t-133.5 57q-79 0 -133.5 -57t-54.5 -163z" />
    <glyph glyph-name="Emacron" unicode="&#x112;" horiz-adv-x="538" 
d="M59 0v700h435v-55h-374v-258h344v-52h-344v-280h384v-55h-445zM132 851v40h285v-40h-285z" />
    <glyph glyph-name="emacron" unicode="&#x113;" horiz-adv-x="533" 
d="M277 -10q-113 0 -178 68.5t-65 199.5q0 135 66.5 203.5t171.5 68.5q103 0 165 -65.5t62 -187.5q0 -23 -3 -36h-405q3 -101 51 -152t136 -51q124 0 159 101h55q-47 -149 -215 -149zM91 288h351q-1 94 -46.5 144t-124.5 50q-77 0 -126.5 -49.5t-53.5 -144.5zM127 671v40
h285v-40h-285z" />
    <glyph glyph-name="Edotaccent" unicode="&#x116;" horiz-adv-x="538" 
d="M59 0v700h435v-55h-374v-258h344v-52h-344v-280h384v-55h-445zM233 857q0 17 12.5 29t28.5 12t28.5 -12t12.5 -29t-12.5 -29t-28.5 -12t-28.5 12t-12.5 29z" />
    <glyph glyph-name="edotaccent" unicode="&#x117;" horiz-adv-x="533" 
d="M277 -10q-113 0 -178 68.5t-65 199.5q0 135 66.5 203.5t171.5 68.5q103 0 165 -65.5t62 -187.5q0 -23 -3 -36h-405q3 -101 51 -152t136 -51q124 0 159 101h55q-47 -149 -215 -149zM91 288h351q-1 94 -46.5 144t-124.5 50q-77 0 -126.5 -49.5t-53.5 -144.5zM228 677
q0 17 12 29t29 12t29 -12t12 -29t-12 -29t-29 -12t-29 12t-12 29z" />
    <glyph glyph-name="Eogonek" unicode="&#x118;" horiz-adv-x="538" 
d="M59 0v700h435v-55h-374v-258h344v-52h-344v-280h384v-55q-56 0 -86 -23t-30 -60q0 -34 25.5 -51t66.5 -11v-38q-54 -11 -96.5 15.5t-42.5 79.5q0 55 48 88h-330z" />
    <glyph glyph-name="eogonek" unicode="&#x119;" horiz-adv-x="533" 
d="M359 -183q-54 -11 -96.5 15.5t-42.5 79.5q0 48 36 79q-103 6 -162.5 74.5t-59.5 192.5q0 135 66.5 203.5t171.5 68.5q103 0 165 -65.5t62 -187.5q0 -23 -3 -36h-405q3 -101 51 -152t136 -51q124 0 159 101h55q-36 -116 -149 -142q-37 -8 -56.5 -29.5t-19.5 -50.5
q0 -34 25.5 -51t66.5 -11v-38zM91 288h351q-1 94 -46.5 144t-124.5 50q-77 0 -126.5 -49.5t-53.5 -144.5z" />
    <glyph glyph-name="Ecaron" unicode="&#x11a;" horiz-adv-x="538" 
d="M59 0v700h435v-55h-374v-258h344v-52h-344v-280h384v-55h-445zM127 890h57l84 -103l84 103h57l-102 -126h-78z" />
    <glyph glyph-name="ecaron" unicode="&#x11b;" horiz-adv-x="533" 
d="M277 -10q-113 0 -178 68.5t-65 199.5q0 135 66.5 203.5t171.5 68.5q103 0 165 -65.5t62 -187.5q0 -23 -3 -36h-405q3 -101 51 -152t136 -51q124 0 159 101h55q-47 -149 -215 -149zM91 288h351q-1 94 -46.5 144t-124.5 50q-77 0 -126.5 -49.5t-53.5 -144.5zM122 710h57
l84 -103l84 103h57l-102 -126h-78z" />
    <glyph glyph-name="Gcircumflex" unicode="&#x11c;" horiz-adv-x="692" 
d="M359 -10q-145 0 -230 92.5t-85 267.5q0 174 85.5 266.5t228.5 92.5q101 0 168 -45.5t89 -130.5h-60q-45 122 -197 122q-117 0 -185 -78t-68 -227t68.5 -227.5t185.5 -78.5q107 0 166 64.5t59 190.5h-189v52h248v-42q0 -155 -74 -237t-210 -82zM215 765l102 126h78
l102 -126h-57l-84 103l-84 -103h-57z" />
    <glyph glyph-name="gcircumflex" unicode="&#x11d;" horiz-adv-x="578" 
d="M274 -209q-92 0 -156 39.5t-65 117.5h51q2 -50 49.5 -79.5t121.5 -29.5q83 0 134 40.5t51 125.5v105h-2q-28 -49 -80 -74.5t-112 -25.5q-98 0 -165 66.5t-67 193.5t67 193.5t165 66.5q60 0 112 -25.5t80 -74.5h2v90h59v-515q0 -60 -21.5 -103.5t-58.5 -66.5t-77.5 -33.5
t-87.5 -10.5zM91 270q0 -102 53 -155.5t131 -53.5t133 54t55 155t-55 155.5t-133 54.5t-131 -54t-53 -156zM143 585l102 126h78l102 -126h-57l-84 103l-84 -103h-57z" />
    <glyph glyph-name="Gbreve" unicode="&#x11e;" horiz-adv-x="692" 
d="M359 -10q-145 0 -230 92.5t-85 267.5q0 174 85.5 266.5t228.5 92.5q101 0 168 -45.5t89 -130.5h-60q-45 122 -197 122q-117 0 -185 -78t-68 -227t68.5 -227.5t185.5 -78.5q107 0 166 64.5t59 190.5h-189v52h248v-42q0 -155 -74 -237t-210 -82zM224 891h43q4 -81 90 -81
t90 81h43q0 -52 -32 -86.5t-101 -34.5t-101 34.5t-32 86.5z" />
    <glyph glyph-name="gbreve" unicode="&#x11f;" horiz-adv-x="578" 
d="M274 -209q-92 0 -156 39.5t-65 117.5h51q2 -50 49.5 -79.5t121.5 -29.5q83 0 134 40.5t51 125.5v105h-2q-28 -49 -80 -74.5t-112 -25.5q-98 0 -165 66.5t-67 193.5t67 193.5t165 66.5q60 0 112 -25.5t80 -74.5h2v90h59v-515q0 -60 -21.5 -103.5t-58.5 -66.5t-77.5 -33.5
t-87.5 -10.5zM91 270q0 -102 53 -155.5t131 -53.5t133 54t55 155t-55 155.5t-133 54.5t-131 -54t-53 -156zM152 711h43q4 -81 90 -81t90 81h43q0 -52 -32 -86.5t-101 -34.5t-101 34.5t-32 86.5z" />
    <glyph glyph-name="Gdotaccent" unicode="&#x120;" horiz-adv-x="692" 
d="M359 -10q-145 0 -230 92.5t-85 267.5q0 174 85.5 266.5t228.5 92.5q101 0 168 -45.5t89 -130.5h-60q-45 122 -197 122q-117 0 -185 -78t-68 -227t68.5 -227.5t185.5 -78.5q107 0 166 64.5t59 190.5h-189v52h248v-42q0 -155 -74 -237t-210 -82zM316 857q0 17 12 29t29 12
t29 -12t12 -29t-12 -29t-29 -12t-29 12t-12 29z" />
    <glyph glyph-name="gdotaccent" unicode="&#x121;" horiz-adv-x="578" 
d="M274 -209q-92 0 -156 39.5t-65 117.5h51q2 -50 49.5 -79.5t121.5 -29.5q83 0 134 40.5t51 125.5v105h-2q-28 -49 -80 -74.5t-112 -25.5q-98 0 -165 66.5t-67 193.5t67 193.5t165 66.5q60 0 112 -25.5t80 -74.5h2v90h59v-515q0 -60 -21.5 -103.5t-58.5 -66.5t-77.5 -33.5
t-87.5 -10.5zM91 270q0 -102 53 -155.5t131 -53.5t133 54t55 155t-55 155.5t-133 54.5t-131 -54t-53 -156zM244 677q0 17 12 29t29 12t29 -12t12 -29t-12 -29t-29 -12t-29 12t-12 29z" />
    <glyph glyph-name="uni0122" unicode="&#x122;" horiz-adv-x="692" 
d="M359 -10q-145 0 -230 92.5t-85 267.5q0 174 85.5 266.5t228.5 92.5q101 0 168 -45.5t89 -130.5h-60q-45 122 -197 122q-117 0 -185 -78t-68 -227t68.5 -227.5t185.5 -78.5q107 0 166 64.5t59 190.5h-189v52h248v-42q0 -155 -74 -237t-210 -82zM314 -64q0 19 12.5 31.5
t33.5 12.5q23 0 38 -19t15 -57q0 -49 -24 -76t-61 -27h-7v32q28 1 39.5 15t11.5 40q-26 -1 -42 12.5t-16 35.5z" />
    <glyph glyph-name="uni0123" unicode="&#x123;" horiz-adv-x="578" 
d="M274 -209q-92 0 -156 39.5t-65 117.5h51q2 -50 49.5 -79.5t121.5 -29.5q83 0 134 40.5t51 125.5v105h-2q-28 -49 -80 -74.5t-112 -25.5q-98 0 -165 66.5t-67 193.5t67 193.5t165 66.5q60 0 112 -25.5t80 -74.5h2v90h59v-515q0 -60 -21.5 -103.5t-58.5 -66.5t-77.5 -33.5
t-87.5 -10.5zM91 270q0 -102 53 -155.5t131 -53.5t133 54t55 155t-55 155.5t-133 54.5t-131 -54t-53 -156zM223 644q0 49 24 76t61 27h7v-32q-28 -1 -39.5 -15t-11.5 -40q26 1 42 -12.5t16 -35.5q0 -19 -12.5 -31.5t-33.5 -12.5q-23 0 -38 19t-15 57z" />
    <glyph glyph-name="Hcircumflex" unicode="&#x124;" horiz-adv-x="640" 
d="M520 0v315h-400v-315h-61v700h61v-333h400v333h61v-700h-61zM177 765l102 126h78l102 -126h-57l-84 103l-84 -103h-57z" />
    <glyph glyph-name="hcircumflex" unicode="&#x125;" 
d="M432 308q0 171 -147 171q-78 0 -122.5 -46t-44.5 -125v-308h-59v700h59v-280h1q10 36 56 73t127 37q84 0 136.5 -50t52.5 -162v-318h-59v308zM-54 765l102 126h78l102 -126h-57l-84 103l-84 -103h-57z" />
    <glyph glyph-name="Hbar" unicode="&#x126;" horiz-adv-x="640" 
d="M520 0v315h-400v-315h-61v700h61v-173h400v173h61v-700h-61zM120 367h400v108h-400v-108z" />
    <glyph glyph-name="hbar" unicode="&#x127;" 
d="M-6 612v34h65v54h59v-54h152v-34h-152v-192h1q10 36 56 73t127 37q84 0 136.5 -50t52.5 -162v-318h-59v308q0 171 -147 171q-78 0 -122.5 -46t-44.5 -125v-308h-59v612h-65z" />
    <glyph glyph-name="Itilde" unicode="&#x128;" horiz-adv-x="180" 
d="M59 0v700h61v-700h-61zM-63 811q0 45 22.5 67.5t59.5 22.5q24 0 44 -11t31.5 -24.5t28.5 -24.5t34 -11q24 0 35 15t10 34h41q0 -45 -22.5 -67.5t-58.5 -22.5q-24 0 -44 11t-32 24.5t-28.5 24.5t-34.5 11q-24 0 -35 -15t-10 -34h-41z" />
    <glyph glyph-name="itilde" unicode="&#x129;" horiz-adv-x="154" 
d="M48 0v520h59v-520h-59zM-75 631q0 45 22.5 67.5t58.5 22.5q24 0 44 -11t31.5 -24.5t28.5 -24.5t34 -11q24 0 35 15t10 34h41q0 -45 -22.5 -67.5t-58.5 -22.5q-24 0 -44 11t-32 24.5t-28.5 24.5t-34.5 11q-23 0 -34 -15t-10 -34h-41z" />
    <glyph glyph-name="Imacron" unicode="&#x12a;" horiz-adv-x="180" 
d="M59 0v700h61v-700h-61zM-53 851v40h286v-40h-286z" />
    <glyph glyph-name="imacron" unicode="&#x12b;" horiz-adv-x="154" 
d="M48 0v520h59v-520h-59zM-65 671v40h285v-40h-285z" />
    <glyph glyph-name="Iogonek" unicode="&#x12e;" horiz-adv-x="180" 
d="M97 -183q-54 -11 -96.5 15.5t-42.5 79.5q0 43 29 72t72 36v680h61v-699l1 -1q-56 0 -86 -23t-30 -60q0 -34 25.5 -51t66.5 -11v-38z" />
    <glyph glyph-name="iogonek" unicode="&#x12f;" horiz-adv-x="154" 
d="M77 636q-17 0 -29 12t-12 29t12 29t29 12t29 -12t12 -29t-12 -29t-29 -12zM-56 -88q0 44 30.5 73.5t73.5 35.5v499h59v-520q-56 0 -86 -23t-30 -60q0 -34 25.5 -51t66.5 -11v-38q-54 -11 -96.5 15.5t-42.5 79.5z" />
    <glyph glyph-name="Idotaccent" unicode="&#x130;" horiz-adv-x="180" 
d="M59 0v700h61v-700h-61zM49 857q0 17 12.5 29t28.5 12t28.5 -12t12.5 -29t-12.5 -29t-28.5 -12t-28.5 12t-12.5 29z" />
    <glyph glyph-name="dotlessi" unicode="&#x131;" horiz-adv-x="154" 
d="M48 0v520h59v-520h-59z" />
    <glyph glyph-name="IJ" unicode="&#x132;" horiz-adv-x="818" 
d="M59 0v700h61v-700h-61zM239 259h62q0 -102 52.5 -158t145.5 -56q94 0 146.5 57.5t52.5 164.5v433h62v-437q0 -129 -69.5 -201t-192.5 -72q-122 0 -190.5 70.5t-68.5 198.5z" />
    <glyph glyph-name="ij" unicode="&#x133;" horiz-adv-x="364" 
d="M59 0v520h59v-520h-59zM48 677q0 17 12 29t29 12t29 -12t12 -29t-12 -29t-29 -12t-29 12t-12 29zM136 -183v47h28q46 0 64.5 18t18.5 63v575h59v-588q0 -118 -123 -118q-20 0 -47 3zM235 677q0 17 12 29t29 12t29 -12t12 -29t-12.5 -29t-28.5 -12t-28.5 12t-12.5 29z" />
    <glyph glyph-name="Jcircumflex" unicode="&#x134;" horiz-adv-x="639" 
d="M318 -10q-122 0 -190.5 70.5t-68.5 198.5h62q0 -102 52.5 -158t145.5 -56q94 0 146.5 57.5t52.5 164.5v433h62v-437q0 -129 -69.5 -201t-192.5 -72zM407 765l102 126h78l102 -126h-57l-84 103l-84 -103h-57z" />
    <glyph glyph-name="jcircumflex" unicode="&#x135;" horiz-adv-x="185" 
d="M15 -186q-20 0 -47 3v47h28q46 0 64.5 18t18.5 63v575h59v-588q0 -118 -123 -118zM-34 585l102 126h78l102 -126h-57l-84 103l-84 -103h-57z" />
    <glyph glyph-name="uni0136" unicode="&#x136;" horiz-adv-x="614" 
d="M59 0v700h61v-409l371 409h74l-296 -326l321 -374h-73l-287 331l-110 -121v-210h-61zM270 -64q0 19 12.5 31.5t33.5 12.5q23 0 38 -19t15 -57q0 -49 -24 -76t-61 -27h-7v32q28 1 39.5 15t11.5 40q-26 -1 -42 12.5t-16 35.5z" />
    <glyph glyph-name="uni0137" unicode="&#x137;" horiz-adv-x="526" 
d="M59 0v700h59v-482l295 302h69l-225 -227l255 -293h-70l-222 255l-102 -104v-151h-59zM223 -64q0 19 12.5 31.5t33.5 12.5q23 0 38 -19t15 -57q0 -49 -24 -76t-61 -27h-7v32q28 1 39.5 15t11.5 40q-26 -1 -42 12.5t-16 35.5z" />
    <glyph glyph-name="Lacute" unicode="&#x139;" horiz-adv-x="525" 
d="M59 0v700h61v-645h370v-55h-431zM61 762l100 129h55l-100 -129h-55z" />
    <glyph glyph-name="lacute" unicode="&#x13a;" horiz-adv-x="178" 
d="M59 0v700h59v-700h-59zM60 762l100 129h55l-100 -129h-55z" />
    <glyph glyph-name="uni013B" unicode="&#x13b;" horiz-adv-x="525" 
d="M59 0v700h61v-645h370v-55h-431zM227 -69q0 19 12.5 31.5t33.5 12.5q23 0 38 -19t15 -57q0 -49 -24 -76t-61 -27h-7v32q28 1 39.5 15t11.5 40q-26 -1 -42 12.5t-16 35.5z" />
    <glyph glyph-name="uni013C" unicode="&#x13c;" horiz-adv-x="178" 
d="M59 0v700h59v-700h-59zM44 -64q0 19 12.5 31.5t33.5 12.5q23 0 38 -19t15 -57q0 -49 -24 -76t-61 -27h-7v32q28 1 39.5 15t11.5 40q-26 -1 -42 12.5t-16 35.5z" />
    <glyph glyph-name="Lcaron" unicode="&#x13d;" horiz-adv-x="525" 
d="M59 0v700h61v-645h370v-55h-431zM236 666q0 19 12.5 31.5t33.5 12.5q23 0 38 -19t15 -57q0 -49 -24 -76t-61 -27h-7v32q28 1 39.5 15t11.5 40q-26 -1 -42 12.5t-16 35.5z" />
    <glyph glyph-name="lcaron" unicode="&#x13e;" horiz-adv-x="185" 
d="M164 471l40 229h51l-40 -229h-51zM59 0v700h59v-700h-59z" />
    <glyph glyph-name="Lslash" unicode="&#x141;" horiz-adv-x="559" 
d="M19 178v67l75 78v377h61v-314l128 132v-66l-128 -133v-264h370v-55h-431v256z" />
    <glyph glyph-name="lslash" unicode="&#x142;" horiz-adv-x="207" 
d="M5 177v69l69 98v356h59v-272l68 97h1v-68l-69 -98v-359h-59v275z" />
    <glyph glyph-name="Nacute" unicode="&#x143;" horiz-adv-x="652" 
d="M59 0v700h72l398 -610h2v610h61v-700h-73l-396 609h-3v-609h-61zM297 762l100 129h55l-100 -129h-55z" />
    <glyph glyph-name="nacute" unicode="&#x144;" 
d="M432 308q0 171 -147 171q-78 0 -122.5 -46t-44.5 -125v-308h-59v520h59v-100h1q10 36 56 73t127 37q84 0 136.5 -50t52.5 -162v-318h-59v308zM248 582l100 129h55l-100 -129h-55z" />
    <glyph glyph-name="uni0145" unicode="&#x145;" horiz-adv-x="652" 
d="M59 0v700h72l398 -610h2v610h61v-700h-73l-396 609h-3v-609h-61zM281 -64q0 19 12.5 31.5t33.5 12.5q23 0 38 -19t15 -57q0 -49 -24 -76t-61 -27h-7v32q28 1 39.5 15t11.5 40q-26 -1 -42 12.5t-16 35.5z" />
    <glyph glyph-name="uni0146" unicode="&#x146;" 
d="M432 308q0 171 -147 171q-78 0 -122.5 -46t-44.5 -125v-308h-59v520h59v-100h1q10 36 56 73t127 37q84 0 136.5 -50t52.5 -162v-318h-59v308zM232 -64q0 19 12.5 31.5t33.5 12.5q23 0 38 -19t15 -57q0 -49 -24 -76t-61 -27h-7v32q28 1 39.5 15t11.5 40q-26 -1 -42 12.5
t-16 35.5z" />
    <glyph glyph-name="Ncaron" unicode="&#x147;" horiz-adv-x="652" 
d="M59 0v700h72l398 -610h2v610h61v-700h-73l-396 609h-3v-609h-61zM179 890h57l84 -103l84 103h57l-102 -126h-78z" />
    <glyph glyph-name="ncaron" unicode="&#x148;" 
d="M432 308q0 171 -147 171q-78 0 -122.5 -46t-44.5 -125v-308h-59v520h59v-100h1q10 36 56 73t127 37q84 0 136.5 -50t52.5 -162v-318h-59v308zM130 710h57l84 -103l84 103h57l-102 -126h-78z" />
    <glyph glyph-name="Eng" unicode="&#x14a;" horiz-adv-x="652" 
d="M329 -220q-70 0 -120 25v59q53 -29 119 -29q81 0 132 41t65 117l-402 615h-3v-608h-61v700h71l399 -610h2v610h61v-646q0 -129 -70 -201.5t-193 -72.5z" />
    <glyph glyph-name="eng" unicode="&#x14b;" 
d="M375 -220q-55 0 -90 23v50q44 -20 81 -20q66 0 66 81v394q0 171 -147 171q-77 0 -122 -46t-45 -125v-308h-59v520h59v-97q14 36 59 71.5t125 35.5q84 0 136.5 -50t52.5 -162v-406q0 -132 -116 -132z" />
    <glyph glyph-name="Omacron" unicode="&#x14c;" horiz-adv-x="713" 
d="M357 -10q-138 0 -225.5 94t-87.5 266t87.5 265.5t225.5 93.5q137 0 224.5 -93.5t87.5 -265.5t-87.5 -266t-224.5 -94zM106 350q0 -149 69.5 -227.5t181.5 -78.5q111 0 180.5 78.5t69.5 227.5q0 148 -69.5 226.5t-180.5 78.5q-112 0 -181.5 -78.5t-69.5 -226.5zM214 851
v40h285v-40h-285z" />
    <glyph glyph-name="omacron" unicode="&#x14d;" horiz-adv-x="562" 
d="M281 -10q-104 0 -175.5 69.5t-71.5 200.5t71.5 200.5t175.5 69.5t175 -69.5t71 -200.5t-71 -200.5t-175 -69.5zM91 260q0 -107 55.5 -163.5t134.5 -56.5t134 56.5t55 163.5t-55 163.5t-134 56.5t-134.5 -56.5t-55.5 -163.5zM139 671v40h285v-40h-285z" />
    <glyph glyph-name="Ohungarumlaut" unicode="&#x150;" horiz-adv-x="713" 
d="M357 -10q-138 0 -225.5 94t-87.5 266t87.5 265.5t225.5 93.5q137 0 224.5 -93.5t87.5 -265.5t-87.5 -266t-224.5 -94zM106 350q0 -149 69.5 -227.5t181.5 -78.5q111 0 180.5 78.5t69.5 227.5q0 148 -69.5 226.5t-180.5 78.5q-112 0 -181.5 -78.5t-69.5 -226.5zM245 762
l100 129h55l-100 -129h-55zM374 762l100 129h55l-100 -129h-55z" />
    <glyph glyph-name="ohungarumlaut" unicode="&#x151;" horiz-adv-x="562" 
d="M281 -10q-104 0 -175.5 69.5t-71.5 200.5t71.5 200.5t175.5 69.5t175 -69.5t71 -200.5t-71 -200.5t-175 -69.5zM91 260q0 -107 55.5 -163.5t134.5 -56.5t134 56.5t55 163.5t-55 163.5t-134 56.5t-134.5 -56.5t-55.5 -163.5zM169 582l100 129h55l-100 -129h-55zM298 582
l100 129h55l-100 -129h-55z" />
    <glyph glyph-name="OE" unicode="&#x152;" horiz-adv-x="1087" 
d="M357 -10q-138 0 -225.5 94t-87.5 266t87.5 265.5t225.5 93.5q79 0 144.5 -32.5t106.5 -95.5v119h435v-55h-374v-258h344v-52h-344v-280h384v-55h-445v118q-41 -63 -106.5 -95.5t-144.5 -32.5zM106 350q0 -149 69.5 -227.5t181.5 -78.5q111 0 180.5 78.5t69.5 227.5
q0 148 -69.5 226.5t-180.5 78.5q-112 0 -181.5 -78.5t-69.5 -226.5z" />
    <glyph glyph-name="oe" unicode="&#x153;" horiz-adv-x="971" 
d="M281 -10q-104 0 -175.5 69.5t-71.5 200.5t71.5 200.5t175.5 69.5q70 0 128.5 -33.5t88.5 -97.5q29 66 84.5 98.5t127.5 32.5q103 0 165 -65.5t62 -187.5q0 -23 -3 -36h-405q3 -101 51 -152t136 -51q124 0 159 101h55q-47 -149 -215 -149q-160 0 -217 130q-31 -64 -89 -97
t-128 -33zM91 260q0 -107 55.5 -163.5t134.5 -56.5t134 56.5t55 163.5t-55 163.5t-134 56.5t-134.5 -56.5t-55.5 -163.5zM529 288h351q-1 94 -46.5 144t-124.5 50q-77 0 -126.5 -49.5t-53.5 -144.5z" />
    <glyph glyph-name="Racute" unicode="&#x154;" horiz-adv-x="610" 
d="M496 0q-10 20 -10 73v106q0 118 -146 118h-220v-297h-61v700h266q113 0 170.5 -51t57.5 -143q0 -67 -30.5 -113.5t-89.5 -65.5q113 -27 113 -148v-106q0 -53 10 -73h-60zM120 348h201q85 0 128 39t43 112q0 147 -171 147h-201v-298zM278 762l100 129h55l-100 -129h-55z
" />
    <glyph glyph-name="racute" unicode="&#x155;" horiz-adv-x="351" 
d="M59 0v520h59v-113h2q12 45 54.5 82t114.5 37q24 0 38 -5v-50q-12 2 -37 2q-82 0 -127 -51.5t-45 -133.5v-288h-59zM155 582l100 129h55l-100 -129h-55z" />
    <glyph glyph-name="uni0156" unicode="&#x156;" horiz-adv-x="610" 
d="M496 0q-10 20 -10 73v106q0 118 -146 118h-220v-297h-61v700h266q113 0 170.5 -51t57.5 -143q0 -67 -30.5 -113.5t-89.5 -65.5q113 -27 113 -148v-106q0 -53 10 -73h-60zM120 348h201q85 0 128 39t43 112q0 147 -171 147h-201v-298zM262 -64q0 19 12.5 31.5t33.5 12.5
q23 0 38 -19t15 -57q0 -49 -24 -76t-61 -27h-7v32q28 1 39.5 15t11.5 40q-26 -1 -42 12.5t-16 35.5z" />
    <glyph glyph-name="uni0157" unicode="&#x157;" horiz-adv-x="351" 
d="M59 0v520h59v-113h2q12 45 54.5 82t114.5 37q24 0 38 -5v-50q-12 2 -37 2q-82 0 -127 -51.5t-45 -133.5v-288h-59zM44 -64q0 19 12.5 31.5t33.5 12.5q23 0 38 -19t15 -57q0 -49 -24 -76t-61 -27h-7v32q28 1 39.5 15t11.5 40q-26 -1 -42 12.5t-16 35.5z" />
    <glyph glyph-name="Rcaron" unicode="&#x158;" horiz-adv-x="610" 
d="M496 0q-10 20 -10 73v106q0 118 -146 118h-220v-297h-61v700h266q113 0 170.5 -51t57.5 -143q0 -67 -30.5 -113.5t-89.5 -65.5q113 -27 113 -148v-106q0 -53 10 -73h-60zM120 348h201q85 0 128 39t43 112q0 147 -171 147h-201v-298zM160 890h57l84 -103l84 103h57
l-102 -126h-78z" />
    <glyph glyph-name="rcaron" unicode="&#x159;" horiz-adv-x="351" 
d="M59 0v520h59v-113h2q12 45 54.5 82t114.5 37q24 0 38 -5v-50q-12 2 -37 2q-82 0 -127 -51.5t-45 -133.5v-288h-59zM37 710h57l84 -103l84 103h57l-102 -126h-78z" />
    <glyph glyph-name="Sacute" unicode="&#x15a;" horiz-adv-x="600" 
d="M305 -10q-126 0 -193.5 57.5t-67.5 147.5h61q4 -68 54 -110t147 -42q92 0 139.5 39.5t47.5 106.5q0 62 -39 93.5t-112 46.5l-91 18q-186 38 -186 181q0 82 60 131.5t174 49.5q112 0 173.5 -49t61.5 -129h-59q-4 56 -47.5 90.5t-128.5 34.5q-86 0 -128.5 -35.5
t-42.5 -92.5q0 -103 142 -131l90 -18q95 -19 145.5 -62.5t50.5 -126.5q0 -93 -66 -146.5t-185 -53.5zM266 762l100 129h55l-100 -129h-55z" />
    <glyph glyph-name="sacute" unicode="&#x15b;" horiz-adv-x="473" 
d="M240 -10q-90 0 -148 37.5t-63 112.5h54q8 -54 52.5 -78t105.5 -24q63 0 102.5 25.5t39.5 77.5q0 42 -24.5 60.5t-78.5 31.5l-99 24q-135 33 -135 136q0 66 51 101.5t139 35.5q87 0 139 -36t57 -110h-50q-17 98 -145 98q-133 0 -133 -90q0 -34 22.5 -55t74.5 -34l97 -23
q73 -17 109.5 -47.5t36.5 -90.5q0 -80 -59 -116t-145 -36zM208 582l100 129h55l-100 -129h-55z" />
    <glyph glyph-name="Scircumflex" unicode="&#x15c;" horiz-adv-x="600" 
d="M305 -10q-126 0 -193.5 57.5t-67.5 147.5h61q4 -68 54 -110t147 -42q92 0 139.5 39.5t47.5 106.5q0 62 -39 93.5t-112 46.5l-91 18q-186 38 -186 181q0 82 60 131.5t174 49.5q112 0 173.5 -49t61.5 -129h-59q-4 56 -47.5 90.5t-128.5 34.5q-86 0 -128.5 -35.5
t-42.5 -92.5q0 -103 142 -131l90 -18q95 -19 145.5 -62.5t50.5 -126.5q0 -93 -66 -146.5t-185 -53.5zM153 765l102 126h78l102 -126h-57l-84 103l-84 -103h-57z" />
    <glyph glyph-name="scircumflex" unicode="&#x15d;" horiz-adv-x="473" 
d="M240 -10q-90 0 -148 37.5t-63 112.5h54q8 -54 52.5 -78t105.5 -24q63 0 102.5 25.5t39.5 77.5q0 42 -24.5 60.5t-78.5 31.5l-99 24q-135 33 -135 136q0 66 51 101.5t139 35.5q87 0 139 -36t57 -110h-50q-17 98 -145 98q-133 0 -133 -90q0 -34 22.5 -55t74.5 -34l97 -23
q73 -17 109.5 -47.5t36.5 -90.5q0 -80 -59 -116t-145 -36zM95 585l102 126h78l102 -126h-57l-84 103l-84 -103h-57z" />
    <glyph glyph-name="Scedilla" unicode="&#x15e;" horiz-adv-x="600" 
d="M244 -175q81 0 81 51q0 26 -22.5 37.5t-53.5 -1.5l-23 26l43 53q-109 9 -167 65t-58 139h61q4 -68 54 -110t147 -42q92 0 139.5 39.5t47.5 106.5q0 62 -39 93.5t-112 46.5l-91 18q-186 38 -186 181q0 82 60 131.5t174 49.5q112 0 173.5 -49t61.5 -129h-59
q-4 56 -47.5 90.5t-128.5 34.5q-86 0 -128.5 -35.5t-42.5 -92.5q0 -103 142 -131l90 -18q95 -19 145.5 -62.5t50.5 -126.5q0 -91 -62.5 -144t-176.5 -56l-33 -38q4 1 13 1q30 0 52.5 -20t22.5 -55q0 -45 -36 -68t-92 -23v38z" />
    <glyph glyph-name="scedilla" unicode="&#x15f;" horiz-adv-x="473" 
d="M186 -175q81 0 81 51q0 26 -22.5 37.5t-53.5 -1.5l-23 26l43 53q-79 6 -128.5 43t-53.5 106h54q8 -54 52.5 -78t105.5 -24q63 0 102.5 25.5t39.5 77.5q0 42 -24.5 60.5t-78.5 31.5l-99 24q-135 33 -135 136q0 66 51 101.5t139 35.5q87 0 139 -36t57 -110h-50
q-17 98 -145 98q-133 0 -133 -90q0 -34 22.5 -55t74.5 -34l97 -23q73 -17 109.5 -47.5t36.5 -90.5q0 -75 -52 -111.5t-132 -40.5l-34 -38q4 1 13 1q30 0 52.5 -20t22.5 -55q0 -45 -36 -68t-92 -23v38z" />
    <glyph glyph-name="Scaron" unicode="&#x160;" horiz-adv-x="600" 
d="M305 -10q-126 0 -193.5 57.5t-67.5 147.5h61q4 -68 54 -110t147 -42q92 0 139.5 39.5t47.5 106.5q0 62 -39 93.5t-112 46.5l-91 18q-186 38 -186 181q0 82 60 131.5t174 49.5q112 0 173.5 -49t61.5 -129h-59q-4 56 -47.5 90.5t-128.5 34.5q-86 0 -128.5 -35.5
t-42.5 -92.5q0 -103 142 -131l90 -18q95 -19 145.5 -62.5t50.5 -126.5q0 -93 -66 -146.5t-185 -53.5zM148 890h57l84 -103l84 103h57l-102 -126h-78z" />
    <glyph glyph-name="scaron" unicode="&#x161;" horiz-adv-x="473" 
d="M240 -10q-90 0 -148 37.5t-63 112.5h54q8 -54 52.5 -78t105.5 -24q63 0 102.5 25.5t39.5 77.5q0 42 -24.5 60.5t-78.5 31.5l-99 24q-135 33 -135 136q0 66 51 101.5t139 35.5q87 0 139 -36t57 -110h-50q-17 98 -145 98q-133 0 -133 -90q0 -34 22.5 -55t74.5 -34l97 -23
q73 -17 109.5 -47.5t36.5 -90.5q0 -80 -59 -116t-145 -36zM90 710h57l84 -103l84 103h57l-102 -126h-78z" />
    <glyph glyph-name="uni0162" unicode="&#x162;" horiz-adv-x="573" 
d="M256 0v644h-227v56h515v-56h-227v-644h-11l-42 -48q4 1 13 1q30 0 52.5 -20t22.5 -55q0 -45 -36 -68t-92 -23v38q81 0 81 51q0 26 -22.5 37.5t-53.5 -1.5l-23 26z" />
    <glyph glyph-name="uni0163" unicode="&#x163;" horiz-adv-x="308" 
d="M227 -7h-11l-36 -41q4 1 13 1q30 0 52.5 -20t22.5 -55q0 -45 -36 -68t-92 -23v38q81 0 81 51q0 26 -22.5 37.5t-53.5 -1.5l-23 26l50 62h3q-68 22 -68 111v359h-83v50h83v129h59v-129h104v-50h-104v-346q0 -45 18 -63t61 -18q21 0 33 2v-47q-25 -5 -51 -5z" />
    <glyph glyph-name="Tcaron" unicode="&#x164;" horiz-adv-x="573" 
d="M256 0v644h-227v56h515v-56h-227v-644h-61zM139 890h57l84 -103l84 103h57l-102 -126h-78z" />
    <glyph glyph-name="tcaron" unicode="&#x165;" horiz-adv-x="298" 
d="M227 -7q-120 0 -120 118v359h-83v50h83v129h59v-129h104v-50h-104v-346q0 -45 18 -63t61 -18q21 0 33 2v-47q-25 -5 -51 -5zM192 579l100 129h55l-100 -129h-55z" />
    <glyph glyph-name="Tbar" unicode="&#x166;" horiz-adv-x="573" 
d="M115 471v46h141v127h-227v56h515v-56h-227v-127h140v-46h-140v-471h-61v471h-141z" />
    <glyph glyph-name="tbar" unicode="&#x167;" horiz-adv-x="308" 
d="M24 335v48h83v87h-83v50h83v129h59v-129h104v-50h-104v-87h104v-48h-104v-211q0 -45 18 -63t61 -18q21 0 33 2v-47q-25 -5 -51 -5q-120 0 -120 118v224h-83z" />
    <glyph glyph-name="Utilde" unicode="&#x168;" horiz-adv-x="645" 
d="M322 -10q-123 0 -193 72.5t-70 201.5v436h62v-433q0 -107 52.5 -164.5t148.5 -57.5t149 57.5t53 164.5v433h62v-436q0 -129 -70.5 -201.5t-193.5 -72.5zM170 811q0 45 22.5 67.5t58.5 22.5q24 0 44 -11t31.5 -24.5t28.5 -24.5t34 -11q24 0 35 15t10 34h41
q0 -45 -22.5 -67.5t-58.5 -22.5q-24 0 -44 11t-32 24.5t-28.5 24.5t-34.5 11q-23 0 -34 -15t-10 -34h-41z" />
    <glyph glyph-name="utilde" unicode="&#x169;" 
d="M118 212q0 -171 147 -171q78 0 122.5 46t44.5 125v308h59v-520h-59v100h-1q-10 -36 -56 -73t-127 -37q-84 0 -136.5 50t-52.5 162v318h59v-308zM119 631q0 45 22.5 67.5t58.5 22.5q24 0 44 -11t31.5 -24.5t28.5 -24.5t34 -11q24 0 35 15t10 34h41q0 -45 -22.5 -67.5
t-58.5 -22.5q-24 0 -44 11t-32 24.5t-28.5 24.5t-34.5 11q-23 0 -34 -15t-10 -34h-41z" />
    <glyph glyph-name="Umacron" unicode="&#x16a;" horiz-adv-x="645" 
d="M322 -10q-123 0 -193 72.5t-70 201.5v436h62v-433q0 -107 52.5 -164.5t148.5 -57.5t149 57.5t53 164.5v433h62v-436q0 -129 -70.5 -201.5t-193.5 -72.5zM180 851v40h285v-40h-285z" />
    <glyph glyph-name="umacron" unicode="&#x16b;" 
d="M118 212q0 -171 147 -171q78 0 122.5 46t44.5 125v308h59v-520h-59v100h-1q-10 -36 -56 -73t-127 -37q-84 0 -136.5 50t-52.5 162v318h59v-308zM129 671v40h285v-40h-285z" />
    <glyph glyph-name="Ubreve" unicode="&#x16c;" horiz-adv-x="645" 
d="M322 -10q-123 0 -193 72.5t-70 201.5v436h62v-433q0 -107 52.5 -164.5t148.5 -57.5t149 57.5t53 164.5v433h62v-436q0 -129 -70.5 -201.5t-193.5 -72.5zM190 891h43q4 -81 90 -81t90 81h43q0 -52 -32 -86.5t-101 -34.5t-101 34.5t-32 86.5z" />
    <glyph glyph-name="ubreve" unicode="&#x16d;" 
d="M118 212q0 -171 147 -171q78 0 122.5 46t44.5 125v308h59v-520h-59v100h-1q-10 -36 -56 -73t-127 -37q-84 0 -136.5 50t-52.5 162v318h59v-308zM138 711h43q4 -81 90 -81t90 81h43q0 -52 -32 -86.5t-101 -34.5t-101 34.5t-32 86.5z" />
    <glyph glyph-name="Uring" unicode="&#x16e;" horiz-adv-x="645" 
d="M322 -10q-123 0 -193 72.5t-70 201.5v436h62v-433q0 -107 52.5 -164.5t148.5 -57.5t149 57.5t53 164.5v433h62v-436q0 -129 -70.5 -201.5t-193.5 -72.5zM240 835q0 34 24 57.5t59 23.5t59 -23.5t24 -57.5q0 -33 -24 -57t-59 -24t-59 24t-24 57zM274 835q0 -20 14.5 -34
t34.5 -14t34.5 14t14.5 34q0 21 -14.5 35t-34.5 14t-34.5 -14t-14.5 -35z" />
    <glyph glyph-name="uring" unicode="&#x16f;" 
d="M118 212q0 -171 147 -171q78 0 122.5 46t44.5 125v308h59v-520h-59v100h-1q-10 -36 -56 -73t-127 -37q-84 0 -136.5 50t-52.5 162v318h59v-308zM189 655q0 34 24 57.5t59 23.5t59 -23.5t24 -57.5q0 -33 -24 -57t-59 -24t-59 24t-24 57zM223 655q0 -20 14.5 -34t34.5 -14
t34.5 14t14.5 34q0 21 -14.5 35t-34.5 14t-34.5 -14t-14.5 -35z" />
    <glyph glyph-name="Uhungarumlaut" unicode="&#x170;" horiz-adv-x="645" 
d="M322 -10q-123 0 -193 72.5t-70 201.5v436h62v-433q0 -107 52.5 -164.5t148.5 -57.5t149 57.5t53 164.5v433h62v-436q0 -129 -70.5 -201.5t-193.5 -72.5zM212 762l100 129h55l-100 -129h-55zM340 762l100 129h55l-100 -129h-55z" />
    <glyph glyph-name="uhungarumlaut" unicode="&#x171;" 
d="M118 212q0 -171 147 -171q78 0 122.5 46t44.5 125v308h59v-520h-59v100h-1q-10 -36 -56 -73t-127 -37q-84 0 -136.5 50t-52.5 162v318h59v-308zM160 582l100 129h55l-100 -129h-55zM289 582l100 129h55l-100 -129h-55z" />
    <glyph glyph-name="Uogonek" unicode="&#x172;" horiz-adv-x="645" 
d="M406 -183q-54 -11 -96.5 15.5t-42.5 79.5q0 47 35 79q-114 5 -178.5 77t-64.5 196v436h62v-433q0 -107 52.5 -164.5t148.5 -57.5t149 57.5t53 164.5v433h62v-436q0 -111 -53 -181t-149 -88q-34 -9 -52 -29.5t-18 -48.5q0 -34 25.5 -51t66.5 -11v-38z" />
    <glyph glyph-name="uogonek" unicode="&#x173;" 
d="M118 212q0 -171 147 -171q78 0 122.5 46t44.5 125v308h59v-519l1 -1q-56 0 -86 -23t-30 -60q0 -34 25.5 -51t66.5 -11v-38q-54 -11 -96.5 15.5t-42.5 79.5q0 44 30 73t73 35v80h-1q-10 -36 -56 -73t-127 -37q-84 0 -136.5 50t-52.5 162v318h59v-308z" />
    <glyph glyph-name="Wcircumflex" unicode="&#x174;" horiz-adv-x="956" 
d="M219 0l-190 700h63l162 -615h3l187 615h68l187 -615h3l162 615h63l-189 -700h-68l-192 622l-192 -622h-67zM336 765l102 126h78l102 -126h-57l-84 103l-84 -103h-57z" />
    <glyph glyph-name="wcircumflex" unicode="&#x175;" horiz-adv-x="785" 
d="M176 0l-152 520h59l127 -457h4l152 457h53l151 -457h4l128 457h58l-151 -520h-68l-149 442l-149 -442h-67zM251 585l102 126h78l102 -126h-57l-84 103l-84 -103h-57z" />
    <glyph glyph-name="Ycircumflex" unicode="&#x176;" horiz-adv-x="635" 
d="M287 0v279l-258 421h69l220 -361l219 361h69l-258 -421v-279h-61zM176 765l102 126h78l102 -126h-57l-84 103l-84 -103h-57z" />
    <glyph glyph-name="ycircumflex" unicode="&#x177;" horiz-adv-x="521" 
d="M78 -138q101 -14 140 90q15 39 5 66l-199 502h61l176 -455l175 455h61l-228 -575q-32 -80 -78.5 -112t-112.5 -23v52zM121 585l102 126h78l102 -126h-57l-84 103l-84 -103h-57z" />
    <glyph glyph-name="Ydieresis" unicode="&#x178;" horiz-adv-x="635" 
d="M287 0v279l-258 421h69l220 -361l219 361h69l-258 -421v-279h-61zM190 857q0 17 12 29t29 12t29 -12t12 -29t-12 -29t-29 -12t-29 12t-12 29zM363 857q0 17 12.5 29t28.5 12t28.5 -12t12.5 -29t-12.5 -29t-28.5 -12t-28.5 12t-12.5 29z" />
    <glyph glyph-name="Zacute" unicode="&#x179;" horiz-adv-x="607" 
d="M40 0v55l453 590h-433v55h503v-55l-454 -590h458v-55h-527zM278 762l100 129h55l-100 -129h-55z" />
    <glyph glyph-name="zacute" unicode="&#x17a;" horiz-adv-x="494" 
d="M40 0v51l344 418h-334v51h404v-51l-344 -418h344v-51h-414zM216 582l100 129h55l-100 -129h-55z" />
    <glyph glyph-name="Zdotaccent" unicode="&#x17b;" horiz-adv-x="607" 
d="M40 0v55l453 590h-433v55h503v-55l-454 -590h458v-55h-527zM266 857q0 17 12 29t29 12t29 -12t12 -29t-12 -29t-29 -12t-29 12t-12 29z" />
    <glyph glyph-name="zdotaccent" unicode="&#x17c;" horiz-adv-x="494" 
d="M40 0v51l344 418h-334v51h404v-51l-344 -418h344v-51h-414zM204 677q0 17 12 29t29 12t29 -12t12 -29t-12 -29t-29 -12t-29 12t-12 29z" />
    <glyph glyph-name="Zcaron" unicode="&#x17d;" horiz-adv-x="607" 
d="M40 0v55l453 590h-433v55h503v-55l-454 -590h458v-55h-527zM160 890h57l84 -103l84 103h57l-102 -126h-78z" />
    <glyph glyph-name="zcaron" unicode="&#x17e;" horiz-adv-x="494" 
d="M40 0v51l344 418h-334v51h404v-51l-344 -418h344v-51h-414zM98 710h57l84 -103l84 103h57l-102 -126h-78z" />
    <glyph glyph-name="uni018F" unicode="&#x18f;" horiz-adv-x="687" 
d="M328 -10q-137 0 -210.5 81.5t-73.5 237.5v42h537q0 149 -67 226.5t-184 77.5q-153 0 -198 -122h-60q22 85 89.5 130.5t168.5 45.5q143 0 228 -92.5t85 -266.5q0 -176 -84.5 -268t-230.5 -92zM103 299q-1 -126 58.5 -190.5t166.5 -64.5q108 0 173.5 65t77.5 190h-476z" />
    <glyph glyph-name="florin" unicode="&#x192;" horiz-adv-x="292" 
d="M24 -138q92 0 92 109v406h-82v52h82v120q0 89 38 123t113 34v-53q-46 0 -69 -24t-23 -84v-116h92v-52h-92v-410q0 -88 -41 -122.5t-110 -34.5v52z" />
    <glyph glyph-name="Ohorn" unicode="&#x1a0;" horiz-adv-x="713" 
d="M357 -10q-138 0 -225.5 94t-87.5 266t87.5 265.5t225.5 93.5h244v79h52v-127h-125q141 -93 141 -311q0 -172 -87.5 -266t-224.5 -94zM106 350q0 -149 69.5 -227.5t181.5 -78.5q111 0 180.5 78.5t69.5 227.5q0 148 -69.5 226.5t-180.5 78.5q-112 0 -181.5 -78.5
t-69.5 -226.5z" />
    <glyph glyph-name="ohorn" unicode="&#x1a1;" horiz-adv-x="562" 
d="M281 -10q-104 0 -175.5 69.5t-71.5 200.5t71.5 200.5t175.5 69.5h179v78h50v-125h-80q97 -72 97 -223q0 -131 -71 -200.5t-175 -69.5zM91 260q0 -107 55.5 -163.5t134.5 -56.5t134 56.5t55 163.5t-55 163.5t-134 56.5t-134.5 -56.5t-55.5 -163.5z" />
    <glyph glyph-name="Uhorn" unicode="&#x1af;" horiz-adv-x="645" 
d="M322 -10q-123 0 -193 72.5t-70 201.5v436h62v-433q0 -107 52.5 -164.5t148.5 -57.5t149 57.5t53 164.5v433h104v88h52v-138h-94v-386q0 -129 -70.5 -201.5t-193.5 -72.5z" />
    <glyph glyph-name="uhorn" unicode="&#x1b0;" 
d="M118 212q0 -171 147 -171q78 0 122.5 46t44.5 125v308h104v88h52v-138h-97v-470h-59v100h-1q-10 -36 -56 -73t-127 -37q-84 0 -136.5 50t-52.5 162v318h59v-308z" />
    <glyph glyph-name="uni01CD" unicode="&#x1cd;" horiz-adv-x="665" 
d="M24 0l272 700h73l272 -700h-65l-72 189h-343l-72 -189h-65zM180 237h305l-150 394h-5zM186 890h57l84 -103l84 103h57l-102 -126h-78z" />
    <glyph glyph-name="uni01CE" unicode="&#x1ce;" horiz-adv-x="529" 
d="M203 -10q-78 0 -123.5 35.5t-45.5 103.5q0 127 163 146l137 16q77 8 77 36v29q0 68 -35 97.5t-109 29.5q-145 0 -145 -106v-12h-57v16q0 149 204 149q103 0 152 -41.5t49 -133.5v-355h-57v95h-3q-17 -35 -70.5 -70t-136.5 -35zM93 133q0 -94 122 -94q90 0 143 47.5
t53 92.5v93q-5 -21 -81 -30l-119 -13q-64 -8 -91 -32t-27 -64zM125 710h57l84 -103l84 103h57l-102 -126h-78z" />
    <glyph glyph-name="uni01CF" unicode="&#x1cf;" horiz-adv-x="180" 
d="M59 0v700h61v-700h-61zM-57 890h57l84 -103l84 103h57l-102 -126h-78z" />
    <glyph glyph-name="uni01D0" unicode="&#x1d0;" horiz-adv-x="154" 
d="M48 0v520h59v-520h-59zM-70 710h57l84 -103l84 103h57l-102 -126h-78z" />
    <glyph glyph-name="uni01D1" unicode="&#x1d1;" horiz-adv-x="713" 
d="M357 -10q-138 0 -225.5 94t-87.5 266t87.5 265.5t225.5 93.5q137 0 224.5 -93.5t87.5 -265.5t-87.5 -266t-224.5 -94zM106 350q0 -149 69.5 -227.5t181.5 -78.5q111 0 180.5 78.5t69.5 227.5q0 148 -69.5 226.5t-180.5 78.5q-112 0 -181.5 -78.5t-69.5 -226.5zM210 890
h57l84 -103l84 103h57l-102 -126h-78z" />
    <glyph glyph-name="uni01D2" unicode="&#x1d2;" horiz-adv-x="562" 
d="M281 -10q-104 0 -175.5 69.5t-71.5 200.5t71.5 200.5t175.5 69.5t175 -69.5t71 -200.5t-71 -200.5t-175 -69.5zM91 260q0 -107 55.5 -163.5t134.5 -56.5t134 56.5t55 163.5t-55 163.5t-134 56.5t-134.5 -56.5t-55.5 -163.5zM134 710h57l84 -103l84 103h57l-102 -126h-78z
" />
    <glyph glyph-name="uni01D3" unicode="&#x1d3;" horiz-adv-x="645" 
d="M322 -10q-123 0 -193 72.5t-70 201.5v436h62v-433q0 -107 52.5 -164.5t148.5 -57.5t149 57.5t53 164.5v433h62v-436q0 -129 -70.5 -201.5t-193.5 -72.5zM176 890h57l84 -103l84 103h57l-102 -126h-78z" />
    <glyph glyph-name="uni01D4" unicode="&#x1d4;" 
d="M118 212q0 -171 147 -171q78 0 122.5 46t44.5 125v308h59v-520h-59v100h-1q-10 -36 -56 -73t-127 -37q-84 0 -136.5 50t-52.5 162v318h59v-308zM124 710h57l84 -103l84 103h57l-102 -126h-78z" />
    <glyph glyph-name="uni01D5" unicode="&#x1d5;" horiz-adv-x="645" 
d="M322 -10q-123 0 -193 72.5t-70 201.5v436h62v-433q0 -107 52.5 -164.5t148.5 -57.5t149 57.5t53 164.5v433h62v-436q0 -129 -70.5 -201.5t-193.5 -72.5zM181 981v40h285v-40h-285zM195 857q0 17 12.5 29t28.5 12t28.5 -12t12.5 -29t-12.5 -29t-28.5 -12t-28.5 12
t-12.5 29zM368 857q0 17 12 29t29 12t29 -12t12 -29t-12 -29t-29 -12t-29 12t-12 29z" />
    <glyph glyph-name="uni01D6" unicode="&#x1d6;" 
d="M118 212q0 -171 147 -171q78 0 122.5 46t44.5 125v308h59v-520h-59v100h-1q-10 -36 -56 -73t-127 -37q-84 0 -136.5 50t-52.5 162v318h59v-308zM129 800v40h285v-40h-285zM143 677q0 17 12.5 29t28.5 12t28.5 -12t12.5 -29t-12.5 -29t-28.5 -12t-28.5 12t-12.5 29z
M316 677q0 17 12 29t29 12t29 -12t12 -29t-12 -29t-29 -12t-29 12t-12 29z" />
    <glyph glyph-name="uni01D7" unicode="&#x1d7;" horiz-adv-x="645" 
d="M322 -10q-123 0 -193 72.5t-70 201.5v436h62v-433q0 -107 52.5 -164.5t148.5 -57.5t149 57.5t53 164.5v433h62v-436q0 -129 -70.5 -201.5t-193.5 -72.5zM195 857q0 17 12.5 29t28.5 12t28.5 -12t12.5 -29t-12.5 -29t-28.5 -12t-28.5 12t-12.5 29zM291 930l100 129h55
l-100 -129h-55zM368 857q0 17 12 29t29 12t29 -12t12 -29t-12 -29t-29 -12t-29 12t-12 29z" />
    <glyph glyph-name="uni01D8" unicode="&#x1d8;" 
d="M118 212q0 -171 147 -171q78 0 122.5 46t44.5 125v308h59v-520h-59v100h-1q-10 -36 -56 -73t-127 -37q-84 0 -136.5 50t-52.5 162v318h59v-308zM143 677q0 17 12.5 29t28.5 12t28.5 -12t12.5 -29t-12.5 -29t-28.5 -12t-28.5 12t-12.5 29zM239 750l100 129h55l-100 -129
h-55zM316 677q0 17 12 29t29 12t29 -12t12 -29t-12 -29t-29 -12t-29 12t-12 29z" />
    <glyph glyph-name="uni01D9" unicode="&#x1d9;" horiz-adv-x="645" 
d="M322 -10q-123 0 -193 72.5t-70 201.5v436h62v-433q0 -107 52.5 -164.5t148.5 -57.5t149 57.5t53 164.5v433h62v-436q0 -129 -70.5 -201.5t-193.5 -72.5zM180 1058h57l84 -103l84 103h57l-102 -126h-78zM195 857q0 17 12.5 29t28.5 12t28.5 -12t12.5 -29t-12.5 -29
t-28.5 -12t-28.5 12t-12.5 29zM368 857q0 17 12 29t29 12t29 -12t12 -29t-12 -29t-29 -12t-29 12t-12 29z" />
    <glyph glyph-name="uni01DA" unicode="&#x1da;" 
d="M118 212q0 -171 147 -171q78 0 122.5 46t44.5 125v308h59v-520h-59v100h-1q-10 -36 -56 -73t-127 -37q-84 0 -136.5 50t-52.5 162v318h59v-308zM128 878h57l84 -103l84 103h57l-102 -126h-78zM143 677q0 17 12.5 29t28.5 12t28.5 -12t12.5 -29t-12.5 -29t-28.5 -12
t-28.5 12t-12.5 29zM316 677q0 17 12 29t29 12t29 -12t12 -29t-12 -29t-29 -12t-29 12t-12 29z" />
    <glyph glyph-name="uni01DB" unicode="&#x1db;" horiz-adv-x="645" 
d="M322 -10q-123 0 -193 72.5t-70 201.5v436h62v-433q0 -107 52.5 -164.5t148.5 -57.5t149 57.5t53 164.5v433h62v-436q0 -129 -70.5 -201.5t-193.5 -72.5zM195 857q0 17 12.5 29t28.5 12t28.5 -12t12.5 -29t-12.5 -29t-28.5 -12t-28.5 12t-12.5 29zM197 1059h55l100 -129
h-55zM368 857q0 17 12 29t29 12t29 -12t12 -29t-12 -29t-29 -12t-29 12t-12 29z" />
    <glyph glyph-name="uni01DC" unicode="&#x1dc;" 
d="M118 212q0 -171 147 -171q78 0 122.5 46t44.5 125v308h59v-520h-59v100h-1q-10 -36 -56 -73t-127 -37q-84 0 -136.5 50t-52.5 162v318h59v-308zM143 677q0 17 12.5 29t28.5 12t28.5 -12t12.5 -29t-12.5 -29t-28.5 -12t-28.5 12t-12.5 29zM145 879h55l100 -129h-55z
M316 677q0 17 12 29t29 12t29 -12t12 -29t-12 -29t-29 -12t-29 12t-12 29z" />
    <glyph glyph-name="Gcaron" unicode="&#x1e6;" horiz-adv-x="692" 
d="M359 -10q-145 0 -230 92.5t-85 267.5q0 174 85.5 266.5t228.5 92.5q101 0 168 -45.5t89 -130.5h-60q-45 122 -197 122q-117 0 -185 -78t-68 -227t68.5 -227.5t185.5 -78.5q107 0 166 64.5t59 190.5h-189v52h248v-42q0 -155 -74 -237t-210 -82zM215 890h57l84 -103l84 103
h57l-102 -126h-78z" />
    <glyph glyph-name="gcaron" unicode="&#x1e7;" horiz-adv-x="578" 
d="M274 -209q-92 0 -156 39.5t-65 117.5h51q2 -50 49.5 -79.5t121.5 -29.5q83 0 134 40.5t51 125.5v105h-2q-28 -49 -80 -74.5t-112 -25.5q-98 0 -165 66.5t-67 193.5t67 193.5t165 66.5q60 0 112 -25.5t80 -74.5h2v90h59v-515q0 -60 -21.5 -103.5t-58.5 -66.5t-77.5 -33.5
t-87.5 -10.5zM91 270q0 -102 53 -155.5t131 -53.5t133 54t55 155t-55 155.5t-133 54.5t-131 -54t-53 -156zM143 710h57l84 -103l84 103h57l-102 -126h-78z" />
    <glyph glyph-name="uni01E8" unicode="&#x1e8;" horiz-adv-x="614" 
d="M59 0v700h61v-409l371 409h74l-296 -326l321 -374h-73l-287 331l-110 -121v-210h-61zM172 890h57l84 -103l84 103h57l-102 -126h-78z" />
    <glyph glyph-name="uni01E9" unicode="&#x1e9;" horiz-adv-x="526" 
d="M59 0v700h59v-482l295 302h69l-225 -227l255 -293h-70l-222 255l-102 -104v-151h-59zM-54 890h57l84 -103l84 103h57l-102 -126h-78z" />
    <glyph glyph-name="uni01EA" unicode="&#x1ea;" horiz-adv-x="713" 
d="M440 -183q-54 -11 -96.5 15.5t-42.5 79.5q0 48 36 79q-131 7 -212 100t-81 259q0 172 87.5 265.5t225.5 93.5q137 0 224.5 -93.5t87.5 -265.5q0 -152 -69.5 -243.5t-182.5 -111.5q-69 -18 -69 -78q0 -34 25.5 -51t66.5 -11v-38zM106 350q0 -149 69.5 -227.5t181.5 -78.5
q111 0 180.5 78.5t69.5 227.5q0 148 -69.5 226.5t-180.5 78.5q-112 0 -181.5 -78.5t-69.5 -226.5z" />
    <glyph glyph-name="uni01EB" unicode="&#x1eb;" horiz-adv-x="562" 
d="M356 -183q-54 -11 -96.5 15.5t-42.5 79.5q0 49 37 79q-95 10 -157.5 78.5t-62.5 190.5q0 131 71.5 200.5t175.5 69.5t175 -69.5t71 -200.5q0 -113 -55 -181t-141 -84q-67 -20 -67 -78q0 -34 25.5 -51t66.5 -11v-38zM91 260q0 -107 55.5 -163.5t134.5 -56.5t134 56.5
t55 163.5t-55 163.5t-134 56.5t-134.5 -56.5t-55.5 -163.5z" />
    <glyph glyph-name="uni0218" unicode="&#x218;" horiz-adv-x="600" 
d="M305 -10q-126 0 -193.5 57.5t-67.5 147.5h61q4 -68 54 -110t147 -42q92 0 139.5 39.5t47.5 106.5q0 62 -39 93.5t-112 46.5l-91 18q-186 38 -186 181q0 82 60 131.5t174 49.5q112 0 173.5 -49t61.5 -129h-59q-4 56 -47.5 90.5t-128.5 34.5q-86 0 -128.5 -35.5
t-42.5 -92.5q0 -103 142 -131l90 -18q95 -19 145.5 -62.5t50.5 -126.5q0 -93 -66 -146.5t-185 -53.5zM255 -64q0 19 12.5 31.5t33.5 12.5q23 0 38 -19t15 -57q0 -49 -24 -76t-61 -27h-7v32q28 1 39.5 15t11.5 40q-26 -1 -42 12.5t-16 35.5z" />
    <glyph glyph-name="uni0219" unicode="&#x219;" horiz-adv-x="473" 
d="M240 -10q-90 0 -148 37.5t-63 112.5h54q8 -54 52.5 -78t105.5 -24q63 0 102.5 25.5t39.5 77.5q0 42 -24.5 60.5t-78.5 31.5l-99 24q-135 33 -135 136q0 66 51 101.5t139 35.5q87 0 139 -36t57 -110h-50q-17 98 -145 98q-133 0 -133 -90q0 -34 22.5 -55t74.5 -34l97 -23
q73 -17 109.5 -47.5t36.5 -90.5q0 -80 -59 -116t-145 -36zM195 -75q0 19 12.5 31.5t33.5 12.5q23 0 38 -19t15 -57q0 -49 -24 -76t-61 -27h-7v32q28 1 39.5 15t11.5 40q-26 -1 -42 12.5t-16 35.5z" />
    <glyph glyph-name="uni021A" unicode="&#x21a;" horiz-adv-x="573" 
d="M256 0v644h-227v56h515v-56h-227v-644h-61zM235 -64q0 19 12.5 31.5t33.5 12.5q23 0 38 -19t15 -57q0 -49 -24 -76t-61 -27h-7v32q28 1 39.5 15t11.5 40q-26 -1 -42 12.5t-16 35.5z" />
    <glyph glyph-name="uni021B" unicode="&#x21b;" horiz-adv-x="308" 
d="M227 -7q-120 0 -120 118v359h-83v50h83v129h59v-129h104v-50h-104v-346q0 -45 18 -63t61 -18q21 0 33 2v-47q-25 -5 -51 -5zM151 -64q0 19 12.5 31.5t33.5 12.5q23 0 38 -19t15 -57q0 -49 -24 -76t-61 -27h-7v32q28 1 39.5 15t11.5 40q-26 -1 -42 12.5t-16 35.5z" />
    <glyph glyph-name="uni0237" unicode="&#x237;" horiz-adv-x="185" 
d="M15 -186q-20 0 -47 3v47h28q46 0 64.5 18t18.5 63v575h59v-588q0 -118 -123 -118z" />
    <glyph glyph-name="uni0259" unicode="&#x259;" horiz-adv-x="533" 
d="M261 -10q-103 0 -165 65.5t-62 186.5q0 23 3 35h404q-6 205 -185 205q-125 0 -160 -101h-55q47 149 215 149q112 0 177.5 -68.5t65.5 -199.5q0 -134 -66.5 -203t-171.5 -69zM91 233q1 -95 46.5 -145t124.5 -50q77 0 126 49.5t53 145.5h-350z" />
    <glyph glyph-name="circumflex" unicode="&#x2c6;" horiz-adv-x="282" 
d="M0 585l102 126h78l102 -126h-57l-84 103l-84 -103h-57z" />
    <glyph glyph-name="caron" unicode="&#x2c7;" horiz-adv-x="291" 
d="M0 710h57l84 -103l84 103h57l-102 -126h-78z" />
    <glyph glyph-name="breve" unicode="&#x2d8;" horiz-adv-x="276" 
d="M138 590q-69 0 -101 34.5t-32 86.5h43q4 -81 90 -81t90 81h43q0 -52 -32 -86.5t-101 -34.5z" />
    <glyph glyph-name="dotaccent" unicode="&#x2d9;" horiz-adv-x="82" 
d="M41 636q-17 0 -29 12t-12 29t12 29t29 12t29 -12t12 -29t-12 -29t-29 -12z" />
    <glyph glyph-name="ring" unicode="&#x2da;" horiz-adv-x="166" 
d="M83 574q-35 0 -59 24t-24 57q0 34 24 57.5t59 23.5t59 -23.5t24 -57.5q0 -33 -24 -57t-59 -24zM34 655q0 -20 14.5 -34t34.5 -14t34.5 14t14.5 34q0 21 -14.5 35t-34.5 14t-34.5 -14t-14.5 -35z" />
    <glyph glyph-name="ogonek" unicode="&#x2db;" horiz-adv-x="163" 
d="M139 -183q-54 -11 -96.5 15.5t-42.5 79.5q0 50 37.5 80t86.5 30l39 -22q-56 0 -86 -23t-30 -60q0 -34 25.5 -51t66.5 -11v-38z" />
    <glyph glyph-name="tilde" unicode="&#x2dc;" horiz-adv-x="315" 
d="M229 609q-24 0 -44 11t-32 24.5t-28.5 24.5t-34.5 11q-23 0 -34 -15t-10 -34h-41q0 45 22.5 67.5t58.5 22.5q24 0 44 -11t31.5 -24.5t28.5 -24.5t34 -11q24 0 35 15t10 34h41q0 -45 -22.5 -67.5t-58.5 -22.5z" />
    <glyph glyph-name="hungarumlaut" unicode="&#x2dd;" horiz-adv-x="284" 
d="M129 582l100 129h55l-100 -129h-55zM0 582l100 129h55l-100 -129h-55z" />
    <glyph glyph-name="gravecomb" unicode="&#x300;" horiz-adv-x="0" 
d="M100 582l-100 129h55l100 -129h-55z" />
    <glyph glyph-name="acutecomb" unicode="&#x301;" horiz-adv-x="0" 
d="M0 582l100 129h55l-100 -129h-55z" />
    <glyph glyph-name="uni0302" unicode="&#x302;" horiz-adv-x="0" 
d="M0 585l102 126h78l102 -126h-57l-84 103l-84 -103h-57z" />
    <glyph glyph-name="tildecomb" unicode="&#x303;" horiz-adv-x="0" 
d="M229 609q-24 0 -44 11t-32 24.5t-28.5 24.5t-34.5 11q-23 0 -34 -15t-10 -34h-41q0 45 22.5 67.5t58.5 22.5q24 0 44 -11t31.5 -24.5t28.5 -24.5t34 -11q24 0 35 15t10 34h41q0 -45 -22.5 -67.5t-58.5 -22.5z" />
    <glyph glyph-name="uni0304" unicode="&#x304;" horiz-adv-x="0" 
d="M0 671v40h285v-40h-285z" />
    <glyph glyph-name="uni0306" unicode="&#x306;" horiz-adv-x="0" 
d="M138 590q-69 0 -101 34.5t-32 86.5h43q4 -81 90 -81t90 81h43q0 -52 -32 -86.5t-101 -34.5z" />
    <glyph glyph-name="uni0307" unicode="&#x307;" horiz-adv-x="0" 
d="M41 636q-17 0 -29 12t-12 29t12 29t29 12t29 -12t12 -29t-12 -29t-29 -12z" />
    <glyph glyph-name="uni0308" unicode="&#x308;" horiz-adv-x="0" 
d="M214 636q-16 0 -28.5 12t-12.5 29t12.5 29t28.5 12t28.5 -12t12.5 -29t-12.5 -29t-28.5 -12zM0 677q0 17 12 29t29 12t29 -12t12 -29t-12 -29t-29 -12t-29 12t-12 29z" />
    <glyph glyph-name="hookabovecomb" unicode="&#x309;" horiz-adv-x="0" 
d="M126 596q31 1 49 17t18 45q0 27 -15 42.5t-40 15.5q-23 0 -38 -13t-16 -36h-35q0 40 26.5 62.5t62.5 22.5q38 0 66 -24.5t28 -67.5q0 -41 -25 -65.5t-60 -28.5z" />
    <glyph glyph-name="uni030A" unicode="&#x30a;" horiz-adv-x="0" 
d="M83 574q-35 0 -59 24t-24 57q0 34 24 57.5t59 23.5t59 -23.5t24 -57.5q0 -33 -24 -57t-59 -24zM34 655q0 -20 14.5 -34t34.5 -14t34.5 14t14.5 34q0 21 -14.5 35t-34.5 14t-34.5 -14t-14.5 -35z" />
    <glyph glyph-name="uni030B" unicode="&#x30b;" horiz-adv-x="0" 
d="M129 582l100 129h55l-100 -129h-55zM0 582l100 129h55l-100 -129h-55z" />
    <glyph glyph-name="uni030C" unicode="&#x30c;" horiz-adv-x="0" 
d="M0 710h57l84 -103l84 103h57l-102 -126h-78z" />
    <glyph glyph-name="uni0312" unicode="&#x312;" horiz-adv-x="0" 
d="M132 670q-28 -1 -39.5 -15t-11.5 -40q26 1 42 -12.5t16 -35.5q0 -19 -13 -31.5t-34 -12.5q-52 0 -52 76q0 49 24 76t61 27h7v-32z" />
    <glyph glyph-name="uni031B" unicode="&#x31b;" horiz-adv-x="0" 
d="M0 470v50h104v88h52v-138h-156z" />
    <glyph glyph-name="dotbelowcomb" unicode="&#x323;" horiz-adv-x="0" 
d="M96 -230q-19 0 -32.5 13.5t-13.5 32.5t13.5 32.5t32.5 13.5q20 0 33.5 -13.5t13.5 -32.5t-14 -32.5t-33 -13.5z" />
    <glyph glyph-name="uni0326" unicode="&#x326;" horiz-adv-x="0" 
d="M1 -167q28 1 39.5 15t11.5 40q-26 -1 -42 12.5t-16 35.5q0 19 12.5 31.5t33.5 12.5q23 0 38 -19t15 -57q0 -49 -24 -76t-61 -27h-7v32z" />
    <glyph glyph-name="uni0327" unicode="&#x327;" horiz-adv-x="0" 
d="M18 -175q81 0 81 51q0 26 -22.5 37.5t-53.5 -1.5l-23 26l50 62h50l-42 -48q4 1 13 1q30 0 52.5 -20t22.5 -55q0 -45 -36 -68t-92 -23v38z" />
    <glyph glyph-name="uni0328" unicode="&#x328;" horiz-adv-x="0" 
d="M139 -183q-54 -11 -96.5 15.5t-42.5 79.5q0 50 37.5 80t86.5 30l39 -22q-56 0 -86 -23t-30 -60q0 -34 25.5 -51t66.5 -11v-38z" />
    <glyph glyph-name="uni0394" unicode="&#x394;" horiz-adv-x="682" 
d="M24 0l316 713h1l316 -713h-633zM104 50h473l-236 544z" />
    <glyph glyph-name="uni03A9" unicode="&#x3a9;" horiz-adv-x="783" 
d="M69 0v50h166v9q-89 50 -140 128.5t-51 178.5q0 146 102 243.5t246 97.5q143 0 245 -97.5t102 -243.5q0 -100 -51 -178.5t-140 -128.5v-9h166v-50h-206v95q171 95 171 271q0 127 -85 206t-202 79q-118 0 -203 -79t-85 -206q0 -176 171 -271v-95h-206z" />
    <glyph glyph-name="uni03BC" unicode="&#x3bc;" 
d="M59 -190v710h59v-308q0 -171 147 -171q78 0 122.5 46t44.5 125v308h59v-520h-59v97q-5 -15 -16 -30.5t-30.5 -34t-52.5 -30.5t-74 -12q-99 0 -141 74v-254h-59z" />
    <glyph glyph-name="pi" unicode="&#x3c0;" horiz-adv-x="651" 
d="M536 -6q-99 0 -99 95v379h-229v-468h-59v468h-100v52h546v-52h-99v-366q0 -56 53 -56q31 0 57 15v-48q-26 -19 -70 -19z" />
    <glyph glyph-name="uni0401" unicode="&#x401;" horiz-adv-x="538" 
d="M59 0v700h435v-55h-374v-258h344v-52h-344v-280h384v-55h-445zM146 857q0 17 12 29t29 12t29 -12t12 -29t-12 -29t-29 -12t-29 12t-12 29zM319 857q0 17 12.5 29t28.5 12t28.5 -12t12.5 -29t-12.5 -29t-28.5 -12t-28.5 12t-12.5 29z" />
    <glyph glyph-name="uni0403" unicode="&#x403;" horiz-adv-x="491" 
d="M59 0v700h402v-55h-340v-645h-62zM241 762l100 129h55l-100 -129h-55z" />
    <glyph glyph-name="uni0404" unicode="&#x404;" horiz-adv-x="654" 
d="M356 -10q-141 0 -226.5 92.5t-85.5 267.5q0 174 85.5 266.5t226.5 92.5q106 0 177.5 -52t90.5 -149h-61q-19 70 -73 108.5t-134 38.5q-107 0 -174 -69t-76 -199h268v-51h-269q4 -142 72 -217t179 -75q80 0 134 38.5t73 109.5h61q-19 -98 -90.5 -150t-177.5 -52z" />
    <glyph glyph-name="uni0407" unicode="&#x407;" horiz-adv-x="180" 
d="M59 0v700h61v-700h-61zM-38 857q0 17 12 29t29 12t29 -12t12 -29t-12 -29t-29 -12t-29 12t-12 29zM135 857q0 17 12.5 29t28.5 12t28.5 -12t12.5 -29t-12.5 -29t-28.5 -12t-28.5 12t-12.5 29z" />
    <glyph glyph-name="uni040C" unicode="&#x40c;" horiz-adv-x="614" 
d="M59 0v700h61v-409l371 409h74l-296 -326l321 -374h-73l-287 331l-110 -121v-210h-61zM281 762l100 129h55l-100 -129h-55z" />
    <glyph glyph-name="uni040E" unicode="&#x40e;" horiz-adv-x="552" 
d="M95 51q50 -7 81.5 14.5t51.5 71.5q18 46 5 76l-204 487h66l181 -443l181 443h65l-237 -571q-33 -79 -79 -111t-111 -24v57zM143 891h43q4 -81 90 -81t90 81h43q0 -52 -32 -86.5t-101 -34.5t-101 34.5t-32 86.5z" />
    <glyph glyph-name="uni0410" unicode="&#x410;" horiz-adv-x="665" 
d="M24 0l272 700h73l272 -700h-65l-72 189h-343l-72 -189h-65zM180 237h305l-150 394h-5z" />
    <glyph glyph-name="uni0411" unicode="&#x411;" horiz-adv-x="580" 
d="M59 0v700h402v-55h-340v-206h185q116 0 178 -57.5t62 -161.5q0 -105 -62 -162.5t-178 -57.5h-247zM121 56h183q86 0 132 42t46 122q0 79 -46 121t-132 42h-183v-327z" />
    <glyph glyph-name="uni0412" unicode="&#x412;" horiz-adv-x="595" 
d="M59 0v700h257q101 0 151 -45.5t50 -120.5q0 -117 -107 -151q71 -16 110.5 -62.5t39.5 -120.5q0 -92 -61.5 -146t-182.5 -54h-257zM120 54h192q91 0 137.5 39.5t46.5 109.5q0 69 -47 108.5t-137 39.5h-192v-297zM120 405h189q145 0 145 123q0 119 -145 119h-189v-242z" />
    <glyph glyph-name="uni0413" unicode="&#x413;" horiz-adv-x="491" 
d="M59 0v700h402v-55h-340v-645h-62z" />
    <glyph glyph-name="uni0414" unicode="&#x414;" horiz-adv-x="661" 
d="M24 -69v122h30q48 46 63.5 157t15.5 344v146h456v-647h38v-122h-59v69h-485v-69h-59zM121 53h407v592h-333v-91q0 -235 -14 -345t-60 -156z" />
    <glyph glyph-name="uni0415" unicode="&#x415;" horiz-adv-x="538" 
d="M59 0v700h435v-55h-374v-258h344v-52h-344v-280h384v-55h-445z" />
    <glyph glyph-name="uni0416" unicode="&#x416;" horiz-adv-x="868" 
d="M771 0l-306 331v-331h-62v332l-306 -332h-73l329 358l-310 342h72l288 -316v316h62v-315l288 315h72l-310 -342l328 -358h-72z" />
    <glyph glyph-name="uni0417" unicode="&#x417;" horiz-adv-x="568" 
d="M279 -10q-113 0 -176 63t-64 166h57q1 -81 50 -129t136 -48q82 0 135 43t53 117q0 72 -53 112t-146 40h-27v48h23q86 0 124.5 37t38.5 92q0 58 -40 92t-110 34q-74 0 -117.5 -40.5t-43.5 -127.5h-57q0 109 59 164.5t160 55.5q98 0 152.5 -48t54.5 -124q0 -55 -30.5 -96
t-88.5 -59q68 -12 114 -59.5t46 -124.5q0 -92 -69.5 -150t-180.5 -58z" />
    <glyph glyph-name="uni0418" unicode="&#x418;" horiz-adv-x="652" 
d="M592 0h-61v609h-3l-396 -609h-73v700h61v-610h2l398 610h72v-700z" />
    <glyph glyph-name="uni0419" unicode="&#x419;" horiz-adv-x="652" 
d="M592 0h-61v609h-3l-396 -609h-73v700h61v-610h2l398 610h72v-700zM192 891h43q4 -81 90 -81t90 81h43q0 -52 -32 -86.5t-101 -34.5t-101 34.5t-32 86.5z" />
    <glyph glyph-name="uni041A" unicode="&#x41a;" horiz-adv-x="614" 
d="M59 0v700h61v-409l371 409h74l-296 -326l321 -374h-73l-287 331l-110 -121v-210h-61z" />
    <glyph glyph-name="uni041B" unicode="&#x41b;" horiz-adv-x="673" 
d="M15 48q135 -2 135 174v478h464v-700h-61v645h-342v-425q0 -124 -53.5 -178t-142.5 -49v55z" />
    <glyph glyph-name="uni041C" unicode="&#x41c;" horiz-adv-x="823" 
d="M59 0v700h71l281 -624l281 624h71v-700h-61v581h-2l-262 -581h-54l-261 581h-3v-581h-61z" />
    <glyph glyph-name="uni041D" unicode="&#x41d;" horiz-adv-x="640" 
d="M520 0v315h-400v-315h-61v700h61v-333h400v333h61v-700h-61z" />
    <glyph glyph-name="uni041E" unicode="&#x41e;" horiz-adv-x="713" 
d="M357 -10q-138 0 -225.5 94t-87.5 266t87.5 265.5t225.5 93.5q137 0 224.5 -93.5t87.5 -265.5t-87.5 -266t-224.5 -94zM106 350q0 -149 69.5 -227.5t181.5 -78.5q111 0 180.5 78.5t69.5 227.5q0 148 -69.5 226.5t-180.5 78.5q-112 0 -181.5 -78.5t-69.5 -226.5z" />
    <glyph glyph-name="uni041F" unicode="&#x41f;" horiz-adv-x="640" 
d="M59 0v700h522v-700h-62v645h-398v-645h-62z" />
    <glyph glyph-name="uni0420" unicode="&#x420;" horiz-adv-x="580" 
d="M59 0v700h247q117 0 178.5 -55t61.5 -155q0 -99 -61.5 -154t-178.5 -55h-186v-281h-61zM120 336h184q88 0 134 39.5t46 114.5q0 155 -180 155h-184v-309z" />
    <glyph glyph-name="uni0421" unicode="&#x421;" horiz-adv-x="654" 
d="M356 -10q-141 0 -226.5 92.5t-85.5 267.5q0 174 85.5 266.5t226.5 92.5q106 0 177.5 -52t90.5 -149h-61q-19 70 -73 108.5t-134 38.5q-114 0 -182.5 -78.5t-68.5 -226.5t68.5 -227t182.5 -79q80 0 134 38.5t73 109.5h61q-19 -98 -90.5 -150t-177.5 -52z" />
    <glyph glyph-name="uni0422" unicode="&#x422;" horiz-adv-x="573" 
d="M256 0v644h-227v56h515v-56h-227v-644h-61z" />
    <glyph glyph-name="uni0423" unicode="&#x423;" horiz-adv-x="552" 
d="M95 51q50 -7 81.5 14.5t51.5 71.5q18 46 5 76l-204 487h66l181 -443l181 443h65l-237 -571q-33 -79 -79 -111t-111 -24v57z" />
    <glyph glyph-name="uni0424" unicode="&#x424;" horiz-adv-x="707" 
d="M323 -15v73q-128 9 -203.5 84t-75.5 208q0 134 75.5 208.5t203.5 83.5v73h61v-73q128 -8 203.5 -83t75.5 -209t-75.5 -209t-203.5 -83v-73h-61zM103 350q0 -111 59.5 -173t160.5 -71v488q-101 -9 -160.5 -71t-59.5 -173zM384 106q101 9 160.5 71t59.5 173t-59.5 173
t-160.5 71v-488z" />
    <glyph glyph-name="uni0425" unicode="&#x425;" horiz-adv-x="635" 
d="M541 0l-224 313l-224 -313h-69l259 362l-242 338h69l207 -290l207 290h70l-242 -338l258 -362h-69z" />
    <glyph glyph-name="uni0426" unicode="&#x426;" horiz-adv-x="642" 
d="M59 0v700h62v-645h398v645h62v-645h37v-196h-59v141h-500z" />
    <glyph glyph-name="uni0427" unicode="&#x427;" horiz-adv-x="615" 
d="M250 166q-88 0 -147 52t-59 163v319h62v-316q0 -162 167 -162q87 0 148.5 49.5t72.5 98.5v330h61v-700h-61v305q-10 -40 -78.5 -89.5t-165.5 -49.5z" />
    <glyph glyph-name="uni0428" unicode="&#x428;" horiz-adv-x="773" 
d="M59 0v700h62v-645h235v645h61v-645h235v645h62v-700h-655z" />
    <glyph glyph-name="uni0429" unicode="&#x429;" horiz-adv-x="778" 
d="M59 0v700h62v-645h235v645h61v-645h235v645h62v-645h40v-196h-60v141h-635z" />
    <glyph glyph-name="uni042A" unicode="&#x42a;" horiz-adv-x="626" 
d="M24 645v55h143v-261h181q118 0 181 -57.5t63 -161.5q0 -105 -63 -162.5t-181 -57.5h-243v645h-81zM167 56h183q86 0 132 42t46 122q0 79 -46 121t-132 42h-183v-327z" />
    <glyph glyph-name="uni042B" unicode="&#x42b;" horiz-adv-x="743" 
d="M59 0v700h62v-261h181q118 0 181 -57.5t63 -161.5q0 -105 -63 -162.5t-181 -57.5h-243zM121 56h183q86 0 132 42t46 122q0 79 -46 121t-132 42h-183v-327zM622 0v700h61v-700h-61z" />
    <glyph glyph-name="uni042C" unicode="&#x42c;" horiz-adv-x="580" 
d="M59 0v700h62v-261h181q118 0 181 -57.5t63 -161.5q0 -105 -63 -162.5t-181 -57.5h-243zM121 56h183q86 0 132 42t46 122q0 79 -46 121t-132 42h-183v-327z" />
    <glyph glyph-name="uni042D" unicode="&#x42d;" horiz-adv-x="658" 
d="M284 336v51h268q-9 130 -76 199t-174 69q-80 0 -134 -38.5t-73 -108.5h-61q19 97 90.5 149t177.5 52q141 0 226.5 -92.5t85.5 -266.5q0 -175 -85.5 -267.5t-226.5 -92.5q-106 0 -177.5 52t-90.5 150h61q19 -71 73 -109.5t134 -38.5q111 0 179 75t72 217h-269z" />
    <glyph glyph-name="uni042E" unicode="&#x42e;" horiz-adv-x="904" 
d="M59 0v700h61v-333h115q5 164 92 253t221 89q137 0 224.5 -93.5t87.5 -265.5t-87.5 -266t-224.5 -94q-130 0 -216.5 84.5t-95.5 240.5h-116v-315h-61zM297 350q0 -149 69.5 -227.5t181.5 -78.5q111 0 180.5 78.5t69.5 227.5q0 148 -69.5 226.5t-180.5 78.5
q-112 0 -181.5 -78.5t-69.5 -226.5z" />
    <glyph glyph-name="uni042F" unicode="&#x42f;" horiz-adv-x="585" 
d="M526 0h-61v281h-201l-167 -281h-63l171 288q-81 16 -123.5 68.5t-42.5 133.5q0 100 61.5 155t178.5 55h247v-700zM101 490q0 -75 46 -114.5t134 -39.5h184v309h-184q-180 0 -180 -155z" />
    <glyph glyph-name="uni0430" unicode="&#x430;" horiz-adv-x="520" 
d="M202 -10q-78 0 -123 35.5t-45 102.5q0 62 42 97.5t132 47.5l114 16q85 12 85 35v32q0 68 -35.5 98t-107.5 30q-141 0 -141 -107v-11h-57v15q0 149 201 149q101 0 150 -41.5t49 -133.5v-290q0 -15 7 -22.5t22 -6.5v-38q-8 -4 -25 -4q-61 0 -61 56v44h-2q-16 -34 -68.5 -69
t-136.5 -35zM93 131q0 -92 119 -92q89 0 142 49t53 89v100q-1 -21 -78 -32l-109 -15q-71 -11 -99 -35.5t-28 -63.5z" />
    <glyph glyph-name="uni0431" unicode="&#x431;" 
d="M280 -9q-45 0 -86 17t-75.5 50.5t-54.5 91.5t-20 132v194q1 111 56.5 167.5t160.5 56.5h81q54 0 76 22h59q-20 -41 -50.5 -56t-91.5 -15h-74q-75 0 -117.5 -40t-42.5 -112v-89q25 58 77 87t110 29q93 0 160.5 -69.5t67.5 -197.5q0 -129 -70.5 -198.5t-165.5 -69.5z
M101 260q0 -105 52.5 -161.5t126.5 -56.5q75 0 127.5 55.5t52.5 161.5t-52.5 161.5t-127.5 55.5q-74 0 -126.5 -55.5t-52.5 -160.5z" />
    <glyph glyph-name="uni0432" unicode="&#x432;" horiz-adv-x="540" 
d="M59 0v520h245q79 0 121.5 -33.5t42.5 -92.5q0 -78 -76 -107q114 -31 114 -139q0 -71 -51.5 -109.5t-155.5 -38.5h-240zM118 52h176q85 0 119.5 26.5t34.5 74.5q0 108 -153 108h-177v-209zM118 303h177q117 0 117 83q0 82 -119 82h-175v-165z" />
    <glyph glyph-name="uni0433" unicode="&#x433;" horiz-adv-x="404" 
d="M59 0v520h321v-49h-262v-471h-59z" />
    <glyph glyph-name="uni0434" unicode="&#x434;" horiz-adv-x="568" 
d="M78 0v-68h-54v117h31q31 38 38.5 113.5t7.5 253.5v104h411v-471h32v-117h-54v68h-412zM114 49h339v422h-293v-55q0 -123 -1.5 -177t-12 -108.5t-32.5 -81.5z" />
    <glyph glyph-name="uni0435" unicode="&#x435;" horiz-adv-x="533" 
d="M277 -10q-113 0 -178 68.5t-65 199.5q0 135 66.5 203.5t171.5 68.5q103 0 165 -65.5t62 -187.5q0 -23 -3 -36h-405q3 -101 51 -152t136 -51q124 0 159 101h55q-47 -149 -215 -149zM91 288h351q-1 94 -46.5 144t-124.5 50q-77 0 -126.5 -49.5t-53.5 -144.5z" />
    <glyph glyph-name="uni0436" unicode="&#x436;" horiz-adv-x="703" 
d="M616 0l-235 235v-235h-59v235l-235 -235h-73l266 264l-256 256h73l225 -227v227h59v-227l225 227h73l-256 -256l266 -264h-73z" />
    <glyph glyph-name="uni0437" unicode="&#x437;" horiz-adv-x="495" 
d="M247 -9q-101 0 -157 49t-56 131h55q0 -59 42.5 -96t116.5 -37q67 0 108 30.5t41 79.5q0 54 -47.5 81.5t-125.5 27.5v37q73 1 111.5 26.5t38.5 67.5q0 41 -35 67t-92 26q-63 0 -99.5 -31t-36.5 -78h-55q0 68 50.5 111.5t140.5 43.5q84 0 133 -37.5t49 -96.5
q0 -43 -27.5 -72.5t-79.5 -41.5q57 -8 95 -43t38 -92q0 -70 -58 -111.5t-150 -41.5z" />
    <glyph glyph-name="uni0438" unicode="&#x438;" horiz-adv-x="570" 
d="M59 0v520h59v-445h2l323 445h68v-520h-59v445h-2l-321 -445h-70z" />
    <glyph glyph-name="uni0439" unicode="&#x439;" horiz-adv-x="570" 
d="M59 0v520h59v-445h2l323 445h68v-520h-59v445h-2l-321 -445h-70zM152 711h43q4 -81 90 -81t90 81h43q0 -52 -32 -86.5t-101 -34.5t-101 34.5t-32 86.5z" />
    <glyph glyph-name="uni043A" unicode="&#x43a;" horiz-adv-x="525" 
d="M59 0v520h59v-301l288 301h71l-221 -228l255 -292h-70l-223 253l-100 -103v-150h-59z" />
    <glyph glyph-name="uni043B" unicode="&#x43b;" horiz-adv-x="586" 
d="M15 44q62 -1 95 36.5t33 136.5v303h384v-520h-59v471h-266v-256q0 -124 -49 -174.5t-138 -45.5v49z" />
    <glyph glyph-name="uni043C" unicode="&#x43c;" horiz-adv-x="686" 
d="M59 0v520h64l220 -454l220 454h64v-520h-59v408h-3l-196 -408h-52l-196 408h-3v-408h-59z" />
    <glyph glyph-name="uni043D" unicode="&#x43d;" horiz-adv-x="516" 
d="M59 0v520h59v-226h280v226h59v-520h-59v246h-280v-246h-59z" />
    <glyph glyph-name="uni043E" unicode="&#x43e;" horiz-adv-x="562" 
d="M281 -10q-104 0 -175.5 69.5t-71.5 200.5t71.5 200.5t175.5 69.5t175 -69.5t71 -200.5t-71 -200.5t-175 -69.5zM91 260q0 -107 55.5 -163.5t134.5 -56.5t134 56.5t55 163.5t-55 163.5t-134 56.5t-134.5 -56.5t-55.5 -163.5z" />
    <glyph glyph-name="uni043F" unicode="&#x43f;" horiz-adv-x="525" 
d="M59 0v520h406v-520h-59v471h-288v-471h-59z" />
    <glyph glyph-name="uni0440" unicode="&#x440;" horiz-adv-x="582" 
d="M59 -190v710h59v-92q30 50 82 76t112 26q100 0 168 -69t68 -201t-68 -201t-168 -69q-60 0 -112 26t-82 76v-282h-59zM115 260q0 -106 55.5 -163t133.5 -57q79 0 133.5 57t54.5 163t-54.5 163t-133.5 57q-78 0 -133.5 -57t-55.5 -163z" />
    <glyph glyph-name="uni0441" unicode="&#x441;" horiz-adv-x="528" 
d="M282 -10q-107 0 -177.5 69.5t-70.5 199.5t70.5 200.5t177.5 70.5q80 0 141.5 -42.5t74.5 -136.5h-54q-12 66 -57.5 97t-105.5 31q-84 0 -137 -57t-53 -163t53 -162t137 -56q61 0 106 31.5t57 99.5h54q-13 -96 -74 -139t-142 -43z" />
    <glyph glyph-name="uni0442" unicode="&#x442;" horiz-adv-x="458" 
d="M199 0v471h-169v49h398v-49h-170v-471h-59z" />
    <glyph glyph-name="uni0443" unicode="&#x443;" horiz-adv-x="521" 
d="M78 -138q101 -14 140 90q15 39 5 66l-199 502h61l176 -455l175 455h61l-228 -575q-32 -80 -78.5 -112t-112.5 -23v52z" />
    <glyph glyph-name="uni0444" unicode="&#x444;" horiz-adv-x="580" 
d="M263 -190v182q-99 9 -164 77t-65 190q0 121 65 189.5t164 77.5v174h54v-174q99 -9 163.5 -77.5t64.5 -189.5q0 -122 -64.5 -190t-163.5 -77v-182h-54zM85 259q0 -102 49 -157t129 -63v440q-80 -9 -129 -64t-49 -156zM317 39q79 9 128 64t49 156t-49 156t-128 64v-440z
" />
    <glyph glyph-name="uni0445" unicode="&#x445;" horiz-adv-x="508" 
d="M34 0l187 263l-183 257h67l149 -212l148 212h68l-184 -257l187 -263h-67l-152 219l-152 -219h-68z" />
    <glyph glyph-name="uni0446" unicode="&#x446;" horiz-adv-x="560" 
d="M59 0v520h59v-471h288v471h59v-471h35v-189h-56v140h-385z" />
    <glyph glyph-name="uni0447" unicode="&#x447;" horiz-adv-x="528" 
d="M213 137q-80 0 -129.5 47t-49.5 148v188h59v-181q0 -151 137 -151q81 0 130.5 48.5t49.5 102.5v181h59v-520h-59v253q-11 -36 -63 -76t-134 -40z" />
    <glyph glyph-name="uni0448" unicode="&#x448;" horiz-adv-x="745" 
d="M59 0v520h59v-471h226v471h57v-471h226v471h59v-520h-627z" />
    <glyph glyph-name="uni0449" unicode="&#x449;" horiz-adv-x="781" 
d="M665 -140v140h-606v520h59v-471h226v471h57v-471h226v471h59v-471h35v-189h-56z" />
    <glyph glyph-name="uni044A" unicode="&#x44a;" horiz-adv-x="571" 
d="M24 471v49h149v-194h168q96 0 146 -42.5t50 -120.5t-50 -120.5t-146 -42.5h-227v471h-90zM173 49h163q145 0 145 114t-145 114h-163v-228z" />
    <glyph glyph-name="uni044B" unicode="&#x44b;" horiz-adv-x="653" 
d="M59 0v520h59v-194h168q96 0 146 -42.5t50 -120.5t-50 -120.5t-146 -42.5h-227zM118 49h163q145 0 145 114t-145 114h-163v-228zM536 0v520h59v-520h-59z" />
    <glyph glyph-name="uni044C" unicode="&#x44c;" horiz-adv-x="516" 
d="M59 0v520h59v-194h168q96 0 146 -42.5t50 -120.5t-50 -120.5t-146 -42.5h-227zM118 49h163q145 0 145 114t-145 114h-163v-228z" />
    <glyph glyph-name="uni044D" unicode="&#x44d;" horiz-adv-x="532" 
d="M249 248v41h191q-8 92 -60 141t-129 49q-60 0 -105.5 -31t-57.5 -97h-54q13 94 74.5 136.5t141.5 42.5q107 0 177.5 -70.5t70.5 -200.5t-70.5 -199.5t-177.5 -69.5q-81 0 -142 43t-74 139h54q12 -68 57 -99.5t106 -31.5q82 0 134.5 53t55.5 154h-192z" />
    <glyph glyph-name="uni044E" unicode="&#x44e;" horiz-adv-x="709" 
d="M48 0v520h59v-237h76q6 120 76 183.5t170 63.5q104 0 175 -69.5t71 -200.5t-71 -200.5t-175 -69.5q-99 0 -169 63t-77 182h-76v-235h-59zM239 260q0 -107 55.5 -163.5t134.5 -56.5t134 56.5t55 163.5t-55 163.5t-134 56.5t-134.5 -56.5t-55.5 -163.5z" />
    <glyph glyph-name="uni044F" unicode="&#x44f;" horiz-adv-x="521" 
d="M176 198q-137 26 -137 159q0 78 50 120.5t146 42.5h227v-520h-59v194h-169l-131 -194h-63zM95 357q0 -114 145 -114h163v228h-163q-145 0 -145 -114z" />
    <glyph glyph-name="uni0451" unicode="&#x451;" horiz-adv-x="533" 
d="M277 -10q-113 0 -178 68.5t-65 199.5q0 135 66.5 203.5t171.5 68.5q103 0 165 -65.5t62 -187.5q0 -23 -3 -36h-405q3 -101 51 -152t136 -51q124 0 159 101h55q-47 -149 -215 -149zM91 288h351q-1 94 -46.5 144t-124.5 50q-77 0 -126.5 -49.5t-53.5 -144.5zM142 677
q0 17 12 29t29 12t29 -12t12 -29t-12 -29t-29 -12t-29 12t-12 29zM315 677q0 17 12.5 29t28.5 12t28.5 -12t12.5 -29t-12.5 -29t-28.5 -12t-28.5 12t-12.5 29z" />
    <glyph glyph-name="uni0453" unicode="&#x453;" horiz-adv-x="404" 
d="M59 0v520h321v-49h-262v-471h-59zM176 582l100 129h55l-100 -129h-55z" />
    <glyph glyph-name="uni0454" unicode="&#x454;" horiz-adv-x="528" 
d="M282 -10q-107 0 -177.5 69.5t-70.5 199.5t70.5 200.5t177.5 70.5q80 0 141.5 -42.5t74.5 -136.5h-54q-12 66 -57.5 97t-105.5 31q-77 0 -129 -49t-60 -141h191v-41h-192q3 -101 55.5 -154t134.5 -53q61 0 106 31.5t57 99.5h54q-13 -96 -74 -139t-142 -43z" />
    <glyph glyph-name="uni0457" unicode="&#x457;" horiz-adv-x="154" 
d="M48 0v520h59v-520h-59zM-50 677q0 17 12 29t29 12t29 -12t12 -29t-12 -29t-29 -12t-29 12t-12 29zM123 677q0 17 12.5 29t28.5 12t28.5 -12t12.5 -29t-12.5 -29t-28.5 -12t-28.5 12t-12.5 29z" />
    <glyph glyph-name="uni045C" unicode="&#x45c;" horiz-adv-x="525" 
d="M59 0v520h59v-301l288 301h71l-221 -228l255 -292h-70l-223 253l-100 -103v-150h-59zM234 582l100 129h55l-100 -129h-55z" />
    <glyph glyph-name="uni045E" unicode="&#x45e;" horiz-adv-x="521" 
d="M78 -138q101 -14 140 90q15 39 5 66l-199 502h61l176 -455l175 455h61l-228 -575q-32 -80 -78.5 -112t-112.5 -23v52zM128 711h43q4 -81 90 -81t90 81h43q0 -52 -32 -86.5t-101 -34.5t-101 34.5t-32 86.5z" />
    <glyph glyph-name="uni0490" unicode="&#x490;" horiz-adv-x="491" 
d="M59 0v700h341v100h61v-155h-340v-645h-62z" />
    <glyph glyph-name="uni0491" unicode="&#x491;" horiz-adv-x="404" 
d="M59 0v520h268v66h53v-115h-262v-471h-59z" />
    <glyph glyph-name="uni1E0C" unicode="&#x1e0c;" horiz-adv-x="649" 
d="M59 0v700h215q164 0 247.5 -90.5t83.5 -259.5t-83.5 -259.5t-247.5 -90.5h-215zM120 55h148q141 0 208 73t67 222t-67 222t-208 73h-148v-590zM278 -184q0 19 13.5 32.5t32.5 13.5q20 0 33.5 -13.5t13.5 -32.5t-14 -32.5t-33 -13.5t-32.5 13.5t-13.5 32.5z" />
    <glyph glyph-name="uni1E0D" unicode="&#x1e0d;" horiz-adv-x="582" 
d="M270 -10q-100 0 -168 69t-68 201t68 201t168 69q60 0 112 -26t82 -76v272h59v-700h-59v92q-30 -50 -82 -76t-112 -26zM90 260q0 -106 54.5 -163t133.5 -57q78 0 133.5 57t55.5 163t-55.5 163t-133.5 57q-79 0 -133.5 -57t-54.5 -163zM245 -184q0 19 13.5 32.5t32.5 13.5
q20 0 33.5 -13.5t13.5 -32.5t-14 -32.5t-33 -13.5t-32.5 13.5t-13.5 32.5z" />
    <glyph glyph-name="uni1E20" unicode="&#x1e20;" horiz-adv-x="692" 
d="M359 -10q-145 0 -230 92.5t-85 267.5q0 174 85.5 266.5t228.5 92.5q101 0 168 -45.5t89 -130.5h-60q-45 122 -197 122q-117 0 -185 -78t-68 -227t68.5 -227.5t185.5 -78.5q107 0 166 64.5t59 190.5h-189v52h248v-42q0 -155 -74 -237t-210 -82zM215 851v40h285v-40h-285z
" />
    <glyph glyph-name="uni1E21" unicode="&#x1e21;" horiz-adv-x="578" 
d="M274 -209q-92 0 -156 39.5t-65 117.5h51q2 -50 49.5 -79.5t121.5 -29.5q83 0 134 40.5t51 125.5v105h-2q-28 -49 -80 -74.5t-112 -25.5q-98 0 -165 66.5t-67 193.5t67 193.5t165 66.5q60 0 112 -25.5t80 -74.5h2v90h59v-515q0 -60 -21.5 -103.5t-58.5 -66.5t-77.5 -33.5
t-87.5 -10.5zM91 270q0 -102 53 -155.5t131 -53.5t133 54t55 155t-55 155.5t-133 54.5t-131 -54t-53 -156zM143 671v40h285v-40h-285z" />
    <glyph glyph-name="uni1E24" unicode="&#x1e24;" horiz-adv-x="640" 
d="M520 0v315h-400v-315h-61v700h61v-333h400v333h61v-700h-61zM274 -184q0 19 13.5 32.5t32.5 13.5q20 0 33.5 -13.5t13.5 -32.5t-14 -32.5t-33 -13.5t-32.5 13.5t-13.5 32.5z" />
    <glyph glyph-name="uni1E25" unicode="&#x1e25;" 
d="M432 308q0 171 -147 171q-78 0 -122.5 -46t-44.5 -125v-308h-59v700h59v-280h1q10 36 56 73t127 37q84 0 136.5 -50t52.5 -162v-318h-59v308zM234 -184q0 19 13.5 32.5t32.5 13.5q20 0 33.5 -13.5t13.5 -32.5t-14 -32.5t-33 -13.5t-32.5 13.5t-13.5 32.5z" />
    <glyph glyph-name="uni1E62" unicode="&#x1e62;" horiz-adv-x="600" 
d="M305 -10q-126 0 -193.5 57.5t-67.5 147.5h61q4 -68 54 -110t147 -42q92 0 139.5 39.5t47.5 106.5q0 62 -39 93.5t-112 46.5l-91 18q-186 38 -186 181q0 82 60 131.5t174 49.5q112 0 173.5 -49t61.5 -129h-59q-4 56 -47.5 90.5t-128.5 34.5q-86 0 -128.5 -35.5
t-42.5 -92.5q0 -103 142 -131l90 -18q95 -19 145.5 -62.5t50.5 -126.5q0 -93 -66 -146.5t-185 -53.5zM253 -184q0 19 13.5 32.5t32.5 13.5q20 0 33.5 -13.5t13.5 -32.5t-14 -32.5t-33 -13.5t-32.5 13.5t-13.5 32.5z" />
    <glyph glyph-name="uni1E63" unicode="&#x1e63;" horiz-adv-x="473" 
d="M240 -10q-90 0 -148 37.5t-63 112.5h54q8 -54 52.5 -78t105.5 -24q63 0 102.5 25.5t39.5 77.5q0 42 -24.5 60.5t-78.5 31.5l-99 24q-135 33 -135 136q0 66 51 101.5t139 35.5q87 0 139 -36t57 -110h-50q-17 98 -145 98q-133 0 -133 -90q0 -34 22.5 -55t74.5 -34l97 -23
q73 -17 109.5 -47.5t36.5 -90.5q0 -80 -59 -116t-145 -36zM195 -184q0 19 13.5 32.5t32.5 13.5q20 0 33.5 -13.5t13.5 -32.5t-14 -32.5t-33 -13.5t-32.5 13.5t-13.5 32.5z" />
    <glyph glyph-name="uni1E6C" unicode="&#x1e6c;" horiz-adv-x="573" 
d="M256 0v644h-227v56h515v-56h-227v-644h-61zM234 -184q0 19 13.5 32.5t32.5 13.5q20 0 33.5 -13.5t13.5 -32.5t-14 -32.5t-33 -13.5t-32.5 13.5t-13.5 32.5z" />
    <glyph glyph-name="uni1E6D" unicode="&#x1e6d;" horiz-adv-x="308" 
d="M227 -7q-120 0 -120 118v359h-83v50h83v129h59v-129h104v-50h-104v-346q0 -45 18 -63t61 -18q21 0 33 2v-47q-25 -5 -51 -5zM150 -184q0 19 13.5 32.5t32.5 13.5q20 0 33.5 -13.5t13.5 -32.5t-14 -32.5t-33 -13.5t-32.5 13.5t-13.5 32.5z" />
    <glyph glyph-name="Wgrave" unicode="&#x1e80;" horiz-adv-x="956" 
d="M219 0l-190 700h63l162 -615h3l187 615h68l187 -615h3l162 615h63l-189 -700h-68l-192 622l-192 -622h-67zM362 891h55l100 -129h-55z" />
    <glyph glyph-name="wgrave" unicode="&#x1e81;" horiz-adv-x="785" 
d="M176 0l-152 520h59l127 -457h4l152 457h53l151 -457h4l128 457h58l-151 -520h-68l-149 442l-149 -442h-67zM277 711h55l100 -129h-55z" />
    <glyph glyph-name="Wacute" unicode="&#x1e82;" horiz-adv-x="956" 
d="M219 0l-190 700h63l162 -615h3l187 615h68l187 -615h3l162 615h63l-189 -700h-68l-192 622l-192 -622h-67zM449 762l100 129h55l-100 -129h-55z" />
    <glyph glyph-name="wacute" unicode="&#x1e83;" horiz-adv-x="785" 
d="M176 0l-152 520h59l127 -457h4l152 457h53l151 -457h4l128 457h58l-151 -520h-68l-149 442l-149 -442h-67zM364 582l100 129h55l-100 -129h-55z" />
    <glyph glyph-name="Wdieresis" unicode="&#x1e84;" horiz-adv-x="956" 
d="M219 0l-190 700h63l162 -615h3l187 615h68l187 -615h3l162 615h63l-189 -700h-68l-192 622l-192 -622h-67zM350 857q0 17 12 29t29 12t29 -12t12 -29t-12 -29t-29 -12t-29 12t-12 29zM523 857q0 17 12.5 29t28.5 12t28.5 -12t12.5 -29t-12.5 -29t-28.5 -12t-28.5 12
t-12.5 29z" />
    <glyph glyph-name="wdieresis" unicode="&#x1e85;" horiz-adv-x="785" 
d="M176 0l-152 520h59l127 -457h4l152 457h53l151 -457h4l128 457h58l-151 -520h-68l-149 442l-149 -442h-67zM265 677q0 17 12.5 29t28.5 12t28.5 -12t12.5 -29t-12.5 -29t-28.5 -12t-28.5 12t-12.5 29zM438 677q0 17 12 29t29 12t29 -12t12 -29t-12 -29t-29 -12t-29 12
t-12 29z" />
    <glyph glyph-name="uni1E92" unicode="&#x1e92;" horiz-adv-x="607" 
d="M40 0v55l453 590h-433v55h503v-55l-454 -590h458v-55h-527zM261 -184q0 19 13.5 32.5t32.5 13.5q20 0 33.5 -13.5t13.5 -32.5t-14 -32.5t-33 -13.5t-32.5 13.5t-13.5 32.5z" />
    <glyph glyph-name="uni1E93" unicode="&#x1e93;" horiz-adv-x="494" 
d="M40 0v51l344 418h-334v51h404v-51l-344 -418h344v-51h-414zM201 -184q0 19 13.5 32.5t32.5 13.5q20 0 33.5 -13.5t13.5 -32.5t-14 -32.5t-33 -13.5t-32.5 13.5t-13.5 32.5z" />
    <glyph glyph-name="uni1E9E" unicode="&#x1e9e;" horiz-adv-x="653" 
d="M396 -10q-93 0 -147 52t-54 144h58q0 -59 37.5 -100t106.5 -41q72 0 110.5 44.5t38.5 110.5q0 80 -56.5 128.5t-151.5 48.5h-45l175 277h-250q-56 0 -76.5 -24t-20.5 -78v-552h-62v554q0 86 37.5 120.5t120.5 34.5h347l-184 -283q103 -6 166 -65.5t63 -160.5
q0 -97 -57.5 -153.5t-155.5 -56.5z" />
    <glyph glyph-name="uni1EA0" unicode="&#x1ea0;" horiz-adv-x="665" 
d="M24 0l272 700h73l272 -700h-65l-72 189h-343l-72 -189h-65zM180 237h305l-150 394h-5zM286 -184q0 19 13.5 32.5t32.5 13.5q20 0 33.5 -13.5t13.5 -32.5t-14 -32.5t-33 -13.5t-32.5 13.5t-13.5 32.5z" />
    <glyph glyph-name="uni1EA1" unicode="&#x1ea1;" horiz-adv-x="529" 
d="M203 -10q-78 0 -123.5 35.5t-45.5 103.5q0 127 163 146l137 16q77 8 77 36v29q0 68 -35 97.5t-109 29.5q-145 0 -145 -106v-12h-57v16q0 149 204 149q103 0 152 -41.5t49 -133.5v-355h-57v95h-3q-17 -35 -70.5 -70t-136.5 -35zM93 133q0 -94 122 -94q90 0 143 47.5
t53 92.5v93q-5 -21 -81 -30l-119 -13q-64 -8 -91 -32t-27 -64zM219 -184q0 19 13.5 32.5t32.5 13.5q20 0 33.5 -13.5t13.5 -32.5t-14 -32.5t-33 -13.5t-32.5 13.5t-13.5 32.5z" />
    <glyph glyph-name="uni1EA2" unicode="&#x1ea2;" horiz-adv-x="665" 
d="M24 0l272 700h73l272 -700h-65l-72 189h-343l-72 -189h-65zM180 237h305l-150 394h-5zM249 847q0 40 26.5 62.5t62.5 22.5q38 0 66 -24.5t28 -67.5q0 -41 -25 -65.5t-60 -28.5l-21 30q31 1 49 17t18 45q0 27 -15 42.5t-40 15.5q-23 0 -38 -13t-16 -36h-35z" />
    <glyph glyph-name="uni1EA3" unicode="&#x1ea3;" horiz-adv-x="529" 
d="M203 -10q-78 0 -123.5 35.5t-45.5 103.5q0 127 163 146l137 16q77 8 77 36v29q0 68 -35 97.5t-109 29.5q-145 0 -145 -106v-12h-57v16q0 149 204 149q103 0 152 -41.5t49 -133.5v-355h-57v95h-3q-17 -35 -70.5 -70t-136.5 -35zM93 133q0 -94 122 -94q90 0 143 47.5
t53 92.5v93q-5 -21 -81 -30l-119 -13q-64 -8 -91 -32t-27 -64zM189 667q0 40 26.5 62.5t62.5 22.5q38 0 66 -24.5t28 -67.5q0 -41 -25 -65.5t-60 -28.5l-21 30q31 1 49 17t18 45q0 27 -15 42.5t-40 15.5q-23 0 -38 -13t-16 -36h-35z" />
    <glyph glyph-name="uni1EA4" unicode="&#x1ea4;" horiz-adv-x="665" 
d="M24 0l272 700h73l272 -700h-65l-72 189h-343l-72 -189h-65zM180 237h305l-150 394h-5zM190 765l102 126h78l102 -126h-57l-84 103l-84 -103h-57zM424 860l100 129h55l-100 -129h-55z" />
    <glyph glyph-name="uni1EA5" unicode="&#x1ea5;" horiz-adv-x="529" 
d="M203 -10q-78 0 -123.5 35.5t-45.5 103.5q0 127 163 146l137 16q77 8 77 36v29q0 68 -35 97.5t-109 29.5q-145 0 -145 -106v-12h-57v16q0 149 204 149q103 0 152 -41.5t49 -133.5v-355h-57v95h-3q-17 -35 -70.5 -70t-136.5 -35zM93 133q0 -94 122 -94q90 0 143 47.5
t53 92.5v93q-5 -21 -81 -30l-119 -13q-64 -8 -91 -32t-27 -64zM129 585l102 126h78l102 -126h-57l-84 103l-84 -103h-57zM363 680l100 129h55l-100 -129h-55z" />
    <glyph glyph-name="uni1EA6" unicode="&#x1ea6;" horiz-adv-x="665" 
d="M24 0l272 700h73l272 -700h-65l-72 189h-343l-72 -189h-65zM180 237h305l-150 394h-5zM190 765l102 126h78l102 -126h-57l-84 103l-84 -103h-57zM357 988h55l97 -129h-56z" />
    <glyph glyph-name="uni1EA7" unicode="&#x1ea7;" horiz-adv-x="529" 
d="M203 -10q-78 0 -123.5 35.5t-45.5 103.5q0 127 163 146l137 16q77 8 77 36v29q0 68 -35 97.5t-109 29.5q-145 0 -145 -106v-12h-57v16q0 149 204 149q103 0 152 -41.5t49 -133.5v-355h-57v95h-3q-17 -35 -70.5 -70t-136.5 -35zM93 133q0 -94 122 -94q90 0 143 47.5
t53 92.5v93q-5 -21 -81 -30l-119 -13q-64 -8 -91 -32t-27 -64zM129 585l102 126h78l102 -126h-57l-84 103l-84 -103h-57zM296 808h55l97 -129h-56z" />
    <glyph glyph-name="uni1EA8" unicode="&#x1ea8;" horiz-adv-x="665" 
d="M24 0l272 700h73l272 -700h-65l-72 189h-343l-72 -189h-65zM180 237h305l-150 394h-5zM190 765l102 126h78l102 -126h-57l-84 103l-84 -103h-57zM345 980q0 40 26.5 62.5t62.5 22.5q38 0 66 -24.5t28 -67.5q0 -41 -25 -65.5t-60 -28.5l-21 30q31 1 49 17t18 45
q0 27 -15 42.5t-40 15.5q-23 0 -38 -13t-16 -36h-35z" />
    <glyph glyph-name="uni1EA9" unicode="&#x1ea9;" horiz-adv-x="529" 
d="M203 -10q-78 0 -123.5 35.5t-45.5 103.5q0 127 163 146l137 16q77 8 77 36v29q0 68 -35 97.5t-109 29.5q-145 0 -145 -106v-12h-57v16q0 149 204 149q103 0 152 -41.5t49 -133.5v-355h-57v95h-3q-17 -35 -70.5 -70t-136.5 -35zM93 133q0 -94 122 -94q90 0 143 47.5
t53 92.5v93q-5 -21 -81 -30l-119 -13q-64 -8 -91 -32t-27 -64zM129 585l102 126h78l102 -126h-57l-84 103l-84 -103h-57zM284 800q0 40 26.5 62.5t62.5 22.5q38 0 66 -24.5t28 -67.5q0 -41 -25 -65.5t-60 -28.5l-21 30q31 1 49 17t18 45q0 27 -15 42.5t-40 15.5
q-23 0 -38 -13t-16 -36h-35z" />
    <glyph glyph-name="uni1EAA" unicode="&#x1eaa;" horiz-adv-x="665" 
d="M24 0l272 700h73l272 -700h-65l-72 189h-343l-72 -189h-65zM180 237h305l-150 394h-5zM180 967q0 45 22.5 67.5t58.5 22.5q24 0 44 -11t31.5 -24.5t28.5 -24.5t34 -11q24 0 35 15t10 34h41q0 -45 -22.5 -67.5t-58.5 -22.5q-24 0 -44 11t-32 24.5t-28.5 24.5t-34.5 11
q-23 0 -34 -15t-10 -34h-41zM190 765l102 126h78l102 -126h-57l-84 103l-84 -103h-57z" />
    <glyph glyph-name="uni1EAB" unicode="&#x1eab;" horiz-adv-x="529" 
d="M203 -10q-78 0 -123.5 35.5t-45.5 103.5q0 127 163 146l137 16q77 8 77 36v29q0 68 -35 97.5t-109 29.5q-145 0 -145 -106v-12h-57v16q0 149 204 149q103 0 152 -41.5t49 -133.5v-355h-57v95h-3q-17 -35 -70.5 -70t-136.5 -35zM93 133q0 -94 122 -94q90 0 143 47.5
t53 92.5v93q-5 -21 -81 -30l-119 -13q-64 -8 -91 -32t-27 -64zM119 787q0 45 22.5 67.5t58.5 22.5q24 0 44 -11t31.5 -24.5t28.5 -24.5t34 -11q24 0 35 15t10 34h41q0 -45 -22.5 -67.5t-58.5 -22.5q-24 0 -44 11t-32 24.5t-28.5 24.5t-34.5 11q-23 0 -34 -15t-10 -34h-41z
M129 585l102 126h78l102 -126h-57l-84 103l-84 -103h-57z" />
    <glyph glyph-name="uni1EAC" unicode="&#x1eac;" horiz-adv-x="665" 
d="M24 0l272 700h73l272 -700h-65l-72 189h-343l-72 -189h-65zM180 237h305l-150 394h-5zM190 765l102 126h78l102 -126h-57l-84 103l-84 -103h-57zM286 -184q0 19 13.5 32.5t32.5 13.5q20 0 33.5 -13.5t13.5 -32.5t-14 -32.5t-33 -13.5t-32.5 13.5t-13.5 32.5z" />
    <glyph glyph-name="uni1EAD" unicode="&#x1ead;" horiz-adv-x="529" 
d="M203 -10q-78 0 -123.5 35.5t-45.5 103.5q0 127 163 146l137 16q77 8 77 36v29q0 68 -35 97.5t-109 29.5q-145 0 -145 -106v-12h-57v16q0 149 204 149q103 0 152 -41.5t49 -133.5v-355h-57v95h-3q-17 -35 -70.5 -70t-136.5 -35zM93 133q0 -94 122 -94q90 0 143 47.5
t53 92.5v93q-5 -21 -81 -30l-119 -13q-64 -8 -91 -32t-27 -64zM129 585l102 126h78l102 -126h-57l-84 103l-84 -103h-57zM219 -184q0 19 13.5 32.5t32.5 13.5q20 0 33.5 -13.5t13.5 -32.5t-14 -32.5t-33 -13.5t-32.5 13.5t-13.5 32.5z" />
    <glyph glyph-name="uni1EAE" unicode="&#x1eae;" horiz-adv-x="665" 
d="M24 0l272 700h73l272 -700h-65l-72 189h-343l-72 -189h-65zM180 237h305l-150 394h-5zM200 891h43q4 -81 90 -81t90 81h43q0 -52 -32 -86.5t-101 -34.5t-101 34.5t-32 86.5zM301 923l100 129h55l-100 -129h-55z" />
    <glyph glyph-name="uni1EAF" unicode="&#x1eaf;" horiz-adv-x="529" 
d="M203 -10q-78 0 -123.5 35.5t-45.5 103.5q0 127 163 146l137 16q77 8 77 36v29q0 68 -35 97.5t-109 29.5q-145 0 -145 -106v-12h-57v16q0 149 204 149q103 0 152 -41.5t49 -133.5v-355h-57v95h-3q-17 -35 -70.5 -70t-136.5 -35zM93 133q0 -94 122 -94q90 0 143 47.5
t53 92.5v93q-5 -21 -81 -30l-119 -13q-64 -8 -91 -32t-27 -64zM139 711h43q4 -81 90 -81t90 81h43q0 -52 -32 -86.5t-101 -34.5t-101 34.5t-32 86.5zM241 743l100 129h55l-100 -129h-55z" />
    <glyph glyph-name="uni1EB0" unicode="&#x1eb0;" horiz-adv-x="665" 
d="M24 0l272 700h73l272 -700h-65l-72 189h-343l-72 -189h-65zM180 237h305l-150 394h-5zM200 891h43q4 -81 90 -81t90 81h43q0 -52 -32 -86.5t-101 -34.5t-101 34.5t-32 86.5zM207 1052h55l100 -129h-55z" />
    <glyph glyph-name="uni1EB1" unicode="&#x1eb1;" horiz-adv-x="529" 
d="M203 -10q-78 0 -123.5 35.5t-45.5 103.5q0 127 163 146l137 16q77 8 77 36v29q0 68 -35 97.5t-109 29.5q-145 0 -145 -106v-12h-57v16q0 149 204 149q103 0 152 -41.5t49 -133.5v-355h-57v95h-3q-17 -35 -70.5 -70t-136.5 -35zM93 133q0 -94 122 -94q90 0 143 47.5
t53 92.5v93q-5 -21 -81 -30l-119 -13q-64 -8 -91 -32t-27 -64zM139 711h43q4 -81 90 -81t90 81h43q0 -52 -32 -86.5t-101 -34.5t-101 34.5t-32 86.5zM146 872h55l100 -129h-55z" />
    <glyph glyph-name="uni1EB2" unicode="&#x1eb2;" horiz-adv-x="665" 
d="M24 0l272 700h73l272 -700h-65l-72 189h-343l-72 -189h-65zM180 237h305l-150 394h-5zM200 891h43q4 -81 90 -81t90 81h43q0 -52 -32 -86.5t-101 -34.5t-101 34.5t-32 86.5zM224 981q0 40 26.5 62.5t62.5 22.5q38 0 66 -24.5t28 -67.5q0 -41 -25 -65.5t-60 -28.5l-21 30
q31 1 49 17t18 45q0 27 -15 42.5t-40 15.5q-23 0 -38 -13t-16 -36h-35z" />
    <glyph glyph-name="uni1EB3" unicode="&#x1eb3;" horiz-adv-x="529" 
d="M203 -10q-78 0 -123.5 35.5t-45.5 103.5q0 127 163 146l137 16q77 8 77 36v29q0 68 -35 97.5t-109 29.5q-145 0 -145 -106v-12h-57v16q0 149 204 149q103 0 152 -41.5t49 -133.5v-355h-57v95h-3q-17 -35 -70.5 -70t-136.5 -35zM93 133q0 -94 122 -94q90 0 143 47.5
t53 92.5v93q-5 -21 -81 -30l-119 -13q-64 -8 -91 -32t-27 -64zM139 711h43q4 -81 90 -81t90 81h43q0 -52 -32 -86.5t-101 -34.5t-101 34.5t-32 86.5zM163 801q0 40 26.5 62.5t62.5 22.5q38 0 66 -24.5t28 -67.5q0 -41 -25 -65.5t-60 -28.5l-21 30q31 1 49 17t18 45
q0 27 -15 42.5t-40 15.5q-23 0 -38 -13t-16 -36h-35z" />
    <glyph glyph-name="uni1EB4" unicode="&#x1eb4;" horiz-adv-x="665" 
d="M24 0l272 700h73l272 -700h-65l-72 189h-343l-72 -189h-65zM180 237h305l-150 394h-5zM180 972q0 45 22.5 67.5t58.5 22.5q30 0 53.5 -18t43 -35.5t41.5 -17.5q24 0 35 15t10 34h41q0 -45 -22.5 -67.5t-58.5 -22.5q-30 0 -53.5 18t-43.5 35.5t-42 17.5q-23 0 -34 -15
t-10 -34h-41zM200 891h43q4 -81 90 -81t90 81h43q0 -52 -32 -86.5t-101 -34.5t-101 34.5t-32 86.5z" />
    <glyph glyph-name="uni1EB5" unicode="&#x1eb5;" horiz-adv-x="529" 
d="M203 -10q-78 0 -123.5 35.5t-45.5 103.5q0 127 163 146l137 16q77 8 77 36v29q0 68 -35 97.5t-109 29.5q-145 0 -145 -106v-12h-57v16q0 149 204 149q103 0 152 -41.5t49 -133.5v-355h-57v95h-3q-17 -35 -70.5 -70t-136.5 -35zM93 133q0 -94 122 -94q90 0 143 47.5
t53 92.5v93q-5 -21 -81 -30l-119 -13q-64 -8 -91 -32t-27 -64zM120 792q0 45 22.5 67.5t58.5 22.5q30 0 53.5 -18t43 -35.5t41.5 -17.5q24 0 35 15t10 34h41q0 -45 -22.5 -67.5t-58.5 -22.5q-30 0 -53.5 18t-43.5 35.5t-42 17.5q-23 0 -34 -15t-10 -34h-41zM139 711h43
q4 -81 90 -81t90 81h43q0 -52 -32 -86.5t-101 -34.5t-101 34.5t-32 86.5z" />
    <glyph glyph-name="uni1EB6" unicode="&#x1eb6;" horiz-adv-x="665" 
d="M24 0l272 700h73l272 -700h-65l-72 189h-343l-72 -189h-65zM180 237h305l-150 394h-5zM200 891h43q4 -81 90 -81t90 81h43q0 -52 -32 -86.5t-101 -34.5t-101 34.5t-32 86.5zM286 -184q0 19 13.5 32.5t32.5 13.5q20 0 33.5 -13.5t13.5 -32.5t-14 -32.5t-33 -13.5
t-32.5 13.5t-13.5 32.5z" />
    <glyph glyph-name="uni1EB7" unicode="&#x1eb7;" horiz-adv-x="529" 
d="M203 -10q-78 0 -123.5 35.5t-45.5 103.5q0 127 163 146l137 16q77 8 77 36v29q0 68 -35 97.5t-109 29.5q-145 0 -145 -106v-12h-57v16q0 149 204 149q103 0 152 -41.5t49 -133.5v-355h-57v95h-3q-17 -35 -70.5 -70t-136.5 -35zM93 133q0 -94 122 -94q90 0 143 47.5
t53 92.5v93q-5 -21 -81 -30l-119 -13q-64 -8 -91 -32t-27 -64zM139 711h43q4 -81 90 -81t90 81h43q0 -52 -32 -86.5t-101 -34.5t-101 34.5t-32 86.5zM219 -184q0 19 13.5 32.5t32.5 13.5q20 0 33.5 -13.5t13.5 -32.5t-14 -32.5t-33 -13.5t-32.5 13.5t-13.5 32.5z" />
    <glyph glyph-name="uni1EB8" unicode="&#x1eb8;" horiz-adv-x="538" 
d="M59 0v700h435v-55h-374v-258h344v-52h-344v-280h384v-55h-445zM228 -184q0 19 13.5 32.5t32.5 13.5q20 0 33.5 -13.5t13.5 -32.5t-14 -32.5t-33 -13.5t-32.5 13.5t-13.5 32.5z" />
    <glyph glyph-name="uni1EB9" unicode="&#x1eb9;" horiz-adv-x="533" 
d="M277 -10q-113 0 -178 68.5t-65 199.5q0 135 66.5 203.5t171.5 68.5q103 0 165 -65.5t62 -187.5q0 -23 -3 -36h-405q3 -101 51 -152t136 -51q124 0 159 101h55q-47 -149 -215 -149zM91 288h351q-1 94 -46.5 144t-124.5 50q-77 0 -126.5 -49.5t-53.5 -144.5zM219 -184
q0 19 13.5 32.5t32.5 13.5q20 0 33.5 -13.5t13.5 -32.5t-14 -32.5t-33 -13.5t-32.5 13.5t-13.5 32.5z" />
    <glyph glyph-name="uni1EBA" unicode="&#x1eba;" horiz-adv-x="538" 
d="M59 0v700h435v-55h-374v-258h344v-52h-344v-280h384v-55h-445zM191 847q0 40 26.5 62.5t62.5 22.5q38 0 66 -24.5t28 -67.5q0 -41 -25 -65.5t-60 -28.5l-21 30q31 1 49 17t18 45q0 27 -15 42.5t-40 15.5q-23 0 -38 -13t-16 -36h-35z" />
    <glyph glyph-name="uni1EBB" unicode="&#x1ebb;" horiz-adv-x="533" 
d="M277 -10q-113 0 -178 68.5t-65 199.5q0 135 66.5 203.5t171.5 68.5q103 0 165 -65.5t62 -187.5q0 -23 -3 -36h-405q3 -101 51 -152t136 -51q124 0 159 101h55q-47 -149 -215 -149zM91 288h351q-1 94 -46.5 144t-124.5 50q-77 0 -126.5 -49.5t-53.5 -144.5zM186 667
q0 40 26.5 62.5t62.5 22.5q38 0 66 -24.5t28 -67.5q0 -41 -25 -65.5t-60 -28.5l-21 30q31 1 49 17t18 45q0 27 -15 42.5t-40 15.5q-23 0 -38 -13t-16 -36h-35z" />
    <glyph glyph-name="uni1EBC" unicode="&#x1ebc;" horiz-adv-x="538" 
d="M59 0v700h435v-55h-374v-258h344v-52h-344v-280h384v-55h-445zM122 811q0 45 22.5 67.5t58.5 22.5q24 0 44 -11t31.5 -24.5t28.5 -24.5t34 -11q24 0 35 15t10 34h41q0 -45 -22.5 -67.5t-58.5 -22.5q-24 0 -44 11t-32 24.5t-28.5 24.5t-34.5 11q-23 0 -34 -15t-10 -34h-41
z" />
    <glyph glyph-name="uni1EBD" unicode="&#x1ebd;" horiz-adv-x="533" 
d="M277 -10q-113 0 -178 68.5t-65 199.5q0 135 66.5 203.5t171.5 68.5q103 0 165 -65.5t62 -187.5q0 -23 -3 -36h-405q3 -101 51 -152t136 -51q124 0 159 101h55q-47 -149 -215 -149zM91 288h351q-1 94 -46.5 144t-124.5 50q-77 0 -126.5 -49.5t-53.5 -144.5zM117 631
q0 45 22.5 67.5t58.5 22.5q24 0 44 -11t31.5 -24.5t28.5 -24.5t34 -11q24 0 35 15t10 34h41q0 -45 -22.5 -67.5t-58.5 -22.5q-24 0 -44 11t-32 24.5t-28.5 24.5t-34.5 11q-23 0 -34 -15t-10 -34h-41z" />
    <glyph glyph-name="uni1EBE" unicode="&#x1ebe;" horiz-adv-x="538" 
d="M59 0v700h435v-55h-374v-258h344v-52h-344v-280h384v-55h-445zM131 765l102 126h78l102 -126h-57l-84 103l-84 -103h-57zM366 860l100 129h55l-100 -129h-55z" />
    <glyph glyph-name="uni1EBF" unicode="&#x1ebf;" horiz-adv-x="533" 
d="M277 -10q-113 0 -178 68.5t-65 199.5q0 135 66.5 203.5t171.5 68.5q103 0 165 -65.5t62 -187.5q0 -23 -3 -36h-405q3 -101 51 -152t136 -51q124 0 159 101h55q-47 -149 -215 -149zM91 288h351q-1 94 -46.5 144t-124.5 50q-77 0 -126.5 -49.5t-53.5 -144.5zM127 585
l102 126h78l102 -126h-57l-84 103l-84 -103h-57zM361 680l100 129h55l-100 -129h-55z" />
    <glyph glyph-name="uni1EC0" unicode="&#x1ec0;" horiz-adv-x="538" 
d="M59 0v700h435v-55h-374v-258h344v-52h-344v-280h384v-55h-445zM131 765l102 126h78l102 -126h-57l-84 103l-84 -103h-57zM298 988h55l97 -129h-56z" />
    <glyph glyph-name="uni1EC1" unicode="&#x1ec1;" horiz-adv-x="533" 
d="M277 -10q-113 0 -178 68.5t-65 199.5q0 135 66.5 203.5t171.5 68.5q103 0 165 -65.5t62 -187.5q0 -23 -3 -36h-405q3 -101 51 -152t136 -51q124 0 159 101h55q-47 -149 -215 -149zM91 288h351q-1 94 -46.5 144t-124.5 50q-77 0 -126.5 -49.5t-53.5 -144.5zM127 585
l102 126h78l102 -126h-57l-84 103l-84 -103h-57zM294 808h55l97 -129h-56z" />
    <glyph glyph-name="uni1EC2" unicode="&#x1ec2;" horiz-adv-x="538" 
d="M59 0v700h435v-55h-374v-258h344v-52h-344v-280h384v-55h-445zM131 765l102 126h78l102 -126h-57l-84 103l-84 -103h-57zM286 980q0 40 26.5 62.5t62.5 22.5q38 0 66 -24.5t28 -67.5q0 -41 -25 -65.5t-60 -28.5l-21 30q31 1 49 17t18 45q0 27 -15 42.5t-40 15.5
q-23 0 -38 -13t-16 -36h-35z" />
    <glyph glyph-name="uni1EC3" unicode="&#x1ec3;" horiz-adv-x="533" 
d="M277 -10q-113 0 -178 68.5t-65 199.5q0 135 66.5 203.5t171.5 68.5q103 0 165 -65.5t62 -187.5q0 -23 -3 -36h-405q3 -101 51 -152t136 -51q124 0 159 101h55q-47 -149 -215 -149zM91 288h351q-1 94 -46.5 144t-124.5 50q-77 0 -126.5 -49.5t-53.5 -144.5zM127 585
l102 126h78l102 -126h-57l-84 103l-84 -103h-57zM282 800q0 40 26.5 62.5t62.5 22.5q38 0 66 -24.5t28 -67.5q0 -41 -25 -65.5t-60 -28.5l-21 30q31 1 49 17t18 45q0 27 -15 42.5t-40 15.5q-23 0 -38 -13t-16 -36h-35z" />
    <glyph glyph-name="uni1EC4" unicode="&#x1ec4;" horiz-adv-x="538" 
d="M59 0v700h435v-55h-374v-258h344v-52h-344v-280h384v-55h-445zM122 967q0 45 22.5 67.5t58.5 22.5q24 0 44 -11t31.5 -24.5t28.5 -24.5t34 -11q24 0 35 15t10 34h41q0 -45 -22.5 -67.5t-58.5 -22.5q-24 0 -44 11t-32 24.5t-28.5 24.5t-34.5 11q-23 0 -34 -15t-10 -34h-41
zM131 765l102 126h78l102 -126h-57l-84 103l-84 -103h-57z" />
    <glyph glyph-name="uni1EC5" unicode="&#x1ec5;" horiz-adv-x="533" 
d="M277 -10q-113 0 -178 68.5t-65 199.5q0 135 66.5 203.5t171.5 68.5q103 0 165 -65.5t62 -187.5q0 -23 -3 -36h-405q3 -101 51 -152t136 -51q124 0 159 101h55q-47 -149 -215 -149zM91 288h351q-1 94 -46.5 144t-124.5 50q-77 0 -126.5 -49.5t-53.5 -144.5zM117 787
q0 45 22.5 67.5t58.5 22.5q24 0 44 -11t31.5 -24.5t28.5 -24.5t34 -11q24 0 35 15t10 34h41q0 -45 -22.5 -67.5t-58.5 -22.5q-24 0 -44 11t-32 24.5t-28.5 24.5t-34.5 11q-23 0 -34 -15t-10 -34h-41zM127 585l102 126h78l102 -126h-57l-84 103l-84 -103h-57z" />
    <glyph glyph-name="uni1EC6" unicode="&#x1ec6;" horiz-adv-x="538" 
d="M59 0v700h435v-55h-374v-258h344v-52h-344v-280h384v-55h-445zM131 765l102 126h78l102 -126h-57l-84 103l-84 -103h-57zM228 -184q0 19 13.5 32.5t32.5 13.5q20 0 33.5 -13.5t13.5 -32.5t-14 -32.5t-33 -13.5t-32.5 13.5t-13.5 32.5z" />
    <glyph glyph-name="uni1EC7" unicode="&#x1ec7;" horiz-adv-x="533" 
d="M277 -10q-113 0 -178 68.5t-65 199.5q0 135 66.5 203.5t171.5 68.5q103 0 165 -65.5t62 -187.5q0 -23 -3 -36h-405q3 -101 51 -152t136 -51q124 0 159 101h55q-47 -149 -215 -149zM91 288h351q-1 94 -46.5 144t-124.5 50q-77 0 -126.5 -49.5t-53.5 -144.5zM127 585
l102 126h78l102 -126h-57l-84 103l-84 -103h-57zM219 -184q0 19 13.5 32.5t32.5 13.5q20 0 33.5 -13.5t13.5 -32.5t-14 -32.5t-33 -13.5t-32.5 13.5t-13.5 32.5z" />
    <glyph glyph-name="uni1EC8" unicode="&#x1ec8;" horiz-adv-x="180" 
d="M59 0v700h61v-700h-61zM7 847q0 40 26.5 62.5t62.5 22.5q38 0 66 -24.5t28 -67.5q0 -41 -25 -65.5t-60 -28.5l-21 30q31 1 49 17t18 45q0 27 -15 42.5t-40 15.5q-23 0 -38 -13t-16 -36h-35z" />
    <glyph glyph-name="uni1EC9" unicode="&#x1ec9;" horiz-adv-x="154" 
d="M48 0v520h59v-520h-59zM-6 667q0 40 26.5 62.5t62.5 22.5q38 0 66 -24.5t28 -67.5q0 -41 -25 -65.5t-60 -28.5l-21 30q31 1 49 17t18 45q0 27 -15 42.5t-40 15.5q-23 0 -38 -13t-16 -36h-35z" />
    <glyph glyph-name="uni1ECA" unicode="&#x1eca;" horiz-adv-x="180" 
d="M59 0v700h61v-700h-61zM43 -184q0 19 13.5 32.5t32.5 13.5q20 0 33.5 -13.5t13.5 -32.5t-14 -32.5t-33 -13.5t-32.5 13.5t-13.5 32.5z" />
    <glyph glyph-name="uni1ECB" unicode="&#x1ecb;" horiz-adv-x="178" 
d="M59 0v520h59v-520h-59zM48 677q0 17 12 29t29 12t29 -12t12 -29t-12 -29t-29 -12t-29 12t-12 29zM50 -184q0 19 13.5 32.5t32.5 13.5q20 0 33.5 -13.5t13.5 -32.5t-14 -32.5t-33 -13.5t-32.5 13.5t-13.5 32.5z" />
    <glyph glyph-name="uni1ECC" unicode="&#x1ecc;" horiz-adv-x="713" 
d="M357 -10q-138 0 -225.5 94t-87.5 266t87.5 265.5t225.5 93.5q137 0 224.5 -93.5t87.5 -265.5t-87.5 -266t-224.5 -94zM106 350q0 -149 69.5 -227.5t181.5 -78.5q111 0 180.5 78.5t69.5 227.5q0 148 -69.5 226.5t-180.5 78.5q-112 0 -181.5 -78.5t-69.5 -226.5zM310 -184
q0 19 13.5 32.5t32.5 13.5q20 0 33.5 -13.5t13.5 -32.5t-14 -32.5t-33 -13.5t-32.5 13.5t-13.5 32.5z" />
    <glyph glyph-name="uni1ECD" unicode="&#x1ecd;" horiz-adv-x="562" 
d="M281 -10q-104 0 -175.5 69.5t-71.5 200.5t71.5 200.5t175.5 69.5t175 -69.5t71 -200.5t-71 -200.5t-175 -69.5zM91 260q0 -107 55.5 -163.5t134.5 -56.5t134 56.5t55 163.5t-55 163.5t-134 56.5t-134.5 -56.5t-55.5 -163.5zM234 -184q0 19 13.5 32.5t32.5 13.5
q20 0 33.5 -13.5t13.5 -32.5t-14 -32.5t-33 -13.5t-32.5 13.5t-13.5 32.5z" />
    <glyph glyph-name="uni1ECE" unicode="&#x1ece;" horiz-adv-x="713" 
d="M357 -10q-138 0 -225.5 94t-87.5 266t87.5 265.5t225.5 93.5q137 0 224.5 -93.5t87.5 -265.5t-87.5 -266t-224.5 -94zM106 350q0 -149 69.5 -227.5t181.5 -78.5q111 0 180.5 78.5t69.5 227.5q0 148 -69.5 226.5t-180.5 78.5q-112 0 -181.5 -78.5t-69.5 -226.5zM273 847
q0 40 26.5 62.5t62.5 22.5q38 0 66 -24.5t28 -67.5q0 -41 -25 -65.5t-60 -28.5l-21 30q31 1 49 17t18 45q0 27 -15 42.5t-40 15.5q-23 0 -38 -13t-16 -36h-35z" />
    <glyph glyph-name="uni1ECF" unicode="&#x1ecf;" horiz-adv-x="562" 
d="M281 -10q-104 0 -175.5 69.5t-71.5 200.5t71.5 200.5t175.5 69.5t175 -69.5t71 -200.5t-71 -200.5t-175 -69.5zM91 260q0 -107 55.5 -163.5t134.5 -56.5t134 56.5t55 163.5t-55 163.5t-134 56.5t-134.5 -56.5t-55.5 -163.5zM198 667q0 40 26.5 62.5t62.5 22.5
q38 0 66 -24.5t28 -67.5q0 -41 -25 -65.5t-60 -28.5l-21 30q31 1 49 17t18 45q0 27 -15 42.5t-40 15.5q-23 0 -38 -13t-16 -36h-35z" />
    <glyph glyph-name="uni1ED0" unicode="&#x1ed0;" horiz-adv-x="713" 
d="M357 -10q-138 0 -225.5 94t-87.5 266t87.5 265.5t225.5 93.5q137 0 224.5 -93.5t87.5 -265.5t-87.5 -266t-224.5 -94zM106 350q0 -149 69.5 -227.5t181.5 -78.5q111 0 180.5 78.5t69.5 227.5q0 148 -69.5 226.5t-180.5 78.5q-112 0 -181.5 -78.5t-69.5 -226.5zM214 765
l102 126h78l102 -126h-57l-84 103l-84 -103h-57zM448 860l100 129h55l-100 -129h-55z" />
    <glyph glyph-name="uni1ED1" unicode="&#x1ed1;" horiz-adv-x="562" 
d="M281 -10q-104 0 -175.5 69.5t-71.5 200.5t71.5 200.5t175.5 69.5t175 -69.5t71 -200.5t-71 -200.5t-175 -69.5zM91 260q0 -107 55.5 -163.5t134.5 -56.5t134 56.5t55 163.5t-55 163.5t-134 56.5t-134.5 -56.5t-55.5 -163.5zM138 585l102 126h78l102 -126h-57l-84 103
l-84 -103h-57zM373 680l100 129h55l-100 -129h-55z" />
    <glyph glyph-name="uni1ED2" unicode="&#x1ed2;" horiz-adv-x="713" 
d="M357 -10q-138 0 -225.5 94t-87.5 266t87.5 265.5t225.5 93.5q137 0 224.5 -93.5t87.5 -265.5t-87.5 -266t-224.5 -94zM106 350q0 -149 69.5 -227.5t181.5 -78.5q111 0 180.5 78.5t69.5 227.5q0 148 -69.5 226.5t-180.5 78.5q-112 0 -181.5 -78.5t-69.5 -226.5zM214 765
l102 126h78l102 -126h-57l-84 103l-84 -103h-57zM381 988h55l97 -129h-56z" />
    <glyph glyph-name="uni1ED3" unicode="&#x1ed3;" horiz-adv-x="562" 
d="M281 -10q-104 0 -175.5 69.5t-71.5 200.5t71.5 200.5t175.5 69.5t175 -69.5t71 -200.5t-71 -200.5t-175 -69.5zM91 260q0 -107 55.5 -163.5t134.5 -56.5t134 56.5t55 163.5t-55 163.5t-134 56.5t-134.5 -56.5t-55.5 -163.5zM138 585l102 126h78l102 -126h-57l-84 103
l-84 -103h-57zM305 808h55l97 -129h-56z" />
    <glyph glyph-name="uni1ED4" unicode="&#x1ed4;" horiz-adv-x="713" 
d="M357 -10q-138 0 -225.5 94t-87.5 266t87.5 265.5t225.5 93.5q137 0 224.5 -93.5t87.5 -265.5t-87.5 -266t-224.5 -94zM106 350q0 -149 69.5 -227.5t181.5 -78.5q111 0 180.5 78.5t69.5 227.5q0 148 -69.5 226.5t-180.5 78.5q-112 0 -181.5 -78.5t-69.5 -226.5zM214 765
l102 126h78l102 -126h-57l-84 103l-84 -103h-57zM369 980q0 40 26.5 62.5t62.5 22.5q38 0 66 -24.5t28 -67.5q0 -41 -25 -65.5t-60 -28.5l-21 30q31 1 49 17t18 45q0 27 -15 42.5t-40 15.5q-23 0 -38 -13t-16 -36h-35z" />
    <glyph glyph-name="uni1ED5" unicode="&#x1ed5;" horiz-adv-x="562" 
d="M281 -10q-104 0 -175.5 69.5t-71.5 200.5t71.5 200.5t175.5 69.5t175 -69.5t71 -200.5t-71 -200.5t-175 -69.5zM91 260q0 -107 55.5 -163.5t134.5 -56.5t134 56.5t55 163.5t-55 163.5t-134 56.5t-134.5 -56.5t-55.5 -163.5zM138 585l102 126h78l102 -126h-57l-84 103
l-84 -103h-57zM293 800q0 40 26.5 62.5t62.5 22.5q38 0 66 -24.5t28 -67.5q0 -41 -25 -65.5t-60 -28.5l-21 30q31 1 49 17t18 45q0 27 -15 42.5t-40 15.5q-23 0 -38 -13t-16 -36h-35z" />
    <glyph glyph-name="uni1ED6" unicode="&#x1ed6;" horiz-adv-x="713" 
d="M357 -10q-138 0 -225.5 94t-87.5 266t87.5 265.5t225.5 93.5q137 0 224.5 -93.5t87.5 -265.5t-87.5 -266t-224.5 -94zM106 350q0 -149 69.5 -227.5t181.5 -78.5q111 0 180.5 78.5t69.5 227.5q0 148 -69.5 226.5t-180.5 78.5q-112 0 -181.5 -78.5t-69.5 -226.5zM204 967
q0 45 22.5 67.5t58.5 22.5q24 0 44 -11t31.5 -24.5t28.5 -24.5t34 -11q24 0 35 15t10 34h41q0 -45 -22.5 -67.5t-58.5 -22.5q-24 0 -44 11t-32 24.5t-28.5 24.5t-34.5 11q-23 0 -34 -15t-10 -34h-41zM214 765l102 126h78l102 -126h-57l-84 103l-84 -103h-57z" />
    <glyph glyph-name="uni1ED7" unicode="&#x1ed7;" horiz-adv-x="562" 
d="M281 -10q-104 0 -175.5 69.5t-71.5 200.5t71.5 200.5t175.5 69.5t175 -69.5t71 -200.5t-71 -200.5t-175 -69.5zM91 260q0 -107 55.5 -163.5t134.5 -56.5t134 56.5t55 163.5t-55 163.5t-134 56.5t-134.5 -56.5t-55.5 -163.5zM129 787q0 45 22.5 67.5t58.5 22.5
q24 0 44 -11t31.5 -24.5t28.5 -24.5t34 -11q24 0 35 15t10 34h41q0 -45 -22.5 -67.5t-58.5 -22.5q-24 0 -44 11t-32 24.5t-28.5 24.5t-34.5 11q-23 0 -34 -15t-10 -34h-41zM138 585l102 126h78l102 -126h-57l-84 103l-84 -103h-57z" />
    <glyph glyph-name="uni1ED8" unicode="&#x1ed8;" horiz-adv-x="713" 
d="M357 -10q-138 0 -225.5 94t-87.5 266t87.5 265.5t225.5 93.5q137 0 224.5 -93.5t87.5 -265.5t-87.5 -266t-224.5 -94zM106 350q0 -149 69.5 -227.5t181.5 -78.5q111 0 180.5 78.5t69.5 227.5q0 148 -69.5 226.5t-180.5 78.5q-112 0 -181.5 -78.5t-69.5 -226.5zM214 765
l102 126h78l102 -126h-57l-84 103l-84 -103h-57zM310 -184q0 19 13.5 32.5t32.5 13.5q20 0 33.5 -13.5t13.5 -32.5t-14 -32.5t-33 -13.5t-32.5 13.5t-13.5 32.5z" />
    <glyph glyph-name="uni1ED9" unicode="&#x1ed9;" horiz-adv-x="562" 
d="M281 -10q-104 0 -175.5 69.5t-71.5 200.5t71.5 200.5t175.5 69.5t175 -69.5t71 -200.5t-71 -200.5t-175 -69.5zM91 260q0 -107 55.5 -163.5t134.5 -56.5t134 56.5t55 163.5t-55 163.5t-134 56.5t-134.5 -56.5t-55.5 -163.5zM138 585l102 126h78l102 -126h-57l-84 103
l-84 -103h-57zM234 -184q0 19 13.5 32.5t32.5 13.5q20 0 33.5 -13.5t13.5 -32.5t-14 -32.5t-33 -13.5t-32.5 13.5t-13.5 32.5z" />
    <glyph glyph-name="uni1EDA" unicode="&#x1eda;" horiz-adv-x="713" 
d="M357 -10q-138 0 -225.5 94t-87.5 266t87.5 265.5t225.5 93.5h244v79h52v-127h-125q141 -93 141 -311q0 -172 -87.5 -266t-224.5 -94zM106 350q0 -149 69.5 -227.5t181.5 -78.5q111 0 180.5 78.5t69.5 227.5q0 148 -69.5 226.5t-180.5 78.5q-112 0 -181.5 -78.5
t-69.5 -226.5zM325 762l100 129h55l-100 -129h-55z" />
    <glyph glyph-name="uni1EDB" unicode="&#x1edb;" horiz-adv-x="562" 
d="M281 -10q-104 0 -175.5 69.5t-71.5 200.5t71.5 200.5t175.5 69.5h179v78h50v-125h-80q97 -72 97 -223q0 -131 -71 -200.5t-175 -69.5zM91 260q0 -107 55.5 -163.5t134.5 -56.5t134 56.5t55 163.5t-55 163.5t-134 56.5t-134.5 -56.5t-55.5 -163.5zM249 582l100 129h55
l-100 -129h-55z" />
    <glyph glyph-name="uni1EDC" unicode="&#x1edc;" horiz-adv-x="713" 
d="M357 -10q-138 0 -225.5 94t-87.5 266t87.5 265.5t225.5 93.5h244v79h52v-127h-125q141 -93 141 -311q0 -172 -87.5 -266t-224.5 -94zM106 350q0 -149 69.5 -227.5t181.5 -78.5q111 0 180.5 78.5t69.5 227.5q0 148 -69.5 226.5t-180.5 78.5q-112 0 -181.5 -78.5
t-69.5 -226.5zM231 891h55l100 -129h-55z" />
    <glyph glyph-name="uni1EDD" unicode="&#x1edd;" horiz-adv-x="562" 
d="M281 -10q-104 0 -175.5 69.5t-71.5 200.5t71.5 200.5t175.5 69.5h179v78h50v-125h-80q97 -72 97 -223q0 -131 -71 -200.5t-175 -69.5zM91 260q0 -107 55.5 -163.5t134.5 -56.5t134 56.5t55 163.5t-55 163.5t-134 56.5t-134.5 -56.5t-55.5 -163.5zM155 711h55l100 -129
h-55z" />
    <glyph glyph-name="uni1EDE" unicode="&#x1ede;" horiz-adv-x="713" 
d="M357 -10q-138 0 -225.5 94t-87.5 266t87.5 265.5t225.5 93.5h244v79h52v-127h-125q141 -93 141 -311q0 -172 -87.5 -266t-224.5 -94zM106 350q0 -149 69.5 -227.5t181.5 -78.5q111 0 180.5 78.5t69.5 227.5q0 148 -69.5 226.5t-180.5 78.5q-112 0 -181.5 -78.5
t-69.5 -226.5zM273 847q0 40 26.5 62.5t62.5 22.5q38 0 66 -24.5t28 -67.5q0 -41 -25 -65.5t-60 -28.5l-21 30q31 1 49 17t18 45q0 27 -15 42.5t-40 15.5q-23 0 -38 -13t-16 -36h-35z" />
    <glyph glyph-name="uni1EDF" unicode="&#x1edf;" horiz-adv-x="562" 
d="M281 -10q-104 0 -175.5 69.5t-71.5 200.5t71.5 200.5t175.5 69.5h179v78h50v-125h-80q97 -72 97 -223q0 -131 -71 -200.5t-175 -69.5zM91 260q0 -107 55.5 -163.5t134.5 -56.5t134 56.5t55 163.5t-55 163.5t-134 56.5t-134.5 -56.5t-55.5 -163.5zM198 667q0 40 26.5 62.5
t62.5 22.5q38 0 66 -24.5t28 -67.5q0 -41 -25 -65.5t-60 -28.5l-21 30q31 1 49 17t18 45q0 27 -15 42.5t-40 15.5q-23 0 -38 -13t-16 -36h-35z" />
    <glyph glyph-name="uni1EE0" unicode="&#x1ee0;" horiz-adv-x="713" 
d="M357 -10q-138 0 -225.5 94t-87.5 266t87.5 265.5t225.5 93.5h244v79h52v-127h-125q141 -93 141 -311q0 -172 -87.5 -266t-224.5 -94zM106 350q0 -149 69.5 -227.5t181.5 -78.5q111 0 180.5 78.5t69.5 227.5q0 148 -69.5 226.5t-180.5 78.5q-112 0 -181.5 -78.5
t-69.5 -226.5zM204 811q0 45 22.5 67.5t58.5 22.5q24 0 44 -11t31.5 -24.5t28.5 -24.5t34 -11q24 0 35 15t10 34h41q0 -45 -22.5 -67.5t-58.5 -22.5q-24 0 -44 11t-32 24.5t-28.5 24.5t-34.5 11q-23 0 -34 -15t-10 -34h-41z" />
    <glyph glyph-name="uni1EE1" unicode="&#x1ee1;" horiz-adv-x="562" 
d="M281 -10q-104 0 -175.5 69.5t-71.5 200.5t71.5 200.5t175.5 69.5h179v78h50v-125h-80q97 -72 97 -223q0 -131 -71 -200.5t-175 -69.5zM91 260q0 -107 55.5 -163.5t134.5 -56.5t134 56.5t55 163.5t-55 163.5t-134 56.5t-134.5 -56.5t-55.5 -163.5zM129 631q0 45 22.5 67.5
t58.5 22.5q24 0 44 -11t31.5 -24.5t28.5 -24.5t34 -11q24 0 35 15t10 34h41q0 -45 -22.5 -67.5t-58.5 -22.5q-24 0 -44 11t-32 24.5t-28.5 24.5t-34.5 11q-23 0 -34 -15t-10 -34h-41z" />
    <glyph glyph-name="uni1EE2" unicode="&#x1ee2;" horiz-adv-x="713" 
d="M357 -10q-138 0 -225.5 94t-87.5 266t87.5 265.5t225.5 93.5h244v79h52v-127h-125q141 -93 141 -311q0 -172 -87.5 -266t-224.5 -94zM106 350q0 -149 69.5 -227.5t181.5 -78.5q111 0 180.5 78.5t69.5 227.5q0 148 -69.5 226.5t-180.5 78.5q-112 0 -181.5 -78.5
t-69.5 -226.5zM310 -184q0 19 13.5 32.5t32.5 13.5q20 0 33.5 -13.5t13.5 -32.5t-14 -32.5t-33 -13.5t-32.5 13.5t-13.5 32.5z" />
    <glyph glyph-name="uni1EE3" unicode="&#x1ee3;" horiz-adv-x="562" 
d="M281 -10q-104 0 -175.5 69.5t-71.5 200.5t71.5 200.5t175.5 69.5h179v78h50v-125h-80q97 -72 97 -223q0 -131 -71 -200.5t-175 -69.5zM91 260q0 -107 55.5 -163.5t134.5 -56.5t134 56.5t55 163.5t-55 163.5t-134 56.5t-134.5 -56.5t-55.5 -163.5zM234 -184
q0 19 13.5 32.5t32.5 13.5q20 0 33.5 -13.5t13.5 -32.5t-14 -32.5t-33 -13.5t-32.5 13.5t-13.5 32.5z" />
    <glyph glyph-name="uni1EE4" unicode="&#x1ee4;" horiz-adv-x="645" 
d="M322 -10q-123 0 -193 72.5t-70 201.5v436h62v-433q0 -107 52.5 -164.5t148.5 -57.5t149 57.5t53 164.5v433h62v-436q0 -129 -70.5 -201.5t-193.5 -72.5zM276 -184q0 19 13.5 32.5t32.5 13.5q20 0 33.5 -13.5t13.5 -32.5t-14 -32.5t-33 -13.5t-32.5 13.5t-13.5 32.5z" />
    <glyph glyph-name="uni1EE5" unicode="&#x1ee5;" 
d="M118 212q0 -171 147 -171q78 0 122.5 46t44.5 125v308h59v-520h-59v100h-1q-10 -36 -56 -73t-127 -37q-84 0 -136.5 50t-52.5 162v318h59v-308zM226 -184q0 19 13.5 32.5t32.5 13.5q20 0 33.5 -13.5t13.5 -32.5t-14 -32.5t-33 -13.5t-32.5 13.5t-13.5 32.5z" />
    <glyph glyph-name="uni1EE6" unicode="&#x1ee6;" horiz-adv-x="645" 
d="M322 -10q-123 0 -193 72.5t-70 201.5v436h62v-433q0 -107 52.5 -164.5t148.5 -57.5t149 57.5t53 164.5v433h62v-436q0 -129 -70.5 -201.5t-193.5 -72.5zM239 847q0 40 26.5 62.5t62.5 22.5q38 0 66 -24.5t28 -67.5q0 -41 -25 -65.5t-60 -28.5l-21 30q31 1 49 17t18 45
q0 27 -15 42.5t-40 15.5q-23 0 -38 -13t-16 -36h-35z" />
    <glyph glyph-name="uni1EE7" unicode="&#x1ee7;" 
d="M118 212q0 -171 147 -171q78 0 122.5 46t44.5 125v308h59v-520h-59v100h-1q-10 -36 -56 -73t-127 -37q-84 0 -136.5 50t-52.5 162v318h59v-308zM188 667q0 40 26.5 62.5t62.5 22.5q38 0 66 -24.5t28 -67.5q0 -41 -25 -65.5t-60 -28.5l-21 30q31 1 49 17t18 45
q0 27 -15 42.5t-40 15.5q-23 0 -38 -13t-16 -36h-35z" />
    <glyph glyph-name="uni1EE8" unicode="&#x1ee8;" horiz-adv-x="645" 
d="M322 -10q-123 0 -193 72.5t-70 201.5v436h62v-433q0 -107 52.5 -164.5t148.5 -57.5t149 57.5t53 164.5v433h104v88h52v-138h-94v-386q0 -129 -70.5 -201.5t-193.5 -72.5zM291 762l100 129h55l-100 -129h-55z" />
    <glyph glyph-name="uni1EE9" unicode="&#x1ee9;" 
d="M118 212q0 -171 147 -171q78 0 122.5 46t44.5 125v308h104v88h52v-138h-97v-470h-59v100h-1q-10 -36 -56 -73t-127 -37q-84 0 -136.5 50t-52.5 162v318h59v-308zM244 582l100 129h55l-100 -129h-55z" />
    <glyph glyph-name="uni1EEA" unicode="&#x1eea;" horiz-adv-x="645" 
d="M322 -10q-123 0 -193 72.5t-70 201.5v436h62v-433q0 -107 52.5 -164.5t148.5 -57.5t149 57.5t53 164.5v433h104v88h52v-138h-94v-386q0 -129 -70.5 -201.5t-193.5 -72.5zM197 891h55l100 -129h-55z" />
    <glyph glyph-name="uni1EEB" unicode="&#x1eeb;" 
d="M118 212q0 -171 147 -171q78 0 122.5 46t44.5 125v308h104v88h52v-138h-97v-470h-59v100h-1q-10 -36 -56 -73t-127 -37q-84 0 -136.5 50t-52.5 162v318h59v-308zM150 711h55l100 -129h-55z" />
    <glyph glyph-name="uni1EEC" unicode="&#x1eec;" horiz-adv-x="645" 
d="M322 -10q-123 0 -193 72.5t-70 201.5v436h62v-433q0 -107 52.5 -164.5t148.5 -57.5t149 57.5t53 164.5v433h104v88h52v-138h-94v-386q0 -129 -70.5 -201.5t-193.5 -72.5zM240 847q0 40 26.5 62.5t62.5 22.5q38 0 66 -24.5t28 -67.5q0 -41 -25 -65.5t-60 -28.5l-21 30
q31 1 49 17t18 45q0 27 -15 42.5t-40 15.5q-23 0 -38 -13t-16 -36h-35z" />
    <glyph glyph-name="uni1EED" unicode="&#x1eed;" 
d="M118 212q0 -171 147 -171q78 0 122.5 46t44.5 125v308h104v88h52v-138h-97v-470h-59v100h-1q-10 -36 -56 -73t-127 -37q-84 0 -136.5 50t-52.5 162v318h59v-308zM192 667q0 40 26.5 62.5t62.5 22.5q38 0 66 -24.5t28 -67.5q0 -41 -25 -65.5t-60 -28.5l-21 30q31 1 49 17
t18 45q0 27 -15 42.5t-40 15.5q-23 0 -38 -13t-16 -36h-35z" />
    <glyph glyph-name="uni1EEE" unicode="&#x1eee;" horiz-adv-x="645" 
d="M322 -10q-123 0 -193 72.5t-70 201.5v436h62v-433q0 -107 52.5 -164.5t148.5 -57.5t149 57.5t53 164.5v433h104v88h52v-138h-94v-386q0 -129 -70.5 -201.5t-193.5 -72.5zM171 811q0 45 22.5 67.5t58.5 22.5q24 0 44 -11t31.5 -24.5t28.5 -24.5t34 -11q24 0 35 15t10 34
h41q0 -45 -22.5 -67.5t-58.5 -22.5q-24 0 -44 11t-32 24.5t-28.5 24.5t-34.5 11q-23 0 -34 -15t-10 -34h-41z" />
    <glyph glyph-name="uni1EEF" unicode="&#x1eef;" 
d="M118 212q0 -171 147 -171q78 0 122.5 46t44.5 125v308h104v88h52v-138h-97v-470h-59v100h-1q-10 -36 -56 -73t-127 -37q-84 0 -136.5 50t-52.5 162v318h59v-308zM123 631q0 45 22.5 67.5t58.5 22.5q24 0 44 -11t31.5 -24.5t28.5 -24.5t34 -11q24 0 35 15t10 34h41
q0 -45 -22.5 -67.5t-58.5 -22.5q-24 0 -44 11t-32 24.5t-28.5 24.5t-34.5 11q-23 0 -34 -15t-10 -34h-41z" />
    <glyph glyph-name="uni1EF0" unicode="&#x1ef0;" horiz-adv-x="645" 
d="M322 -10q-123 0 -193 72.5t-70 201.5v436h62v-433q0 -107 52.5 -164.5t148.5 -57.5t149 57.5t53 164.5v433h104v88h52v-138h-94v-386q0 -129 -70.5 -201.5t-193.5 -72.5zM276 -184q0 19 13.5 32.5t32.5 13.5q20 0 33.5 -13.5t13.5 -32.5t-14 -32.5t-33 -13.5t-32.5 13.5
t-13.5 32.5z" />
    <glyph glyph-name="uni1EF1" unicode="&#x1ef1;" 
d="M118 212q0 -171 147 -171q78 0 122.5 46t44.5 125v308h104v88h52v-138h-97v-470h-59v100h-1q-10 -36 -56 -73t-127 -37q-84 0 -136.5 50t-52.5 162v318h59v-308zM229 -184q0 19 13.5 32.5t32.5 13.5q20 0 33.5 -13.5t13.5 -32.5t-14 -32.5t-33 -13.5t-32.5 13.5
t-13.5 32.5z" />
    <glyph glyph-name="Ygrave" unicode="&#x1ef2;" horiz-adv-x="635" 
d="M287 0v279l-258 421h69l220 -361l219 361h69l-258 -421v-279h-61zM202 891h55l100 -129h-55z" />
    <glyph glyph-name="ygrave" unicode="&#x1ef3;" horiz-adv-x="521" 
d="M78 -138q101 -14 140 90q15 39 5 66l-199 502h61l176 -455l175 455h61l-228 -575q-32 -80 -78.5 -112t-112.5 -23v52zM147 711h55l100 -129h-55z" />
    <glyph glyph-name="uni1EF4" unicode="&#x1ef4;" horiz-adv-x="635" 
d="M287 0v279l-258 421h69l220 -361l219 361h69l-258 -421v-279h-61zM271 -184q0 19 13.5 32.5t32.5 13.5q20 0 33.5 -13.5t13.5 -32.5t-14 -32.5t-33 -13.5t-32.5 13.5t-13.5 32.5z" />
    <glyph glyph-name="uni1EF5" unicode="&#x1ef5;" horiz-adv-x="521" 
d="M78 -138q101 -14 140 90q15 39 5 66l-199 502h61l176 -455l175 455h61l-228 -575q-32 -80 -78.5 -112t-112.5 -23v52zM297 -184q0 19 13.5 32.5t32.5 13.5q20 0 33.5 -13.5t13.5 -32.5t-14 -32.5t-33 -13.5t-32.5 13.5t-13.5 32.5z" />
    <glyph glyph-name="uni1EF6" unicode="&#x1ef6;" horiz-adv-x="635" 
d="M287 0v279l-258 421h69l220 -361l219 361h69l-258 -421v-279h-61zM234 847q0 40 26.5 62.5t62.5 22.5q38 0 66 -24.5t28 -67.5q0 -41 -25 -65.5t-60 -28.5l-21 30q31 1 49 17t18 45q0 27 -15 42.5t-40 15.5q-23 0 -38 -13t-16 -36h-35z" />
    <glyph glyph-name="uni1EF7" unicode="&#x1ef7;" horiz-adv-x="521" 
d="M78 -138q101 -14 140 90q15 39 5 66l-199 502h61l176 -455l175 455h61l-228 -575q-32 -80 -78.5 -112t-112.5 -23v52zM180 667q0 40 26.5 62.5t62.5 22.5q38 0 66 -24.5t28 -67.5q0 -41 -25 -65.5t-60 -28.5l-21 30q31 1 49 17t18 45q0 27 -15 42.5t-40 15.5
q-23 0 -38 -13t-16 -36h-35z" />
    <glyph glyph-name="uni1EF8" unicode="&#x1ef8;" horiz-adv-x="635" 
d="M287 0v279l-258 421h69l220 -361l219 361h69l-258 -421v-279h-61zM165 811q0 45 22.5 67.5t58.5 22.5q24 0 44 -11t31.5 -24.5t28.5 -24.5t34 -11q24 0 35 15t10 34h41q0 -45 -22.5 -67.5t-58.5 -22.5q-24 0 -44 11t-32 24.5t-28.5 24.5t-34.5 11q-23 0 -34 -15t-10 -34
h-41z" />
    <glyph glyph-name="uni1EF9" unicode="&#x1ef9;" horiz-adv-x="521" 
d="M78 -138q101 -14 140 90q15 39 5 66l-199 502h61l176 -455l175 455h61l-228 -575q-32 -80 -78.5 -112t-112.5 -23v52zM110 631q0 45 22.5 67.5t58.5 22.5q24 0 44 -11t31.5 -24.5t28.5 -24.5t34 -11q24 0 35 15t10 34h41q0 -45 -22.5 -67.5t-58.5 -22.5q-24 0 -44 11
t-32 24.5t-28.5 24.5t-34.5 11q-23 0 -34 -15t-10 -34h-41z" />
    <glyph glyph-name="endash" unicode="&#x2013;" horiz-adv-x="600" 
d="M45 257v48h510v-48h-510z" />
    <glyph glyph-name="emdash" unicode="&#x2014;" horiz-adv-x="660" 
d="M45 257v48h570v-48h-570z" />
    <glyph glyph-name="quoteleft" unicode="&#x2018;" horiz-adv-x="183" 
d="M132 675q-28 -1 -39.5 -15t-11.5 -40q26 1 42 -12.5t16 -35.5q0 -19 -13 -31.5t-34 -12.5q-52 0 -52 76q0 49 24 76t61 27h7v-32z" />
    <glyph glyph-name="quoteright" unicode="&#x2019;" horiz-adv-x="183" 
d="M51 562q28 1 39.5 15t11.5 40q-26 -1 -42 12.5t-16 35.5q0 19 12.5 31.5t33.5 12.5q23 0 38 -19t15 -57q0 -49 -24 -76t-61 -27h-7v32z" />
    <glyph glyph-name="quotesinglbase" unicode="&#x201a;" horiz-adv-x="188" 
d="M51 -65q28 1 39.5 15t11.5 40q-26 -1 -42 12.5t-16 35.5q0 19 12.5 31.5t33.5 12.5q23 0 38 -19t15 -57q0 -49 -24 -76t-61 -27h-7v32z" />
    <glyph glyph-name="quotedblleft" unicode="&#x201c;" horiz-adv-x="316" 
d="M132 675q-28 -1 -39.5 -15t-11.5 -40q26 1 42 -12.5t16 -35.5q0 -19 -13 -31.5t-34 -12.5q-52 0 -52 76q0 49 24 76t61 27h7v-32zM173 604q0 49 24 76t61 27h7v-32q-28 -1 -39.5 -15t-11.5 -40q26 1 42 -12.5t16 -35.5q0 -19 -12.5 -31.5t-33.5 -12.5q-23 0 -38 19
t-15 57z" />
    <glyph glyph-name="quotedblright" unicode="&#x201d;" horiz-adv-x="316" 
d="M51 562q28 1 39.5 15t11.5 40q-26 -1 -42 12.5t-16 35.5q0 19 12.5 31.5t33.5 12.5q23 0 38 -19t15 -57q0 -49 -24 -76t-61 -27h-7v32zM178 665q0 19 12.5 31.5t33.5 12.5q23 0 38 -19t15 -57q0 -49 -24 -76t-61 -27h-7v32q28 1 39.5 15t11.5 40q-26 -1 -42 12.5
t-16 35.5z" />
    <glyph glyph-name="quotedblbase" unicode="&#x201e;" horiz-adv-x="321" 
d="M185 -70q28 1 39.5 15t11.5 40q-26 -1 -42 12.5t-16 35.5q0 19 12.5 31.5t33.5 12.5q23 0 38 -19t15 -57q0 -49 -24 -76t-61 -27h-7v32zM44 33q0 19 12.5 31.5t33.5 12.5q23 0 38 -19t15 -57q0 -49 -24 -76t-61 -27h-7v32q28 1 39.5 15t11.5 40q-26 -1 -42 12.5t-16 35.5
z" />
    <glyph glyph-name="dagger" unicode="&#x2020;" horiz-adv-x="311" 
d="M132 283v257h-82v47h82v113h48v-113h81v-47h-81v-257h-48z" />
    <glyph glyph-name="daggerdbl" unicode="&#x2021;" horiz-adv-x="311" 
d="M132 0v157h-82v47h82v292h-82v47h82v157h48v-157h81v-47h-81v-292h81v-47h-81v-157h-48z" />
    <glyph glyph-name="bullet" unicode="&#x2022;" horiz-adv-x="255" 
d="M128 186q-32 0 -55 22.5t-23 55.5q0 32 23 54.5t55 22.5t54.5 -22.5t22.5 -54.5q0 -33 -22.5 -55.5t-54.5 -22.5z" />
    <glyph glyph-name="ellipsis" unicode="&#x2026;" horiz-adv-x="561" 
d="M281 -10q-19 0 -33 13.5t-14 32.5t13.5 32.5t33.5 13.5q19 0 32.5 -13.5t13.5 -32.5t-13.5 -32.5t-32.5 -13.5zM44 36q0 19 13.5 32.5t33.5 13.5q19 0 32.5 -13.5t13.5 -32.5t-13.5 -32.5t-32.5 -13.5t-33 13.5t-14 32.5zM424 36q0 19 13.5 32.5t33.5 13.5
q19 0 32.5 -13.5t13.5 -32.5t-13.5 -32.5t-32.5 -13.5t-33 13.5t-14 32.5z" />
    <glyph glyph-name="perthousand" unicode="&#x2030;" horiz-adv-x="1028" 
d="M852 -9q-58 0 -94 40t-36 110t36 110t94 40t94.5 -40t36.5 -110t-36.5 -110t-94.5 -40zM44 556q0 70 36.5 110t94.5 40t94.5 -40t36.5 -110q0 -71 -36.5 -111t-94.5 -40t-94.5 40t-36.5 111zM72 166l549 403l26 -38l-549 -403zM91 556q0 -52 22.5 -79t61.5 -27t61.5 27
t22.5 79q0 51 -22.5 78t-61.5 27t-61.5 -27t-22.5 -78zM412 141q0 70 36.5 110t94.5 40t94.5 -40t36.5 -110t-36.5 -110t-94.5 -40t-94.5 40t-36.5 110zM459 141q0 -52 22.5 -79t61.5 -27t61.5 27t22.5 79t-22.5 79t-61.5 27t-61.5 -27t-22.5 -79zM769 141q0 -52 22.5 -79
t60.5 -27q39 0 61.5 27t22.5 79t-22.5 79t-61.5 27q-38 0 -60.5 -27t-22.5 -79z" />
    <glyph glyph-name="guilsinglleft" unicode="&#x2039;" horiz-adv-x="219" 
d="M179 153l-139 121v47l139 122v-61l-95 -84l95 -84v-61z" />
    <glyph glyph-name="guilsinglright" unicode="&#x203a;" horiz-adv-x="200" 
d="M26 153v61l95 84l-95 84v61l139 -122v-47z" />
    <glyph glyph-name="fraction" unicode="&#x2044;" horiz-adv-x="148" 
d="M-162 0l437 700h34l-436 -700h-35z" />
    <glyph glyph-name="Euro" unicode="&#x20ac;" horiz-adv-x="699" 
d="M35 373v38h57q15 145 98.5 221.5t210.5 76.5q106 0 177.5 -52t90.5 -149h-61q-19 70 -73 108.5t-134 38.5q-101 0 -167.5 -62.5t-80.5 -181.5h203v-38h-206v-23q0 -16 2 -42h204v-38h-200q18 -110 83 -168t162 -58q80 0 134 38.5t73 109.5h61q-19 -98 -90.5 -150
t-177.5 -52q-123 0 -205 71.5t-102 208.5h-59v38h55q-1 14 -1 42v23h-54z" />
    <glyph glyph-name="trademark" unicode="&#x2122;" horiz-adv-x="485" 
d="M239 520v180h36l67 -145l68 145h35v-180h-33v120l-57 -120h-26l-57 120v-120h-33zM40 670v30h163v-30h-65v-150h-33v150h-65z" />
    <glyph glyph-name="partialdiff" unicode="&#x2202;" horiz-adv-x="574" 
d="M285 -10q-106 0 -171 67.5t-65 176.5q0 106 62 170t163 64q67 0 121.5 -31t79.5 -92q-2 315 -196 315q-69 0 -108.5 -35t-44.5 -86h-52q2 69 55.5 119.5t149.5 50.5q72 0 123.5 -31.5t78 -87t38 -117t11.5 -135.5q0 -173 -63.5 -260.5t-181.5 -87.5zM106 234
q0 -85 48 -139.5t130 -54.5t130.5 55t48.5 139q0 83 -48.5 134t-131.5 51t-130 -50.5t-47 -134.5z" />
    <glyph glyph-name="product" unicode="&#x220f;" horiz-adv-x="657" 
d="M45 -190v990h567v-990h-55v937h-457v-937h-55z" />
    <glyph glyph-name="summation" unicode="&#x2211;" horiz-adv-x="653" 
d="M45 -190l275 495l-275 495h563v-55h-468l246 -440l-246 -440h468v-55h-563z" />
    <glyph glyph-name="minus" unicode="&#x2212;" horiz-adv-x="405" 
d="M60 238v48h286v-48h-286z" />
    <glyph glyph-name="radical" unicode="&#x221a;" horiz-adv-x="715" 
d="M333 -190l-180 468h-108v61h146l168 -444l254 905h57l-276 -990h-61z" />
    <glyph glyph-name="infinity" unicode="&#x221e;" horiz-adv-x="799" 
d="M207 96q-69 0 -116 47.5t-47 118.5t47 117t116 46q100 0 193 -121q93 121 192 121q69 0 116 -46t47 -117t-47 -118.5t-116 -47.5q-100 0 -192 123q-92 -123 -193 -123zM99 262q0 -50 31.5 -83t79.5 -33q80 0 157 116q-36 53 -73 83t-84 30q-48 0 -79.5 -32t-31.5 -81z
M432 262q77 -116 157 -116q48 0 79.5 33t31.5 83q0 49 -31.5 81t-79.5 32q-80 0 -157 -113z" />
    <glyph glyph-name="integral" unicode="&#x222b;" horiz-adv-x="292" 
d="M24 -138q92 0 92 109v578q0 89 38 123t113 34v-53q-46 0 -69 -24t-23 -84v-578q0 -88 -41 -122.5t-110 -34.5v52z" />
    <glyph glyph-name="approxequal" unicode="&#x2248;" horiz-adv-x="491" 
d="M338 139q-27 0 -53 13t-43 28.5t-40 28.5t-46 13q-30 0 -44.5 -18t-14.5 -40h-38q-1 45 27 71t68 26q42 0 95 -42t86 -42q29 0 43.5 18t14.5 40h38q1 -45 -26 -70.5t-67 -25.5zM59 324q-1 45 27 71t68 26q42 0 95 -42t86 -42q29 0 43.5 18t14.5 40h38q1 -45 -26 -70.5
t-67 -25.5q-27 0 -53 13t-43 28.5t-40 28.5t-46 13q-30 0 -44.5 -18t-14.5 -40h-38z" />
    <glyph glyph-name="notequal" unicode="&#x2260;" horiz-adv-x="405" 
d="M72 0l69 177h-81v48h100l44 112h-144v48h162l69 176h42l-69 -176h82v-48h-100l-44 -112h144v-48h-163l-69 -177h-42z" />
    <glyph glyph-name="lessequal" unicode="&#x2264;" horiz-adv-x="444" 
d="M393 157l-343 190v55l343 191v-54l-301 -164l301 -164v-54zM50 0v47h344v-47h-344z" />
    <glyph glyph-name="greaterequal" unicode="&#x2265;" horiz-adv-x="444" 
d="M51 157v54l301 164l-301 164v54l343 -191v-55zM50 0v47h344v-47h-344z" />
    <glyph glyph-name="lozenge" unicode="&#x25ca;" horiz-adv-x="476" 
d="M200 0l-155 350l155 350h76l155 -350l-155 -350h-76zM106 350l132 -298l132 298l-132 298z" />
    <glyph glyph-name="uniA78B" unicode="&#xa78b;" horiz-adv-x="180" 
d="M59 240v460h61v-460h-61z" />
    <glyph glyph-name="uniA78C" unicode="&#xa78c;" horiz-adv-x="178" 
d="M59 298v402h59v-402h-59z" />
    <glyph glyph-name="uni004A0301" horiz-adv-x="639" 
d="M318 -10q-122 0 -190.5 70.5t-68.5 198.5h62q0 -102 52.5 -158t145.5 -56q94 0 146.5 57.5t52.5 164.5v433h62v-437q0 -129 -69.5 -201t-192.5 -72zM519 762l100 129h55l-100 -129h-55z" />
    <glyph glyph-name="G.ss01" horiz-adv-x="687" 
d="M348 -10q-135 0 -219.5 93t-84.5 267t87.5 266.5t231.5 92.5q99 0 164 -45t89 -131h-62q-43 122 -190 122q-118 0 -188 -78t-70 -227q0 -148 71 -227t182 -79q97 0 159 57t62 148v50h-190v52h248v-351h-57v123q-67 -133 -233 -133z" />
    <glyph glyph-name="R.ss01" horiz-adv-x="610" 
d="M496 0q-10 20 -10 73v106q0 118 -146 118h-220v-297h-61v700h266q113 0 170.5 -51t57.5 -143q0 -67 -30.5 -113.5t-89.5 -65.5q113 -27 113 -148v-106q0 -53 10 -73h-60zM120 348h201q85 0 128 39t43 112q0 147 -171 147h-201v-298z" />
    <glyph glyph-name="G.ss05" horiz-adv-x="687" 
d="M348 -10q-135 0 -219.5 93t-84.5 267t87.5 266.5t231.5 92.5q99 0 164 -45t89 -131h-62q-43 122 -190 122q-118 0 -188 -78t-70 -227q0 -148 71 -227t182 -79q97 0 159 57t62 148v50h-190v52h248v-351h-57v123q-67 -133 -233 -133z" />
    <glyph glyph-name="i.loclTRK" horiz-adv-x="154" 
d="M48 0v520h59v-520h-59zM36 677q0 17 12 29t29 12t29 -12t12 -29t-12 -29t-29 -12t-29 12t-12 29z" />
    <glyph glyph-name="uni006A0301" horiz-adv-x="185" 
d="M15 -186q-20 0 -47 3v47h28q46 0 64.5 18t18.5 63v575h59v-588q0 -118 -123 -118zM79 582l100 129h55l-100 -129h-55z" />
    <glyph glyph-name="a.ss01" horiz-adv-x="582" 
d="M270 -10q-100 0 -168 69t-68 201t68 201t168 69q61 0 113 -26t81 -76v92h59v-520h-59v92q-29 -50 -81 -76t-113 -26zM91 260q0 -106 54.5 -162.5t132.5 -56.5t133.5 56.5t55.5 162.5t-55.5 162.5t-133.5 56.5t-132.5 -56.5t-54.5 -162.5z" />
    <glyph glyph-name="aacute.ss01" horiz-adv-x="582" 
d="M270 -10q-100 0 -168 69t-68 201t68 201t168 69q61 0 113 -26t81 -76v92h59v-520h-59v92q-29 -50 -81 -76t-113 -26zM91 260q0 -106 54.5 -162.5t132.5 -56.5t133.5 56.5t55.5 162.5t-55.5 162.5t-133.5 56.5t-132.5 -56.5t-54.5 -162.5zM260 582l100 129h55l-100 -129
h-55z" />
    <glyph glyph-name="abreve.ss01" horiz-adv-x="582" 
d="M270 -10q-100 0 -168 69t-68 201t68 201t168 69q61 0 113 -26t81 -76v92h59v-520h-59v92q-29 -50 -81 -76t-113 -26zM91 260q0 -106 54.5 -162.5t132.5 -56.5t133.5 56.5t55.5 162.5t-55.5 162.5t-133.5 56.5t-132.5 -56.5t-54.5 -162.5zM156 711h43q4 -81 90 -81t90 81
h43q0 -52 -32 -86.5t-101 -34.5t-101 34.5t-32 86.5z" />
    <glyph glyph-name="uni01CE.ss01" horiz-adv-x="582" 
d="M270 -10q-100 0 -168 69t-68 201t68 201t168 69q61 0 113 -26t81 -76v92h59v-520h-59v92q-29 -50 -81 -76t-113 -26zM91 260q0 -106 54.5 -162.5t132.5 -56.5t133.5 56.5t55.5 162.5t-55.5 162.5t-133.5 56.5t-132.5 -56.5t-54.5 -162.5zM142 710h57l84 -103l84 103h57
l-102 -126h-78z" />
    <glyph glyph-name="acircumflex.ss01" horiz-adv-x="582" 
d="M270 -10q-100 0 -168 69t-68 201t68 201t168 69q61 0 113 -26t81 -76v92h59v-520h-59v92q-29 -50 -81 -76t-113 -26zM91 260q0 -106 54.5 -162.5t132.5 -56.5t133.5 56.5t55.5 162.5t-55.5 162.5t-133.5 56.5t-132.5 -56.5t-54.5 -162.5zM147 585l102 126h78l102 -126
h-57l-84 103l-84 -103h-57z" />
    <glyph glyph-name="adieresis.ss01" horiz-adv-x="582" 
d="M270 -10q-100 0 -168 69t-68 201t68 201t168 69q61 0 113 -26t81 -76v92h59v-520h-59v92q-29 -50 -81 -76t-113 -26zM91 260q0 -106 54.5 -162.5t132.5 -56.5t133.5 56.5t55.5 162.5t-55.5 162.5t-133.5 56.5t-132.5 -56.5t-54.5 -162.5zM161 677q0 17 12.5 29t28.5 12
t28.5 -12t12.5 -29t-12.5 -29t-28.5 -12t-28.5 12t-12.5 29zM334 677q0 17 12 29t29 12t29 -12t12 -29t-12 -29t-29 -12t-29 12t-12 29z" />
    <glyph glyph-name="agrave.ss01" horiz-adv-x="582" 
d="M270 -10q-100 0 -168 69t-68 201t68 201t168 69q61 0 113 -26t81 -76v92h59v-520h-59v92q-29 -50 -81 -76t-113 -26zM91 260q0 -106 54.5 -162.5t132.5 -56.5t133.5 56.5t55.5 162.5t-55.5 162.5t-133.5 56.5t-132.5 -56.5t-54.5 -162.5zM173 711h55l100 -129h-55z" />
    <glyph glyph-name="amacron.ss01" horiz-adv-x="582" 
d="M270 -10q-100 0 -168 69t-68 201t68 201t168 69q61 0 113 -26t81 -76v92h59v-520h-59v92q-29 -50 -81 -76t-113 -26zM91 260q0 -106 54.5 -162.5t132.5 -56.5t133.5 56.5t55.5 162.5t-55.5 162.5t-133.5 56.5t-132.5 -56.5t-54.5 -162.5zM147 671v40h285v-40h-285z" />
    <glyph glyph-name="aogonek.ss01" horiz-adv-x="582" 
d="M270 -10q-100 0 -168 69t-68 201t68 201t168 69q61 0 113 -26t81 -76v92h59v-519l1 -1q-56 0 -86 -23t-30 -60q0 -34 25.5 -51t66.5 -11v-38q-54 -11 -96.5 15.5t-42.5 79.5q0 44 30 73t73 35v72q-29 -50 -81 -76t-113 -26zM91 260q0 -106 54.5 -162.5t132.5 -56.5
t133.5 56.5t55.5 162.5t-55.5 162.5t-133.5 56.5t-132.5 -56.5t-54.5 -162.5z" />
    <glyph glyph-name="aring.ss01" horiz-adv-x="582" 
d="M270 -10q-100 0 -168 69t-68 201t68 201t168 69q61 0 113 -26t81 -76v92h59v-520h-59v92q-29 -50 -81 -76t-113 -26zM91 260q0 -106 54.5 -162.5t132.5 -56.5t133.5 56.5t55.5 162.5t-55.5 162.5t-133.5 56.5t-132.5 -56.5t-54.5 -162.5zM207 655q0 34 24 57.5t59 23.5
t59 -23.5t24 -57.5q0 -33 -24 -57t-59 -24t-59 24t-24 57zM241 655q0 -20 14.5 -34t34.5 -14t34.5 14t14.5 34q0 21 -14.5 35t-34.5 14t-34.5 -14t-14.5 -35z" />
    <glyph glyph-name="atilde.ss01" horiz-adv-x="582" 
d="M270 -10q-100 0 -168 69t-68 201t68 201t168 69q61 0 113 -26t81 -76v92h59v-520h-59v92q-29 -50 -81 -76t-113 -26zM91 260q0 -106 54.5 -162.5t132.5 -56.5t133.5 56.5t55.5 162.5t-55.5 162.5t-133.5 56.5t-132.5 -56.5t-54.5 -162.5zM137 631q0 45 22.5 67.5
t58.5 22.5q24 0 44 -11t31.5 -24.5t28.5 -24.5t34 -11q24 0 35 15t10 34h41q0 -45 -22.5 -67.5t-58.5 -22.5q-24 0 -44 11t-32 24.5t-28.5 24.5t-34.5 11q-23 0 -34 -15t-10 -34h-41z" />
    <glyph glyph-name="g.ss01" horiz-adv-x="519" 
d="M258 -200q-94 0 -159 41t-65 122q0 53 28 88t74 50q-37 -1 -63.5 19.5t-26.5 55.5q0 27 17.5 46.5t48.5 23.5q-42 45 -42 114q0 78 52 122t134 44q87 0 137 -47q24 42 83 41v-46q-43 0 -59 -23q25 -39 25 -91q0 -79 -52 -123.5t-134 -44.5q-64 0 -109 27q-51 -4 -51 -42
q0 -47 95 -47h72q92 0 156.5 -40.5t64.5 -123.5q0 -57 -34.5 -96t-83.5 -54.5t-108 -15.5zM91 -33q0 -61 47.5 -90.5t120.5 -29.5t120.5 29t47.5 91q0 61 -47 90t-121 29q-73 0 -120.5 -29t-47.5 -90zM121 360q0 -57 35 -89.5t100 -32.5q64 0 99.5 32.5t35.5 89.5
q0 55 -35.5 87.5t-99.5 32.5t-99.5 -32t-35.5 -88z" />
    <glyph glyph-name="i.ss01" horiz-adv-x="178" 
d="M59 0v520h59v-520h-59zM59 646v63h59v-63h-59z" />
    <glyph glyph-name="l.ss01" horiz-adv-x="185" 
d="M164 -2q-54 -7 -79.5 12.5t-25.5 70.5v623h59v-622q0 -20 10.5 -30t35.5 -9v-45z" />
    <glyph glyph-name="a.ss02" horiz-adv-x="582" 
d="M270 -10q-100 0 -168 69t-68 201t68 201t168 69q61 0 113 -26t81 -76v92h59v-520h-59v92q-29 -50 -81 -76t-113 -26zM91 260q0 -106 54.5 -162.5t132.5 -56.5t133.5 56.5t55.5 162.5t-55.5 162.5t-133.5 56.5t-132.5 -56.5t-54.5 -162.5z" />
    <glyph glyph-name="aacute.ss02" horiz-adv-x="582" 
d="M270 -10q-100 0 -168 69t-68 201t68 201t168 69q61 0 113 -26t81 -76v92h59v-520h-59v92q-29 -50 -81 -76t-113 -26zM91 260q0 -106 54.5 -162.5t132.5 -56.5t133.5 56.5t55.5 162.5t-55.5 162.5t-133.5 56.5t-132.5 -56.5t-54.5 -162.5zM260 582l100 129h55l-100 -129
h-55z" />
    <glyph glyph-name="abreve.ss02" horiz-adv-x="582" 
d="M270 -10q-100 0 -168 69t-68 201t68 201t168 69q61 0 113 -26t81 -76v92h59v-520h-59v92q-29 -50 -81 -76t-113 -26zM91 260q0 -106 54.5 -162.5t132.5 -56.5t133.5 56.5t55.5 162.5t-55.5 162.5t-133.5 56.5t-132.5 -56.5t-54.5 -162.5zM156 711h43q4 -81 90 -81t90 81
h43q0 -52 -32 -86.5t-101 -34.5t-101 34.5t-32 86.5z" />
    <glyph glyph-name="uni01CE.ss02" horiz-adv-x="582" 
d="M270 -10q-100 0 -168 69t-68 201t68 201t168 69q61 0 113 -26t81 -76v92h59v-520h-59v92q-29 -50 -81 -76t-113 -26zM91 260q0 -106 54.5 -162.5t132.5 -56.5t133.5 56.5t55.5 162.5t-55.5 162.5t-133.5 56.5t-132.5 -56.5t-54.5 -162.5zM142 710h57l84 -103l84 103h57
l-102 -126h-78z" />
    <glyph glyph-name="acircumflex.ss02" horiz-adv-x="582" 
d="M270 -10q-100 0 -168 69t-68 201t68 201t168 69q61 0 113 -26t81 -76v92h59v-520h-59v92q-29 -50 -81 -76t-113 -26zM91 260q0 -106 54.5 -162.5t132.5 -56.5t133.5 56.5t55.5 162.5t-55.5 162.5t-133.5 56.5t-132.5 -56.5t-54.5 -162.5zM147 585l102 126h78l102 -126
h-57l-84 103l-84 -103h-57z" />
    <glyph glyph-name="adieresis.ss02" horiz-adv-x="582" 
d="M270 -10q-100 0 -168 69t-68 201t68 201t168 69q61 0 113 -26t81 -76v92h59v-520h-59v92q-29 -50 -81 -76t-113 -26zM91 260q0 -106 54.5 -162.5t132.5 -56.5t133.5 56.5t55.5 162.5t-55.5 162.5t-133.5 56.5t-132.5 -56.5t-54.5 -162.5zM161 677q0 17 12.5 29t28.5 12
t28.5 -12t12.5 -29t-12.5 -29t-28.5 -12t-28.5 12t-12.5 29zM334 677q0 17 12 29t29 12t29 -12t12 -29t-12 -29t-29 -12t-29 12t-12 29z" />
    <glyph glyph-name="agrave.ss02" horiz-adv-x="582" 
d="M270 -10q-100 0 -168 69t-68 201t68 201t168 69q61 0 113 -26t81 -76v92h59v-520h-59v92q-29 -50 -81 -76t-113 -26zM91 260q0 -106 54.5 -162.5t132.5 -56.5t133.5 56.5t55.5 162.5t-55.5 162.5t-133.5 56.5t-132.5 -56.5t-54.5 -162.5zM173 711h55l100 -129h-55z" />
    <glyph glyph-name="amacron.ss02" horiz-adv-x="582" 
d="M270 -10q-100 0 -168 69t-68 201t68 201t168 69q61 0 113 -26t81 -76v92h59v-520h-59v92q-29 -50 -81 -76t-113 -26zM91 260q0 -106 54.5 -162.5t132.5 -56.5t133.5 56.5t55.5 162.5t-55.5 162.5t-133.5 56.5t-132.5 -56.5t-54.5 -162.5zM147 671v40h285v-40h-285z" />
    <glyph glyph-name="aogonek.ss02" horiz-adv-x="582" 
d="M270 -10q-100 0 -168 69t-68 201t68 201t168 69q61 0 113 -26t81 -76v92h59v-519l1 -1q-56 0 -86 -23t-30 -60q0 -34 25.5 -51t66.5 -11v-38q-54 -11 -96.5 15.5t-42.5 79.5q0 44 30 73t73 35v72q-29 -50 -81 -76t-113 -26zM91 260q0 -106 54.5 -162.5t132.5 -56.5
t133.5 56.5t55.5 162.5t-55.5 162.5t-133.5 56.5t-132.5 -56.5t-54.5 -162.5z" />
    <glyph glyph-name="aring.ss02" horiz-adv-x="582" 
d="M270 -10q-100 0 -168 69t-68 201t68 201t168 69q61 0 113 -26t81 -76v92h59v-520h-59v92q-29 -50 -81 -76t-113 -26zM91 260q0 -106 54.5 -162.5t132.5 -56.5t133.5 56.5t55.5 162.5t-55.5 162.5t-133.5 56.5t-132.5 -56.5t-54.5 -162.5zM207 655q0 34 24 57.5t59 23.5
t59 -23.5t24 -57.5q0 -33 -24 -57t-59 -24t-59 24t-24 57zM241 655q0 -20 14.5 -34t34.5 -14t34.5 14t14.5 34q0 21 -14.5 35t-34.5 14t-34.5 -14t-14.5 -35z" />
    <glyph glyph-name="atilde.ss02" horiz-adv-x="582" 
d="M270 -10q-100 0 -168 69t-68 201t68 201t168 69q61 0 113 -26t81 -76v92h59v-520h-59v92q-29 -50 -81 -76t-113 -26zM91 260q0 -106 54.5 -162.5t132.5 -56.5t133.5 56.5t55.5 162.5t-55.5 162.5t-133.5 56.5t-132.5 -56.5t-54.5 -162.5zM137 631q0 45 22.5 67.5
t58.5 22.5q24 0 44 -11t31.5 -24.5t28.5 -24.5t34 -11q24 0 35 15t10 34h41q0 -45 -22.5 -67.5t-58.5 -22.5q-24 0 -44 11t-32 24.5t-28.5 24.5t-34.5 11q-23 0 -34 -15t-10 -34h-41z" />
    <glyph glyph-name="a.ss03" horiz-adv-x="520" 
d="M202 -10q-78 0 -123 35.5t-45 102.5q0 62 42 97.5t132 47.5l114 16q85 12 85 35v32q0 68 -35.5 98t-107.5 30q-141 0 -141 -107v-11h-57v15q0 149 201 149q101 0 150 -41.5t49 -133.5v-290q0 -15 7 -22.5t22 -6.5v-38q-8 -4 -25 -4q-61 0 -61 56v44h-2q-16 -34 -68.5 -69
t-136.5 -35zM93 131q0 -92 119 -92q89 0 142 49t53 89v100q-1 -21 -78 -32l-109 -15q-71 -11 -99 -35.5t-28 -63.5z" />
    <glyph glyph-name="g.ss03" horiz-adv-x="519" 
d="M258 -200q-94 0 -159 41t-65 122q0 53 28 88t74 50q-37 -1 -63.5 19.5t-26.5 55.5q0 27 17.5 46.5t48.5 23.5q-42 45 -42 114q0 78 52 122t134 44q87 0 137 -47q24 42 83 41v-46q-43 0 -59 -23q25 -39 25 -91q0 -79 -52 -123.5t-134 -44.5q-64 0 -109 27q-51 -4 -51 -42
q0 -47 95 -47h72q92 0 156.5 -40.5t64.5 -123.5q0 -57 -34.5 -96t-83.5 -54.5t-108 -15.5zM91 -33q0 -61 47.5 -90.5t120.5 -29.5t120.5 29t47.5 91q0 61 -47 90t-121 29q-73 0 -120.5 -29t-47.5 -90zM121 360q0 -57 35 -89.5t100 -32.5q64 0 99.5 32.5t35.5 89.5
q0 55 -35.5 87.5t-99.5 32.5t-99.5 -32t-35.5 -88z" />
    <glyph glyph-name="l.ss04" horiz-adv-x="185" 
d="M164 -2q-54 -7 -79.5 12.5t-25.5 70.5v623h59v-622q0 -20 10.5 -30t35.5 -9v-45z" />
    <glyph glyph-name="f_t" horiz-adv-x="616" 
d="M24 471v49h72v79q0 117 123 117h49v-48h-34q-43 0 -61 -17.5t-18 -62.5v-68h261v129h59v-129h104v-50h-104v-346q0 -45 18 -63t61 -18q21 0 33 2v-47q-25 -5 -51 -5q-120 0 -120 118v359h-83v1h-178v-471h-59v471h-72z" />
    <glyph glyph-name="r_t" horiz-adv-x="577" 
d="M497 -7q-57 0 -89 26.5t-32 91.5v359h-61q-94 0 -145.5 -49.5t-51.5 -132.5v-288h-59v520h59v-130h2q11 52 59.5 91t137.5 39h59v129h59v-129h104v-50h-104v-346q0 -45 18 -63t61 -18q22 0 34 2v-47q-27 -5 -51 -5z" />
    <glyph glyph-name="zero.dnom" horiz-adv-x="281" 
d="M140 -2q-47 0 -76 35t-29 91v13q0 56 29 91t76 35t76.5 -35t29.5 -91v-13q0 -56 -29.5 -91t-76.5 -35zM63 124q0 -47 22 -73.5t55 -26.5q34 0 56 26.5t22 73.5v13q0 47 -22 73.5t-56 26.5q-33 0 -55 -26.5t-22 -73.5v-13z" />
    <glyph glyph-name="one.dnom" horiz-adv-x="165" 
d="M92 222q-15 -26 -52 -23v26q17 0 31.5 11t20.5 25h28v-261h-28v222z" />
    <glyph glyph-name="two.dnom" horiz-adv-x="250" 
d="M40 9q0 36 17.5 63t57.5 53q23 14 32.5 21t17 19t7.5 27q0 21 -13.5 33.5t-37.5 12.5t-38 -14t-14 -39v-6h-29v6q0 36 22 58t59 22t58.5 -20.5t21.5 -52.5q0 -28 -17.5 -47.5t-54.5 -42.5q-59 -35 -59 -73v-3h135v-26h-165v9z" />
    <glyph glyph-name="three.dnom" horiz-adv-x="266" 
d="M133 -4q-44 0 -68.5 23t-24.5 62h28q1 -60 66 -60q28 0 46 13.5t18 39.5q0 51 -70 51h-11v23h11q28 0 43.5 14t15.5 33q0 20 -14.5 32.5t-39.5 12.5q-57 0 -57 -57h-27q0 39 22.5 60.5t61.5 21.5q38 0 59.5 -19.5t21.5 -49.5q0 -21 -13 -36.5t-34 -20.5q24 -5 41.5 -21.5
t17.5 -45.5q0 -33 -24.5 -54.5t-68.5 -21.5z" />
    <glyph glyph-name="four.dnom" horiz-adv-x="257" 
d="M160 0v66h-120v23l120 172h27v-172h30v-23h-30v-66h-27zM67 89h93v134z" />
    <glyph glyph-name="five.dnom" horiz-adv-x="242" 
d="M120 -5q-42 0 -66 23t-24 62h26q1 -25 17 -42.5t47 -17.5q30 0 47.5 18t17.5 48q0 33 -19 48.5t-43 15.5q-36 0 -59 -29h-28l22 140h132v-26h-112l-14 -89q19 27 64 27q34 0 59 -23.5t25 -64.5t-25 -65.5t-67 -24.5z" />
    <glyph glyph-name="six.dnom" horiz-adv-x="264" 
d="M135 -5q-42 0 -68.5 31t-26.5 98q0 140 94 140q40 0 60 -21t22 -49h-25q-6 46 -57 46q-21 0 -35 -10t-20.5 -29.5t-8.5 -34t-3 -36.5q21 39 72 39q35 0 60 -20.5t25 -62.5q0 -45 -25.5 -68t-63.5 -23zM72 87q0 -29 18 -47.5t46 -18.5q27 0 43.5 16t16.5 49q0 30 -17 45.5
t-43 15.5q-28 0 -46 -16.5t-18 -43.5z" />
    <glyph glyph-name="seven.dnom" horiz-adv-x="224" 
d="M57 0l111 235h-148v26h174v-26l-109 -235h-28z" />
    <glyph glyph-name="eight.dnom" horiz-adv-x="231" 
d="M116 -2q-40 0 -65.5 20t-25.5 55q0 48 48 70q-32 17 -32 56q0 26 20 45t55 19t54.5 -19t19.5 -45q0 -38 -31 -56q47 -22 47 -70q0 -35 -25.5 -55t-64.5 -20zM51 74q0 -25 18 -39t47 -14t47 14t18 39q0 27 -18.5 41t-46.5 14t-46.5 -14t-18.5 -41zM65 198q0 -20 14.5 -33
t36.5 -13q21 0 35.5 13t14.5 33q0 19 -12.5 31t-37.5 12q-26 0 -38.5 -12t-12.5 -31z" />
    <glyph glyph-name="nine.dnom" horiz-adv-x="264" 
d="M130 -5q-39 0 -59.5 21.5t-22.5 48.5h25q8 -46 57 -46q64 0 67 110q-7 -16 -26.5 -27.5t-45.5 -11.5q-35 0 -60 20.5t-25 62.5q0 45 25.5 68t63.5 23q42 0 68.5 -31t26.5 -98q0 -140 -94 -140zM68 173q0 -30 17 -45.5t44 -15.5t45 16.5t18 43.5q0 29 -18 47.5t-46 18.5
q-27 0 -43.5 -16t-16.5 -49z" />
    <glyph glyph-name="zero.numr" horiz-adv-x="281" 
d="M140 438q-47 0 -76 35t-29 91v13q0 56 29 91t76 35t76.5 -35t29.5 -91v-13q0 -56 -29.5 -91t-76.5 -35zM63 564q0 -47 22 -73.5t55 -26.5q34 0 56 26.5t22 73.5v13q0 47 -22 73.5t-56 26.5q-33 0 -55 -26.5t-22 -73.5v-13z" />
    <glyph glyph-name="one.numr" horiz-adv-x="165" 
d="M92 661q-15 -26 -52 -23v26q17 0 31.5 11t20.5 25h28v-261h-28v222z" />
    <glyph glyph-name="two.numr" horiz-adv-x="250" 
d="M40 449q0 36 17.5 63t57.5 53q23 14 32.5 21t17 19t7.5 27q0 21 -13.5 33.5t-37.5 12.5t-38 -14t-14 -39v-6h-29v6q0 36 22 58t59 22t58.5 -20.5t21.5 -52.5q0 -28 -17.5 -47.5t-54.5 -42.5q-59 -35 -59 -73v-3h135v-26h-165v9z" />
    <glyph glyph-name="three.numr" horiz-adv-x="266" 
d="M133 436q-44 0 -68.5 23t-24.5 62h28q1 -60 66 -60q28 0 46 13.5t18 39.5q0 51 -70 51h-11v23h11q28 0 43.5 14t15.5 33q0 20 -14.5 32.5t-39.5 12.5q-57 0 -57 -57h-27q0 39 22.5 60.5t61.5 21.5q38 0 59.5 -19.5t21.5 -49.5q0 -21 -13 -36.5t-34 -20.5
q24 -5 41.5 -21.5t17.5 -45.5q0 -33 -24.5 -54.5t-68.5 -21.5z" />
    <glyph glyph-name="four.numr" horiz-adv-x="257" 
d="M160 440v66h-120v23l120 172h27v-172h30v-23h-30v-66h-27zM67 529h93v134z" />
    <glyph glyph-name="five.numr" horiz-adv-x="242" 
d="M120 435q-42 0 -66 23t-24 62h26q1 -25 17 -42.5t47 -17.5q30 0 47.5 18t17.5 48q0 33 -19 48.5t-43 15.5q-36 0 -59 -29h-28l22 140h132v-26h-112l-14 -89q19 27 64 27q34 0 59 -23.5t25 -64.5t-25 -65.5t-67 -24.5z" />
    <glyph glyph-name="six.numr" horiz-adv-x="264" 
d="M135 434q-42 0 -68.5 31t-26.5 98q0 140 94 140q40 0 60 -21t22 -49h-25q-6 46 -57 46q-21 0 -35 -10t-20.5 -29.5t-8.5 -34t-3 -36.5q21 39 72 39q35 0 60 -20.5t25 -62.5q0 -45 -25.5 -68t-63.5 -23zM72 526q0 -29 18 -47.5t46 -18.5q27 0 43.5 16t16.5 49
q0 30 -17 45.5t-43 15.5q-28 0 -46 -16.5t-18 -43.5z" />
    <glyph glyph-name="seven.numr" horiz-adv-x="224" 
d="M57 440l111 235h-148v26h174v-26l-109 -235h-28z" />
    <glyph glyph-name="eight.numr" horiz-adv-x="231" 
d="M116 438q-40 0 -65.5 20t-25.5 55q0 48 48 70q-32 17 -32 56q0 26 20 45t55 19t54.5 -19t19.5 -45q0 -38 -31 -56q47 -22 47 -70q0 -35 -25.5 -55t-64.5 -20zM51 514q0 -25 18 -39t47 -14t47 14t18 39q0 27 -18.5 41t-46.5 14t-46.5 -14t-18.5 -41zM65 638
q0 -20 14.5 -33t36.5 -13q21 0 35.5 13t14.5 33q0 19 -12.5 31t-37.5 12q-26 0 -38.5 -12t-12.5 -31z" />
    <glyph glyph-name="nine.numr" horiz-adv-x="264" 
d="M130 435q-39 0 -59.5 21.5t-22.5 48.5h25q8 -46 57 -46q64 0 67 110q-7 -16 -26.5 -27.5t-45.5 -11.5q-35 0 -60 20.5t-25 62.5q0 45 25.5 68t63.5 23q42 0 68.5 -31t26.5 -98q0 -140 -94 -140zM68 613q0 -30 17 -45.5t44 -15.5t45 16.5t18 43.5q0 29 -18 47.5t-46 18.5
q-27 0 -43.5 -16t-16.5 -49z" />
    <glyph glyph-name="period.ss01" horiz-adv-x="176" 
d="M50 0v82h76v-82h-76z" />
    <glyph glyph-name="uni03060301" horiz-adv-x="0" 
d="M138 590q-69 0 -101 34.5t-32 86.5h43q4 -81 90 -81t90 81h43q0 -52 -32 -86.5t-101 -34.5zM107 743l100 129h55l-100 -129h-55z" />
    <glyph glyph-name="uni03060300" horiz-adv-x="0" 
d="M138 590q-69 0 -101 34.5t-32 86.5h43q4 -81 90 -81t90 81h43q0 -52 -32 -86.5t-101 -34.5zM12 872h55l100 -129h-55z" />
    <glyph glyph-name="uni03060309" horiz-adv-x="0" 
d="M138 590q-69 0 -101 34.5t-32 86.5h43q4 -81 90 -81t90 81h43q0 -52 -32 -86.5t-101 -34.5zM29 801q0 40 26.5 62.5t62.5 22.5q38 0 66 -24.5t28 -67.5q0 -41 -25 -65.5t-60 -28.5l-21 30q31 1 49 17t18 45q0 27 -15 42.5t-40 15.5q-23 0 -38 -13t-16 -36h-35z" />
    <glyph glyph-name="uni03060303" horiz-adv-x="0" 
d="M138 590q-69 0 -101 34.5t-32 86.5h43q4 -81 90 -81t90 81h43q0 -52 -32 -86.5t-101 -34.5zM-14 792q0 45 22.5 67.5t58.5 22.5q30 0 53.5 -18t43 -35.5t41.5 -17.5q24 0 35 15t10 34h41q0 -45 -22.5 -67.5t-58.5 -22.5q-30 0 -53.5 18t-43.5 35.5t-42 17.5
q-23 0 -34 -15t-10 -34h-41z" />
    <glyph glyph-name="uni03020301" horiz-adv-x="0" 
d="M0 585l102 126h78l102 -126h-57l-84 103l-84 -103h-57zM234 680l100 129h55l-100 -129h-55z" />
    <glyph glyph-name="uni03020300" horiz-adv-x="0" 
d="M263 679l-96 129h55l97 -129h-56zM0 585l102 126h78l102 -126h-57l-84 103l-84 -103h-57z" />
    <glyph glyph-name="uni03020309" horiz-adv-x="0" 
d="M0 585l102 126h78l102 -126h-57l-84 103l-84 -103h-57zM155 800q0 40 26.5 62.5t62.5 22.5q38 0 66 -24.5t28 -67.5q0 -41 -25 -65.5t-60 -28.5l-21 30q31 1 49 17t18 45q0 27 -15 42.5t-40 15.5q-23 0 -38 -13t-16 -36h-35z" />
    <glyph glyph-name="uni03020303" horiz-adv-x="0" 
d="M0 585l102 126h78l102 -126h-57l-84 103l-84 -103h-57zM-10 787q0 45 22.5 67.5t58.5 22.5q24 0 44 -11t31.5 -24.5t28.5 -24.5t34 -11q24 0 35 15t10 34h41q0 -45 -22.5 -67.5t-58.5 -22.5q-24 0 -44 11t-32 24.5t-28.5 24.5t-34.5 11q-23 0 -34 -15t-10 -34h-41z" />
    </font>
</defs>
</svg>
