<?xml version="1.0" standalone="no"?>
<!DOCTYPE svg PUBLIC "-//W3C//DTD SVG 1.1//EN" "http://www.w3.org/Graphics/SVG/1.1/DTD/svg11.dtd" >
<svg xmlns="http://www.w3.org/2000/svg" xmlns:xlink="http://www.w3.org/1999/xlink" version="1.1">
<metadata>
Created by FontForge 20190801 at Wed Mar 30 20:57:51 2022
 By www-data
Copyright (c) 2022 by Connary Fagen. All rights reserved.
</metadata>
<defs>
<font id="articulatecfdemibold" horiz-adv-x="591" >
  <font-face 
    font-family="articulatecfdemibold"
    font-weight="600"
    font-stretch="normal"
    units-per-em="1000"
    panose-1="0 0 0 0 0 0 0 0 0 0"
    ascent="800"
    descent="-200"
    x-height="520"
    cap-height="700"
    bbox="-173 -311 1047 1082"
    underline-thickness="50"
    underline-position="-125"
    unicode-range="U+0020-A78C"
  />
<missing-glyph horiz-adv-x="717" 
d="M54 0v700h610v-700h-610zM105 52h507v596h-507v-596zM143 90l188 263l-185 257h58l154 -218l153 218h59l-185 -257l188 -263h-58l-157 225l-157 -225h-58z" />
    <glyph glyph-name=".notdef" horiz-adv-x="717" 
d="M54 0v700h610v-700h-610zM105 52h507v596h-507v-596zM143 90l188 263l-185 257h58l154 -218l153 218h59l-185 -257l188 -263h-58l-157 225l-157 -225h-58z" />
    <glyph glyph-name=".null" horiz-adv-x="0" 
 />
    <glyph glyph-name="nonmarkingreturn" horiz-adv-x="333" 
 />
    <glyph glyph-name="space" unicode=" " horiz-adv-x="230" 
 />
    <glyph glyph-name="exclam" unicode="!" horiz-adv-x="266" 
d="M84 230l-16 470h130l-15 -470h-99zM54 68q0 33 23 56t56 23t56.5 -23t23.5 -56q0 -32 -23.5 -55t-56.5 -23t-56 23t-23 55z" />
    <glyph glyph-name="quotedbl" unicode="&#x22;" horiz-adv-x="414" 
d="M252 419v281h122v-281h-122zM40 419v281h122v-281h-122z" />
    <glyph glyph-name="numbersign" unicode="#" horiz-adv-x="597" 
d="M333 0l18 177h-138l-18 -177h-79l18 177h-90v80h98l18 186h-90v80h98l18 177h79l-18 -177h138l18 177h79l-18 -177h90v-80h-98l-18 -186h90v-80h-98l-18 -177h-79zM221 257h138l18 186h-138z" />
    <glyph glyph-name="dollar" unicode="$" horiz-adv-x="619" 
d="M286 -9q-117 7 -182 67.5t-65 163.5h130q7 -110 117 -121v207l-36 8q-191 43 -191 193q0 90 60.5 142t166.5 57v82h54v-82q105 -7 163.5 -60.5t58.5 -146.5h-130q0 41 -24.5 66t-67.5 30v-187l27 -7q112 -26 162.5 -73t50.5 -128q0 -98 -65.5 -152t-174.5 -59v-81h-54v81
zM190 511q0 -69 96 -91v178q-49 -4 -72.5 -27.5t-23.5 -59.5zM340 101q52 4 80 29.5t28 69.5q0 42 -27 64.5t-81 34.5v-198z" />
    <glyph glyph-name="percent" unicode="%" horiz-adv-x="741" 
d="M121 113l-53 73l552 402l53 -73zM39 552q0 75 40.5 116.5t103.5 41.5t104 -41.5t41 -116.5q0 -78 -41 -119.5t-104 -41.5t-103.5 41.5t-40.5 119.5zM130 552q0 -39 15.5 -57t37.5 -18t37.5 18t15.5 57q0 38 -15.5 55t-37.5 17t-37.5 -17t-15.5 -55zM413 152
q0 75 41 116.5t104 41.5t104 -41.5t41 -116.5q0 -78 -41 -119.5t-104 -41.5t-104 41.5t-41 119.5zM505 152q0 -75 53 -75t53 75q0 38 -15.5 55t-37.5 17t-37.5 -17t-15.5 -55z" />
    <glyph glyph-name="ampersand" unicode="&#x26;" horiz-adv-x="712" 
d="M295 -10q-112 0 -184 57.5t-72 149.5q0 69 38.5 115t107.5 85q-71 86 -71 155q0 65 48 111t140 46q89 0 137 -45t48 -113q0 -114 -136 -180l137 -151q30 65 30 150h113q0 -142 -62 -238l120 -132h-143l-49 54q-86 -64 -202 -64zM171 209q0 -48 37.5 -81t98.5 -33
q63 0 115 40l-172 189q-79 -46 -79 -115zM225 553q0 -39 59 -107q90 49 90 105q0 32 -20.5 50.5t-53.5 18.5q-34 0 -54.5 -19t-20.5 -48z" />
    <glyph glyph-name="quotesingle" unicode="'" horiz-adv-x="202" 
d="M40 419v281h122v-281h-122z" />
    <glyph glyph-name="parenleft" unicode="(" horiz-adv-x="319" 
d="M151 -130q-106 189 -106 450q0 248 106 425h123q-101 -183 -101 -425q0 -256 101 -450h-123z" />
    <glyph glyph-name="parenright" unicode=")" horiz-adv-x="319" 
d="M45 -130q101 194 101 450q0 242 -101 425h123q106 -177 106 -425q0 -261 -106 -450h-123z" />
    <glyph glyph-name="asterisk" unicode="*" horiz-adv-x="516" 
d="M180 320l-75 50l83 113l-129 33l22 86l134 -37l-4 135h94l-4 -135l134 37l22 -86l-130 -33l82 -113l-74 -50l-77 114z" />
    <glyph glyph-name="plus" unicode="+" horiz-adv-x="588" 
d="M234 45v181h-180v112h180v180h119v-180h181v-112h-181v-181h-119z" />
    <glyph glyph-name="comma" unicode="," horiz-adv-x="245" 
d="M60 -69q39 1 56 16t17 46q-44 0 -69 22.5t-25 56.5q0 33 22 54t56 21q40 0 65 -29.5t25 -88.5q0 -71 -37.5 -111.5t-99.5 -40.5h-10v54z" />
    <glyph glyph-name="hyphen" unicode="-" horiz-adv-x="379" 
d="M40 229v96h299v-96h-299z" />
    <glyph glyph-name="period" unicode="." horiz-adv-x="236" 
d="M118 -10q-33 0 -56 23t-23 55q0 33 23 56t56 23t56.5 -23t23.5 -56q0 -32 -23.5 -55t-56.5 -23z" />
    <glyph glyph-name="slash" unicode="/" horiz-adv-x="461" 
d="M30 0l272 700h129l-273 -700h-128z" />
    <glyph glyph-name="zero" unicode="0" horiz-adv-x="633" 
d="M317 -10q-117 0 -197.5 89t-80.5 271q0 93 23.5 164.5t63 112.5t88 61.5t103.5 20.5t103.5 -20.5t88 -61.5t63 -112.5t23.5 -164.5q0 -182 -80.5 -271t-197.5 -89zM161 350q0 -112 38.5 -182t117.5 -70q78 0 116.5 70t38.5 182q0 111 -38.5 181t-116.5 70
q-79 0 -117.5 -70t-38.5 -181z" />
    <glyph glyph-name="one" unicode="1" horiz-adv-x="386" 
d="M184 541q-48 -51 -145 -53v105q116 13 145 107h128v-700h-128v541z" />
    <glyph glyph-name="two" unicode="2" horiz-adv-x="569" 
d="M40 32q0 98 41 166t147 130q9 6 30.5 18t30 17.5t25.5 16t24 17t19 16.5t17.5 18.5t11.5 19.5t8.5 23t2.5 25q1 52 -31 76.5t-79 24.5q-50 0 -82 -29.5t-32 -90.5v-14h-124v20q0 99 60.5 161t178.5 62q113 0 175 -55.5t62 -146.5q0 -32 -7 -59.5t-24 -51t-30.5 -39.5
t-42 -35.5t-42 -27.5t-46.5 -27q-79 -46 -113 -81.5t-34 -74.5v-5h338v-106h-484v32z" />
    <glyph glyph-name="three" unicode="3" 
d="M288 -10q-127 0 -191 65.5t-63 178.5h120q1 -68 39.5 -101.5t99.5 -33.5q56 0 95.5 28.5t39.5 82.5q0 50 -36.5 79.5t-109.5 29.5h-38v94h32q126 0 126 94q0 45 -30.5 68.5t-77.5 23.5q-51 0 -84 -29.5t-34 -94.5h-119q0 112 62 173t177 61q106 0 168 -50t62 -131
q0 -62 -33.5 -101.5t-81.5 -52.5q53 -7 100 -50t47 -122q0 -94 -73.5 -153t-196.5 -59z" />
    <glyph glyph-name="four" unicode="4" horiz-adv-x="584" 
d="M343 0v170h-309v103l309 427h128v-427h80v-103h-80v-170h-128zM146 273h197v272z" />
    <glyph glyph-name="five" unicode="5" horiz-adv-x="588" 
d="M298 -10q-120 0 -187.5 64t-66.5 166h116q2 -61 41.5 -93.5t93.5 -32.5q56 0 97 35t41 110q0 76 -40.5 110t-95.5 34q-40 0 -73.5 -17.5t-49.5 -49.5h-119l58 384h382v-102h-294l-26 -176q12 18 52 38.5t103 20.5q101 0 165.5 -65t64.5 -177q0 -118 -71 -183.5
t-191 -65.5z" />
    <glyph glyph-name="six" unicode="6" horiz-adv-x="601" 
d="M309 -10q-118 0 -191.5 87.5t-73.5 271.5q0 163 66 261.5t206 98.5q111 0 170 -59.5t58 -136.5h-113q-6 47 -38.5 70.5t-79.5 23.5q-45 0 -76.5 -21.5t-46.5 -57.5t-20.5 -69t-5.5 -70q66 76 169 76q43 0 82 -13.5t73 -40t54 -73.5t20 -107q0 -63 -23 -111.5t-61 -75.5
t-80.5 -40.5t-88.5 -13.5zM177 233q0 -67 39 -103t92 -36q54 0 93 36t39 103q0 66 -39 100.5t-93 34.5t-92.5 -34.5t-38.5 -100.5z" />
    <glyph glyph-name="seven" unicode="7" horiz-adv-x="505" 
d="M116 0q24 276 232 595h-318v105h440v-105q-212 -322 -234 -595h-120z" />
    <glyph glyph-name="eight" unicode="8" horiz-adv-x="573" 
d="M287 -10q-111 0 -182 56t-71 154q0 128 121 181q-40 22 -60.5 61t-20.5 86q0 80 57.5 130.5t155.5 50.5t155 -50.5t57 -130.5q0 -47 -20.5 -86t-60.5 -61q122 -54 122 -181q0 -98 -71.5 -154t-181.5 -56zM157 210q0 -50 33.5 -81t96.5 -31q62 0 95.5 31.5t33.5 80.5
q0 51 -34.5 82.5t-94.5 31.5q-61 0 -95.5 -31.5t-34.5 -82.5zM194 520q0 -40 23.5 -63.5t69.5 -23.5t69 23.5t23 63.5q0 82 -92 82q-93 0 -93 -82z" />
    <glyph glyph-name="nine" unicode="9" horiz-adv-x="601" 
d="M292 708q118 0 191.5 -87.5t73.5 -271.5q0 -78 -15 -141.5t-46.5 -113.5t-85 -77.5t-125.5 -27.5q-111 0 -170 59.5t-58 136.5h113q6 -47 38.5 -70.5t79.5 -23.5q45 0 76.5 21.5t46.5 57.5t20.5 69t5.5 70q-66 -76 -169 -76q-43 0 -82 13.5t-73 40t-54 73.5t-20 107
q0 63 23 111.5t61 75.5t80.5 40.5t88.5 13.5zM161 465q0 -66 39 -100.5t93 -34.5t92.5 34.5t38.5 100.5q0 67 -39 103t-92 36q-54 0 -93 -36t-39 -103z" />
    <glyph glyph-name="colon" unicode=":" horiz-adv-x="236" 
d="M118 -10q-33 0 -56 23t-23 55q0 33 23 56t56 23t56.5 -23t23.5 -56q0 -32 -23.5 -55t-56.5 -23zM39 441q0 33 23 56t56 23t56.5 -23t23.5 -56q0 -32 -23.5 -55t-56.5 -23t-56 23t-23 55z" />
    <glyph glyph-name="semicolon" unicode=";" horiz-adv-x="245" 
d="M118 363q-33 0 -56 23t-23 55q0 33 23 56t56 23t56.5 -23t23.5 -56q0 -32 -23.5 -55t-56.5 -23zM39 72q0 33 22 54t56 21q40 0 65 -29.5t25 -88.5q0 -71 -37.5 -111.5t-99.5 -40.5h-10v54q39 1 56 16t17 46q-44 0 -69 22.5t-25 56.5z" />
    <glyph glyph-name="less" unicode="&#x3c;" horiz-adv-x="507" 
d="M462 0l-417 186v111l417 185v-119l-301 -122l301 -121v-120z" />
    <glyph glyph-name="equal" unicode="=" horiz-adv-x="431" 
d="M54 149v96h323v-96h-323zM54 309v96h323v-96h-323z" />
    <glyph glyph-name="greater" unicode="&#x3e;" horiz-adv-x="507" 
d="M45 0v120l301 121l-301 122v119l417 -185v-111z" />
    <glyph glyph-name="question" unicode="?" horiz-adv-x="554" 
d="M222 250q0 46 16.5 81t40 55.5t46.5 37.5t39.5 37.5t16.5 46.5q0 38 -24.5 63.5t-73.5 25.5q-110 0 -110 -127h-128q-1 120 65.5 178.5t172.5 58.5q101 0 163.5 -52.5t62.5 -146.5q0 -42 -15.5 -72t-37.5 -48t-44.5 -35t-38 -42.5t-15.5 -60.5v-31h-136v31zM209 68
q0 33 23 56t56 23t56.5 -23t23.5 -56q0 -32 -23.5 -55t-56.5 -23t-56 23t-23 55z" />
    <glyph glyph-name="at" unicode="@" horiz-adv-x="789" 
d="M407 -10q-157 0 -262.5 96.5t-105.5 262.5q0 164 104.5 262t258.5 98q152 0 250 -93.5t98 -244.5q0 -97 -40.5 -146.5t-102.5 -49.5q-47 0 -75.5 25t-35.5 59q-6 -33 -39 -59t-80 -26q-60 0 -104.5 44.5t-44.5 124.5q0 82 43.5 127t104.5 45q50 0 80 -29t34 -70l9 89h59
v-177q0 -89 50 -89q34 0 51 37t17 94q0 121 -74.5 194.5t-200.5 73.5q-127 0 -208 -77t-81 -210q0 -135 84 -212.5t218 -77.5q62 0 110 16v-70q-51 -17 -117 -17zM301 345q0 -41 22.5 -72t63.5 -31t63.5 30t22.5 73q0 42 -23 72t-64 30t-63 -30.5t-22 -71.5z" />
    <glyph glyph-name="A" unicode="A" horiz-adv-x="719" 
d="M19 0l257 700h168l257 -700h-139l-50 143h-305l-50 -143h-138zM242 241h236l-114 324h-8z" />
    <glyph glyph-name="B" unicode="B" horiz-adv-x="629" 
d="M54 0v700h278q111 0 166.5 -46.5t55.5 -126.5q0 -109 -103 -143q150 -38 150 -180q0 -91 -65 -147.5t-194 -56.5h-288zM185 111h151q66 0 97.5 29.5t31.5 77.5q0 49 -31.5 79t-97.5 30h-151v-216zM185 414h141q44 0 69.5 22.5t25.5 67.5q0 85 -95 85h-141v-175z" />
    <glyph glyph-name="C" unicode="C" horiz-adv-x="681" 
d="M364 -10q-150 0 -237.5 95t-87.5 265q0 169 88 264t238 95q118 0 196 -61t90 -181h-128q-15 64 -57.5 96t-103.5 32q-93 0 -141 -66.5t-48 -178.5q0 -113 47.5 -179.5t141.5 -66.5q61 0 103.5 32t57.5 97h128q-12 -120 -90 -181.5t-197 -61.5z" />
    <glyph glyph-name="D" unicode="D" horiz-adv-x="678" 
d="M54 0v700h254q163 0 247 -90.5t84 -259.5t-84 -259.5t-247 -90.5h-254zM185 115h110q113 0 161.5 55.5t48.5 179.5t-48.5 179.5t-161.5 55.5h-110v-470z" />
    <glyph glyph-name="E" unicode="E" horiz-adv-x="561" 
d="M54 0v700h469v-115h-338v-178h308v-103h-308v-189h348v-115h-479z" />
    <glyph glyph-name="F" unicode="F" horiz-adv-x="541" 
d="M54 0v700h457v-115h-326v-185h269v-107h-269v-293h-131z" />
    <glyph glyph-name="G" unicode="G" horiz-adv-x="708" 
d="M363 -10q-154 0 -239 94t-85 263q0 172 87 267t235 95q113 0 192 -56t96 -163h-131q-29 105 -157 105q-96 0 -143 -65.5t-47 -178.5t48 -180t144 -67q73 0 122 41t49 127h-146v106h277v-66q0 -157 -79 -239.5t-223 -82.5z" />
    <glyph glyph-name="H" unicode="H" horiz-adv-x="670" 
d="M485 0v293h-300v-293h-131v700h131v-298h300v298h131v-700h-131z" />
    <glyph glyph-name="I" unicode="I" horiz-adv-x="238" 
d="M54 0v700h131v-700h-131z" />
    <glyph glyph-name="J" unicode="J" horiz-adv-x="668" 
d="M333 -10q-130 0 -204.5 70t-74.5 205h132q0 -79 39 -119.5t109 -40.5q71 0 110 42.5t39 127.5v425h131v-436q0 -133 -76 -203.5t-205 -70.5z" />
    <glyph glyph-name="K" unicode="K" horiz-adv-x="683" 
d="M54 0v700h131v-346l298 346h155l-273 -315l300 -385h-152l-229 292l-99 -115v-177h-131z" />
    <glyph glyph-name="L" unicode="L" horiz-adv-x="545" 
d="M54 0v700h131v-585h332v-115h-463z" />
    <glyph glyph-name="M" unicode="M" horiz-adv-x="843" 
d="M54 0v700h164l204 -523l204 523h164v-700h-131v470h-5l-182 -470h-100l-183 470h-4v-470h-131z" />
    <glyph glyph-name="N" unicode="N" horiz-adv-x="686" 
d="M54 0v700h138l306 -491h3v491h132v-700h-144l-301 483h-3v-483h-131z" />
    <glyph glyph-name="O" unicode="O" horiz-adv-x="736" 
d="M368 -10q-148 0 -238.5 98.5t-90.5 261.5q0 164 90.5 261.5t238.5 97.5t239 -97.5t91 -261.5q0 -163 -91 -261.5t-239 -98.5zM174 350q0 -115 52 -180.5t142 -65.5t142 65.5t52 180.5t-52 180t-142 65t-142 -65t-52 -180z" />
    <glyph glyph-name="P" unicode="P" horiz-adv-x="619" 
d="M54 0v700h275q131 0 196.5 -61.5t65.5 -167.5q0 -105 -65.5 -166.5t-196.5 -61.5h-144v-243h-131zM185 358h139q131 0 131 113q0 114 -131 114h-139v-227z" />
    <glyph glyph-name="Q" unicode="Q" horiz-adv-x="736" 
d="M616 -20l-62 63q-81 -53 -186 -53q-148 0 -238.5 98.5t-90.5 261.5q0 164 90.5 261.5t238.5 97.5t239 -97.5t91 -261.5q0 -137 -66 -231l63 -64zM174 350q0 -115 52 -180.5t142 -65.5q57 0 99 27l-105 106l79 75l96 -97q25 58 25 135q0 115 -52 180t-142 65t-142 -65
t-52 -180z" />
    <glyph glyph-name="R" unicode="R" horiz-adv-x="626" 
d="M54 0v700h275q131 0 196.5 -61.5t65.5 -167.5q0 -164 -146 -211l152 -260h-131l-139 243h-142v-243h-131zM185 358h139q131 0 131 113q0 114 -131 114h-139v-227z" />
    <glyph glyph-name="S" unicode="S" horiz-adv-x="641" 
d="M324 -10q-134 0 -209.5 61.5t-75.5 170.5h135q3 -55 40 -88.5t111 -33.5q66 0 102 26.5t36 74.5q0 41 -27 63t-82 33l-96 19q-200 39 -200 193q0 95 70.5 147.5t192.5 52.5t192 -54t70 -154h-135q0 47 -34.5 72.5t-95.5 25.5q-63 0 -92.5 -25.5t-29.5 -64.5q0 -68 94 -88
l90 -18q117 -23 169.5 -71t52.5 -130q0 -104 -76.5 -158t-201.5 -54z" />
    <glyph glyph-name="T" unicode="T" horiz-adv-x="595" 
d="M232 0v583h-208v117h547v-117h-208v-583h-131z" />
    <glyph glyph-name="U" unicode="U" horiz-adv-x="674" 
d="M337 -10q-131 0 -207 70.5t-76 204.5v435h132v-425q0 -83 39.5 -126.5t111.5 -43.5t111 43.5t39 126.5v425h133v-435q0 -134 -76.5 -204.5t-206.5 -70.5z" />
    <glyph glyph-name="V" unicode="V" horiz-adv-x="729" 
d="M281 0l-257 700h138l199 -565h8l198 565h139l-257 -700h-168z" />
    <glyph glyph-name="W" unicode="W" horiz-adv-x="1002" 
d="M207 0l-183 700h134l123 -515h6l146 515h136l146 -515h6l123 515h135l-184 -700h-137l-157 534l-157 -534h-137z" />
    <glyph glyph-name="X" unicode="X" horiz-adv-x="669" 
d="M503 0l-168 251l-169 -251h-147l242 360l-228 340h147l155 -230l154 230h147l-228 -339l243 -361h-148z" />
    <glyph glyph-name="Y" unicode="Y" horiz-adv-x="690" 
d="M278 0v262l-254 438h149l172 -311l173 311h149l-254 -438v-262h-135z" />
    <glyph glyph-name="Z" unicode="Z" horiz-adv-x="618" 
d="M40 0v115l388 470h-377v115h523v-115l-389 -470h393v-115h-538z" />
    <glyph glyph-name="bracketleft" unicode="[" horiz-adv-x="312" 
d="M54 -130v875h205v-110h-77v-655h77v-110h-205z" />
    <glyph glyph-name="backslash" unicode="\" horiz-adv-x="461" 
d="M431 0h-128l-273 700h129z" />
    <glyph glyph-name="bracketright" unicode="]" horiz-adv-x="312" 
d="M258 -130h-205v110h77v655h-77v110h205v-875z" />
    <glyph glyph-name="asciicircum" unicode="^" horiz-adv-x="496" 
d="M45 465l164 235h80l162 -235h-115l-88 131l-88 -131h-115z" />
    <glyph glyph-name="underscore" unicode="_" horiz-adv-x="590" 
d="M45 -110v110h500v-110h-500z" />
    <glyph glyph-name="grave" unicode="`" horiz-adv-x="216" 
d="M104 581l-104 137h112l104 -137h-112z" />
    <glyph glyph-name="a" unicode="a" horiz-adv-x="551" 
d="M196 -10q-72 0 -119.5 36.5t-47.5 109.5q0 39 14 67t41 45t56 26t69 14l97 13q39 5 52.5 14t13.5 29v11q0 82 -94 82q-101 0 -101 -76v-11h-120v23q0 157 224 157q114 0 165.5 -41.5t51.5 -128.5v-360h-123v93h-5q-8 -20 -24 -40.5t-56.5 -41.5t-93.5 -21zM157 147
q0 -64 81 -64q58 0 96 31t38 66v66q-9 -15 -61 -22l-83 -13q-71 -11 -71 -64z" />
    <glyph glyph-name="b" unicode="b" horiz-adv-x="601" 
d="M343 -10q-56 0 -99 23.5t-62 61.5v-75h-128v700h128v-255q19 38 62 61.5t99 23.5q93 0 161 -68.5t68 -201.5t-68 -201.5t-161 -68.5zM176 260q0 -79 40 -121t97 -42q58 0 98.5 42t40.5 121t-40.5 121t-98.5 42q-57 0 -97 -42t-40 -121z" />
    <glyph glyph-name="c" unicode="c" horiz-adv-x="551" 
d="M288 -10q-108 0 -183.5 67.5t-75.5 201.5q0 69 22 122.5t59 85t82 47.5t96 16q38 0 73 -9t70 -30t59 -63.5t31 -102.5h-116q-18 97 -118 97q-66 0 -102 -44t-36 -119t36 -118t102 -43q100 0 118 98h116q-5 -48 -22 -85.5t-40.5 -59.5t-54 -36.5t-58.5 -19.5t-58 -5z" />
    <glyph glyph-name="d" unicode="d" horiz-adv-x="601" 
d="M258 -10q-93 0 -161 68.5t-68 201.5t68 201.5t161 68.5q56 0 99 -23.5t62 -61.5v255h128v-700h-128v75q-19 -38 -62 -61.5t-99 -23.5zM149 260q0 -79 40.5 -121t98.5 -42q57 0 97 42t40 121t-40 121t-97 42q-58 0 -98.5 -42t-40.5 -121z" />
    <glyph glyph-name="e" unicode="e" horiz-adv-x="556" 
d="M286 -10q-111 0 -184 67t-73 204q0 136 72 202.5t183 66.5q109 0 176.5 -64.5t67.5 -199.5q0 -22 -3 -39h-375q11 -139 139 -139q95 0 118 75h114q-20 -86 -82.5 -129.5t-152.5 -43.5zM151 305h256q-2 58 -33.5 92.5t-91.5 34.5q-57 0 -90.5 -32t-40.5 -95z" />
    <glyph glyph-name="f" unicode="f" horiz-adv-x="350" 
d="M92 564q0 152 161 152h72v-98h-41q-34 0 -49 -17t-15 -52v-29h102v-99h-102v-421h-128v421h-73v99h73v44z" />
    <glyph glyph-name="g" unicode="g" horiz-adv-x="594" 
d="M278 -209q-41 0 -78.5 7.5t-75 25t-60.5 54t-23 87.5h113q2 -37 37.5 -56t83.5 -19q61 0 99.5 31.5t38.5 94.5v74h-2q-22 -35 -64.5 -56t-95.5 -21q-92 0 -157 64t-65 194t65.5 194.5t156.5 64.5q53 0 95.5 -21t64.5 -56h2v67h128v-504q0 -54 -17.5 -95t-44 -65
t-63 -39.5t-69.5 -20.5t-69 -5zM149 271q0 -73 39 -112.5t96 -39.5t95.5 39.5t38.5 112.5q0 74 -38.5 113t-95.5 39t-96 -39t-39 -113z" />
    <glyph glyph-name="h" unicode="h" 
d="M409 297q0 127 -106 127q-55 0 -88 -32.5t-33 -94.5v-297h-128v700h128v-287h4q9 43 52.5 80t117.5 37q81 0 131 -51t50 -152v-327h-128v297z" />
    <glyph glyph-name="i" unicode="i" horiz-adv-x="235" 
d="M54 0v520h128v-520h-128zM45 665q0 30 21.5 51t51.5 21q29 0 50.5 -21t21.5 -51t-21.5 -51t-50.5 -21q-30 0 -51.5 21t-21.5 51z" />
    <glyph glyph-name="j" unicode="j" horiz-adv-x="249" 
d="M34 -193q-51 0 -77 3v100h46q35 0 49.5 17.5t14.5 52.5v540h128v-560q0 -153 -161 -153zM59 665q0 30 21.5 51t50.5 21t50.5 -21t21.5 -51t-21.5 -51t-50.5 -21t-50.5 21t-21.5 51z" />
    <glyph glyph-name="k" unicode="k" horiz-adv-x="572" 
d="M54 0v700h128v-413l212 233h142l-213 -223l241 -297h-142l-177 216l-63 -66v-150h-128z" />
    <glyph glyph-name="l" unicode="l" horiz-adv-x="235" 
d="M54 0v700h128v-700h-128z" />
    <glyph glyph-name="m" unicode="m" horiz-adv-x="896" 
d="M715 297q0 127 -97 127q-48 0 -77 -32.5t-29 -94.5v-297h-128v297q0 127 -96 127q-48 0 -77 -32.5t-29 -94.5v-297h-128v520h128v-107h4q7 41 49 79t107 38q57 0 99.5 -30t59.5 -90q9 43 53 81.5t114 38.5q79 0 127 -51t48 -152v-327h-128v297z" />
    <glyph glyph-name="n" unicode="n" 
d="M409 297q0 127 -106 127q-55 0 -88 -32.5t-33 -94.5v-297h-128v520h128v-107h4q9 43 52.5 80t117.5 37q81 0 131 -51t50 -152v-327h-128v297z" />
    <glyph glyph-name="o" unicode="o" horiz-adv-x="573" 
d="M287 -10q-108 0 -183 69t-75 201t75 201t183 69q107 0 182.5 -69t75.5 -201t-75.5 -201t-182.5 -69zM149 260q0 -81 38.5 -122t99.5 -41q60 0 98.5 41t38.5 122t-38.5 122t-98.5 41q-61 0 -99.5 -41t-38.5 -122z" />
    <glyph glyph-name="p" unicode="p" horiz-adv-x="601" 
d="M54 -190v710h128v-75q19 38 62 61.5t99 23.5q93 0 161 -68.5t68 -201.5t-68 -201.5t-161 -68.5q-56 0 -99 23.5t-62 61.5v-265h-128zM176 260q0 -79 40 -121t97 -42q58 0 98.5 42t40.5 121t-40.5 121t-98.5 42q-57 0 -97 -42t-40 -121z" />
    <glyph glyph-name="q" unicode="q" horiz-adv-x="601" 
d="M547 -190h-128v265q-19 -38 -62 -61.5t-99 -23.5q-93 0 -161 68.5t-68 201.5t68 201.5t161 68.5q56 0 99 -23.5t62 -61.5v75h128v-710zM149 260q0 -79 40.5 -121t98.5 -42q57 0 97 42t40 121t-40 121t-97 42q-58 0 -98.5 -42t-40.5 -121z" />
    <glyph glyph-name="r" unicode="r" horiz-adv-x="397" 
d="M54 0v520h128v-124h3q14 57 53 93.5t101 36.5q23 0 40 -5v-108q-23 3 -40 3q-69 0 -113 -43.5t-44 -130.5v-242h-128z" />
    <glyph glyph-name="s" unicode="s" horiz-adv-x="496" 
d="M245 -10q-103 0 -161.5 44t-59.5 130h114q10 -77 109 -77q94 0 94 63q0 44 -61 56l-96 21q-146 33 -146 149q0 72 57 113t152 41q99 0 153 -45t56 -128h-106q-11 76 -102 76q-86 0 -86 -55q0 -45 63 -57l99 -22q70 -16 109.5 -49.5t39.5 -96.5q0 -82 -64.5 -122.5
t-163.5 -40.5z" />
    <glyph glyph-name="t" unicode="t" horiz-adv-x="365" 
d="M268 -7q-162 0 -162 153v274h-87v100h87v133h128v-133h102v-100h-102v-254q0 -36 14.5 -53t53.5 -17q21 0 40 2v-96q-33 -9 -74 -9z" />
    <glyph glyph-name="u" unicode="u" 
d="M181 223q0 -127 106 -127q51 0 84 29.5t37 84.5l1 310h128l-1 -520h-128v107h-4q-9 -43 -52.5 -80t-117.5 -37q-81 0 -131 51t-49 152v327h128z" />
    <glyph glyph-name="v" unicode="v" horiz-adv-x="583" 
d="M211 0l-192 520h130l140 -398h5l140 398h131l-193 -520h-161z" />
    <glyph glyph-name="w" unicode="w" horiz-adv-x="819" 
d="M160 0l-141 520h121l97 -395h4l113 395h111l113 -395h4l97 395h122l-142 -520h-144l-105 350l-106 -350h-144z" />
    <glyph glyph-name="x" unicode="x" horiz-adv-x="565" 
d="M29 0l181 263l-172 257h139l106 -165l105 165h139l-172 -257l182 -263h-139l-115 170l-116 -170h-138z" />
    <glyph glyph-name="y" unicode="y" horiz-adv-x="567" 
d="M71 -89q110 -15 140 60q14 35 0 70l-192 479h131l133 -360l134 360h132l-216 -534q-46 -113 -103.5 -154t-158.5 -30v109z" />
    <glyph glyph-name="z" unicode="z" horiz-adv-x="506" 
d="M40 0v108l274 304h-264v108h416v-108l-273 -304h273v-108h-426z" />
    <glyph glyph-name="braceleft" unicode="{" horiz-adv-x="333" 
d="M196 -130q-43 0 -74.5 23.5t-31.5 82.5v259l-45 71l45 73v260q0 58 32 82t74 24h92v-110h-35q-35 0 -35 -31v-230l-53 -68l53 -66v-229q0 -31 35 -31h35v-110h-92z" />
    <glyph glyph-name="bar" unicode="|" horiz-adv-x="260" 
d="M75 -190v990h110v-990h-110z" />
    <glyph glyph-name="braceright" unicode="}" horiz-adv-x="333" 
d="M137 -130h-92v110h35q35 0 35 31v229l53 66l-53 68v230q0 31 -35 31h-35v110h92q42 0 74 -24t32 -82v-260l45 -73l-45 -71v-259q0 -59 -31.5 -82.5t-74.5 -23.5z" />
    <glyph glyph-name="asciitilde" unicode="~" horiz-adv-x="571" 
d="M396 199q-32 0 -63.5 15t-52 32.5t-46.5 32.5t-49 15q-25 0 -39.5 -14t-14.5 -36h-77q-3 56 31.5 92t88.5 36q33 0 64.5 -15t52.5 -32.5t47 -32.5t49 -15q24 0 38.5 14t14.5 36h78q2 -56 -32.5 -92t-89.5 -36z" />
    <glyph glyph-name="uni00A0" unicode="&#xa0;" horiz-adv-x="230" 
 />
    <glyph glyph-name="exclamdown" unicode="&#xa1;" horiz-adv-x="266" 
d="M84 290h99l15 -470h-130zM54 452q0 32 23 55t56 23t56.5 -23t23.5 -55q0 -33 -23.5 -56t-56.5 -23t-56 23t-23 56z" />
    <glyph glyph-name="cent" unicode="&#xa2;" horiz-adv-x="551" 
d="M258 -40v106q-98 9 -163.5 75t-65.5 188t65.5 188t163.5 76v107h47v-106q37 -2 69.5 -12t64.5 -31.5t54 -61.5t28 -95h-116q-17 86 -100 94v-316q83 8 100 95h116q-5 -55 -26.5 -95.5t-54 -62t-65.5 -32t-70 -12.5v-105h-47zM149 329q0 -64 28 -105t81 -51v314
q-53 -10 -81 -51.5t-28 -106.5z" />
    <glyph glyph-name="sterling" unicode="&#xa3;" horiz-adv-x="569" 
d="M45 67q95 93 95 175q0 22 -7 48h-89v70h55q-44 78 -44 141q0 93 67.5 149.5t168.5 56.5q100 0 167.5 -55.5t67.5 -152.5v-19h-122v16q0 41 -27.5 71t-84.5 30t-84.5 -29t-27.5 -72q0 -18 6 -37.5t11.5 -31t18.5 -35.5t17 -32h118v-70h-92q2 -18 2 -28q0 -86 -94 -163
q41 15 85.5 14.5t79.5 -8.5t85 -9t102 13v-109q-58 -13 -116.5 -9.5t-102 14.5t-99.5 9.5t-108 -24.5z" />
    <glyph glyph-name="currency" unicode="&#xa4;" 
d="M294 252q-66 0 -124 37l-39 -39l-82 80l45 45q-24 48 -24 101q0 58 26 105l-47 46l82 80l42 -42q56 35 121 35q67 0 122 -36l44 43l82 -80l-49 -49q25 -47 25 -102q0 -53 -23 -99l47 -47l-82 -80l-41 40q-57 -38 -125 -38zM175 476q0 -41 30 -80t89 -39t89 39t30 80
q0 40 -30.5 79.5t-88.5 39.5q-59 0 -89 -39t-30 -80z" />
    <glyph glyph-name="yen" unicode="&#xa5;" horiz-adv-x="690" 
d="M157 200v65h119l-252 435h149l172 -311l173 311h149l-252 -435h122v-65h-124v-40h124v-65h-124v-95h-135v95h-121v65h121v40h-121z" />
    <glyph glyph-name="brokenbar" unicode="&#xa6;" horiz-adv-x="260" 
d="M75 480v320h110v-320h-110zM75 -190v320h110v-320h-110z" />
    <glyph glyph-name="section" unicode="&#xa7;" horiz-adv-x="678" 
d="M335 -236q-128 0 -201.5 58t-83.5 167h143q8 -52 41.5 -79t101.5 -27q67 0 103 22.5t36 63.5q0 43 -26 65t-82 35l-93 20q-99 23 -151.5 67t-52.5 132q0 70 48 117q-38 43 -38 111q0 88 70 140t189 52q115 0 186 -51.5t82 -149.5h-142q-11 82 -126 82q-60 0 -88.5 -22
t-28.5 -55q0 -62 83 -82l102 -23q116 -26 168.5 -75t52.5 -138q0 -66 -44 -115q34 -45 34 -111q0 -102 -78.5 -153t-204.5 -51zM212 284q0 -30 18.5 -50.5t64.5 -31.5l91 -20q55 -12 85 -35q14 24 14 48q0 44 -24 65t-80 34l-82 19q-43 10 -65 26q-22 -23 -22 -55z" />
    <glyph glyph-name="dieresis" unicode="&#xa8;" horiz-adv-x="370" 
d="M298 593q-29 0 -50.5 20.5t-21.5 49.5q0 30 21.5 50.5t50.5 20.5t50.5 -20.5t21.5 -50.5q0 -29 -21.5 -49.5t-50.5 -20.5zM0 663q0 30 21.5 50.5t50.5 20.5t50.5 -20.5t21.5 -50.5q0 -29 -21.5 -49.5t-50.5 -20.5t-50.5 20.5t-21.5 49.5z" />
    <glyph glyph-name="copyright" unicode="&#xa9;" horiz-adv-x="791" 
d="M396 -7q-150 0 -253.5 101.5t-103.5 255.5q0 153 104 254.5t253 101.5t253 -101.5t104 -254.5q0 -154 -103.5 -255.5t-253.5 -101.5zM114 350q0 -124 81.5 -204t200.5 -80t200.5 80t81.5 204q0 123 -81.5 203t-200.5 80t-200.5 -80t-81.5 -203zM203 350q0 93 57 147
t139 54q37 0 69 -10.5t62.5 -43.5t41.5 -85h-80q-7 32 -33 48t-61 16q-50 0 -82 -32.5t-32 -93.5q0 -60 32 -93.5t82 -33.5q78 0 97 66h78q-16 -77 -65.5 -109t-108.5 -32q-82 0 -139 54.5t-57 147.5z" />
    <glyph glyph-name="ordfeminine" unicode="&#xaa;" horiz-adv-x="382" 
d="M137 376q-46 0 -77 24t-31 73q0 89 116 98l102 7q0 39 -14 54t-48 15q-64 0 -64 -45h-75q1 112 140 112q81 0 111.5 -37.5t30.5 -120.5v-178h-69l-5 57q-14 -26 -46 -42.5t-71 -16.5zM116 483q0 -38 50 -38q32 0 53.5 15t27.5 36v32l-84 -6q-47 -4 -47 -39z" />
    <glyph glyph-name="guillemotleft" unicode="&#xab;" horiz-adv-x="447" 
d="M407 110l-166 136v105l166 135v-116l-87 -72l87 -72v-116zM40 246v105l166 135v-116l-87 -72l87 -72v-116z" />
    <glyph glyph-name="logicalnot" unicode="&#xac;" horiz-adv-x="531" 
d="M350 109v104h-296v99h424v-203h-128z" />
    <glyph glyph-name="uni00AD" unicode="&#xad;" horiz-adv-x="379" 
d="M40 229v96h299v-96h-299z" />
    <glyph glyph-name="registered" unicode="&#xae;" horiz-adv-x="791" 
d="M396 -7q-150 0 -253.5 101.5t-103.5 255.5q0 153 104 254.5t253 101.5t253 -101.5t104 -254.5q0 -154 -103.5 -255.5t-253.5 -101.5zM114 350q0 -124 81.5 -204t200.5 -80t200.5 80t81.5 204q0 123 -81.5 203t-200.5 80t-200.5 -80t-81.5 -203zM250 176v349h182
q64 0 99.5 -32t34.5 -86q-2 -84 -79 -108l83 -123h-84l-76 115h-80v-115h-80zM330 355h95q64 0 64 53q0 52 -64 52h-95v-105z" />
    <glyph glyph-name="macron" unicode="&#xaf;" horiz-adv-x="319" 
d="M0 643v75h319v-75h-319z" />
    <glyph glyph-name="degree" unicode="&#xb0;" horiz-adv-x="364" 
d="M182 421q-64 0 -106 42.5t-42 105.5q0 62 42 104.5t106 42.5t106.5 -42.5t42.5 -104.5q0 -63 -42.5 -105.5t-106.5 -42.5zM121 569q0 -25 16.5 -43.5t44.5 -18.5t45 18.5t17 43.5t-16.5 43t-45.5 18q-28 0 -44.5 -18t-16.5 -43z" />
    <glyph glyph-name="plusminus" unicode="&#xb1;" horiz-adv-x="588" 
d="M234 184v182h-180v111h180v180h119v-180h181v-111h-181v-182h-119zM122 0v97h343v-97h-343z" />
    <glyph glyph-name="uni00B2" unicode="&#xb2;" horiz-adv-x="262" 
d="M40 448q0 41 14.5 69t57.5 54q3 2 10 5.5t9.5 5l7.5 4.5t7.5 5t6 5t5 6t3.5 6.5t2.5 7.5t0.5 9q0 16 -11 25t-25 9q-16 0 -26.5 -10t-10.5 -29v-8h-51v8q0 38 22.5 61.5t65.5 23.5t66 -22.5t23 -57.5q0 -17 -5 -30t-20.5 -26t-23 -18t-32.5 -20q-39 -22 -39 -43v-3h120
v-45h-177v8z" />
    <glyph glyph-name="uni00B3" unicode="&#xb3;" horiz-adv-x="274" 
d="M136 436q-47 0 -71.5 23t-24.5 62h48q2 -44 49 -44t47 41q0 40 -53 40h-11v37h11q23 0 32.5 11t9.5 25q0 15 -9.5 24t-27.5 9t-29.5 -10.5t-11.5 -30.5h-46q0 39 24 60.5t64 21.5t62.5 -19.5t22.5 -49.5q0 -22 -13 -37t-31 -20q21 -2 38.5 -18t17.5 -46q0 -35 -26.5 -57
t-71.5 -22z" />
    <glyph glyph-name="acute" unicode="&#xb4;" horiz-adv-x="216" 
d="M0 581l104 137h112l-104 -137h-112z" />
    <glyph glyph-name="uni00B5" unicode="&#xb5;" 
d="M54 -190v710h128v-297q0 -127 106 -127q54 0 87.5 32.5t33.5 94.5v297h128v-520h-128v85q-12 -40 -48.5 -67.5t-89.5 -27.5q-61 0 -89 36v-216h-128z" />
    <glyph glyph-name="paragraph" unicode="&#xb6;" horiz-adv-x="669" 
d="M305 -220v515h-53q-104 0 -163.5 59t-59.5 143q0 85 59.5 144t163.5 59h363v-920h-104v843h-92v-843h-114z" />
    <glyph glyph-name="periodcentered" unicode="&#xb7;" horiz-adv-x="246" 
d="M123 200q-33 0 -56 23t-23 55q0 33 23 56t56 23t56.5 -23t23.5 -56q0 -32 -23.5 -55t-56.5 -23z" />
    <glyph glyph-name="cedilla" unicode="&#xb8;" horiz-adv-x="192" 
d="M33 -179q31 -2 50.5 8.5t19.5 30.5q0 23 -22.5 31t-45.5 -6l-35 44l64 71h86l-51 -51h9q36 0 60 -25.5t24 -64.5q0 -55 -46 -79t-113 -24v65z" />
    <glyph glyph-name="uni00B9" unicode="&#xb9;" horiz-adv-x="189" 
d="M96 635q-15 -26 -56 -19v48q18 -2 34 9.5t22 26.5h48v-261h-48v196z" />
    <glyph glyph-name="ordmasculine" unicode="&#xba;" horiz-adv-x="393" 
d="M197 376q-70 0 -119 46t-49 124t49 123t119 45t119 -45t49 -123t-49.5 -124t-118.5 -46zM111 546q0 -40 24 -65t62 -25t61.5 25t23.5 65t-23.5 64t-61.5 24q-39 0 -62.5 -24t-23.5 -64z" />
    <glyph glyph-name="guillemotright" unicode="&#xbb;" horiz-adv-x="444" 
d="M42 110v116l87 72l-87 72v116l166 -135v-105zM243 110v116l87 72l-87 72v116l166 -135v-105z" />
    <glyph glyph-name="onequarter" unicode="&#xbc;" horiz-adv-x="601" 
d="M96 635q-15 -26 -56 -19v48q18 -2 34 9.5t22 26.5h48v-261h-48v196zM39 0l436 700h65l-436 -700h-65zM360 66v39l117 156h49v-156h30v-39h-30v-66h-49v66h-117zM403 105h74v99z" />
    <glyph glyph-name="onehalf" unicode="&#xbd;" 
d="M95 635q-15 -26 -56 -19v48q18 -2 34 9.5t22 26.5h48v-261h-48v196zM46 0l436 700h65l-436 -700h-65zM369 0v8q0 41 14.5 69t57.5 54q3 2 10 5.5t9.5 5l7.5 4.5t7.5 5t6 5t5 6t3.5 6.5t2.5 7.5t0.5 9q0 16 -11 25t-25 9q-16 0 -26.5 -10t-10.5 -29v-8h-51v8
q0 38 22.5 61.5t65.5 23.5t66 -22.5t23 -57.5q0 -17 -5 -30t-20.5 -26t-23 -18t-32.5 -20q-39 -22 -39 -43v-3h120v-45h-177z" />
    <glyph glyph-name="threequarters" unicode="&#xbe;" horiz-adv-x="610" 
d="M136 436q-47 0 -71.5 23t-24.5 62h48q2 -44 49 -44t47 41q0 40 -53 40h-11v37h11q23 0 32.5 11t9.5 25q0 15 -9.5 24t-27.5 9t-29.5 -10.5t-11.5 -30.5h-46q0 39 24 60.5t64 21.5t62.5 -19.5t22.5 -49.5q0 -22 -13 -37t-31 -20q21 -2 38.5 -18t17.5 -46q0 -35 -26.5 -57
t-71.5 -22zM48 0l436 700h65l-436 -700h-65zM381 66v39l117 156h49v-156h30v-39h-30v-66h-49v66h-117zM424 105h74v99z" />
    <glyph glyph-name="questiondown" unicode="&#xbf;" horiz-adv-x="554" 
d="M332 270q0 -46 -16.5 -81t-40 -55.5t-46.5 -37.5t-39.5 -37.5t-16.5 -46.5q0 -38 24.5 -63.5t73.5 -25.5q110 0 110 127h128q1 -120 -65.5 -178.5t-172.5 -58.5q-101 0 -163.5 52.5t-62.5 146.5q0 42 15.5 72t37.5 48t44.5 35t38 42.5t15.5 60.5v31h136v-31zM186 452
q0 32 23.5 55t56.5 23t56 -23t23 -55q0 -33 -23 -56t-56 -23t-56.5 23t-23.5 56z" />
    <glyph glyph-name="Agrave" unicode="&#xc0;" horiz-adv-x="719" 
d="M19 0l257 700h168l257 -700h-139l-50 143h-305l-50 -143h-138zM214 898h112l104 -137h-112zM242 241h236l-114 324h-8z" />
    <glyph glyph-name="Aacute" unicode="&#xc1;" horiz-adv-x="719" 
d="M19 0l257 700h168l257 -700h-139l-50 143h-305l-50 -143h-138zM242 241h236l-114 324h-8zM300 761l104 137h112l-104 -137h-112z" />
    <glyph glyph-name="Acircumflex" unicode="&#xc2;" horiz-adv-x="719" 
d="M19 0l257 700h168l257 -700h-139l-50 143h-305l-50 -143h-138zM172 761l98 137h178l98 -137h-115l-72 102l-72 -102h-115zM242 241h236l-114 324h-8z" />
    <glyph glyph-name="Atilde" unicode="&#xc3;" horiz-adv-x="719" 
d="M19 0l257 700h168l257 -700h-139l-50 143h-305l-50 -143h-138zM191 799q0 52 25 81t71 29q25 0 46.5 -9t33 -20.5t25 -20.5t26.5 -9t24 9t12 24h76q0 -52 -25 -81t-71 -29q-25 0 -46.5 9t-33 20.5t-25 20.5t-26.5 9t-24 -9t-12 -24h-76zM242 241h236l-114 324h-8z" />
    <glyph glyph-name="Adieresis" unicode="&#xc4;" horiz-adv-x="719" 
d="M19 0l257 700h168l257 -700h-139l-50 143h-305l-50 -143h-138zM174 843q0 30 21.5 50.5t50.5 20.5t50.5 -20.5t21.5 -50.5q0 -29 -21.5 -49.5t-50.5 -20.5t-50.5 20.5t-21.5 49.5zM242 241h236l-114 324h-8zM400 843q0 30 21.5 50.5t50.5 20.5t50.5 -20.5t21.5 -50.5
q0 -29 -21.5 -49.5t-50.5 -20.5t-50.5 20.5t-21.5 49.5z" />
    <glyph glyph-name="Aring" unicode="&#xc5;" horiz-adv-x="719" 
d="M19 0l257 700h168l257 -700h-139l-50 143h-305l-50 -143h-138zM242 241h236l-114 324h-8zM261 838q0 40 28.5 68t70.5 28t70.5 -28t28.5 -68q0 -41 -28 -68.5t-71 -27.5q-42 0 -70.5 27.5t-28.5 68.5zM322 838q0 -17 11 -28t27 -11q17 0 28 11t11 28q0 16 -11 27t-28 11
q-16 0 -27 -11t-11 -27z" />
    <glyph glyph-name="AE" unicode="&#xc6;" horiz-adv-x="1000" 
d="M19 0l451 700h492v-115h-338v-178h308v-103h-308v-189h348v-115h-479v143h-243l-92 -143h-139zM314 243h179v280z" />
    <glyph glyph-name="Ccedilla" unicode="&#xc7;" horiz-adv-x="681" 
d="M298 -179q31 -2 50.5 8.5t19.5 30.5q0 23 -22.5 31t-45.5 -6l-35 44l57 63q-132 14 -207.5 107.5t-75.5 250.5q0 169 88 264t238 95q118 0 196 -61t90 -181h-128q-15 64 -57.5 96t-103.5 32q-93 0 -141 -66.5t-48 -178.5q0 -113 47.5 -179.5t141.5 -66.5q61 0 103.5 32
t57.5 97h128q-10 -109 -76 -169.5t-168 -71.5l-43 -43h9q36 0 60 -25.5t24 -64.5q0 -55 -46 -79t-113 -24v65z" />
    <glyph glyph-name="Egrave" unicode="&#xc8;" horiz-adv-x="561" 
d="M54 0v700h469v-115h-338v-178h308v-103h-308v-189h348v-115h-479zM151 898h112l104 -137h-112z" />
    <glyph glyph-name="Eacute" unicode="&#xc9;" horiz-adv-x="561" 
d="M54 0v700h469v-115h-338v-178h308v-103h-308v-189h348v-115h-479zM237 761l104 137h112l-104 -137h-112z" />
    <glyph glyph-name="Ecircumflex" unicode="&#xca;" horiz-adv-x="561" 
d="M54 0v700h469v-115h-338v-178h308v-103h-308v-189h348v-115h-479zM109 761l98 137h178l98 -137h-115l-72 102l-72 -102h-115z" />
    <glyph glyph-name="Edieresis" unicode="&#xcb;" horiz-adv-x="561" 
d="M54 0v700h469v-115h-338v-178h308v-103h-308v-189h348v-115h-479zM111 843q0 30 21.5 50.5t50.5 20.5t50.5 -20.5t21.5 -50.5q0 -29 -21.5 -49.5t-50.5 -20.5t-50.5 20.5t-21.5 49.5zM337 843q0 30 21.5 50.5t50.5 20.5t50.5 -20.5t21.5 -50.5q0 -29 -21.5 -49.5
t-50.5 -20.5t-50.5 20.5t-21.5 49.5z" />
    <glyph glyph-name="Igrave" unicode="&#xcc;" horiz-adv-x="238" 
d="M54 0v700h131v-700h-131zM-27 898h112l104 -137h-112z" />
    <glyph glyph-name="Iacute" unicode="&#xcd;" horiz-adv-x="238" 
d="M54 0v700h131v-700h-131zM58 761l104 137h112l-104 -137h-112z" />
    <glyph glyph-name="Icircumflex" unicode="&#xce;" horiz-adv-x="238" 
d="M54 0v700h131v-700h-131zM-70 761l99 137h178l98 -137h-115l-72 102l-72 -102h-116z" />
    <glyph glyph-name="Idieresis" unicode="&#xcf;" horiz-adv-x="238" 
d="M54 0v700h131v-700h-131zM-68 843q0 30 21.5 50.5t50.5 20.5t50.5 -20.5t21.5 -50.5q0 -29 -21.5 -49.5t-50.5 -20.5t-50.5 20.5t-21.5 49.5zM158 843q0 30 21.5 50.5t50.5 20.5t50.5 -20.5t21.5 -50.5q0 -29 -21.5 -49.5t-50.5 -20.5t-50.5 20.5t-21.5 49.5z" />
    <glyph glyph-name="Eth" unicode="&#xd0;" horiz-adv-x="709" 
d="M85 0v297h-65v96h65v307h254q163 0 247 -90.5t84 -259.5t-84 -259.5t-247 -90.5h-254zM216 115h110q113 0 161.5 55.5t48.5 179.5t-48.5 179.5t-161.5 55.5h-110v-192h103v-96h-103v-182z" />
    <glyph glyph-name="Ntilde" unicode="&#xd1;" horiz-adv-x="686" 
d="M54 0v700h138l306 -491h3v491h132v-700h-144l-301 483h-3v-483h-131zM174 799q0 52 25 81t71 29q25 0 46.5 -9t33 -20.5t25 -20.5t26.5 -9t24 9t12 24h76q0 -52 -25 -81t-71 -29q-25 0 -46.5 9t-33 20.5t-25 20.5t-26.5 9t-24 -9t-12 -24h-76z" />
    <glyph glyph-name="Ograve" unicode="&#xd2;" horiz-adv-x="736" 
d="M368 -10q-148 0 -238.5 98.5t-90.5 261.5q0 164 90.5 261.5t238.5 97.5t239 -97.5t91 -261.5q0 -163 -91 -261.5t-239 -98.5zM174 350q0 -115 52 -180.5t142 -65.5t142 65.5t52 180.5t-52 180t-142 65t-142 -65t-52 -180zM222 898h112l104 -137h-112z" />
    <glyph glyph-name="Oacute" unicode="&#xd3;" horiz-adv-x="736" 
d="M368 -10q-148 0 -238.5 98.5t-90.5 261.5q0 164 90.5 261.5t238.5 97.5t239 -97.5t91 -261.5q0 -163 -91 -261.5t-239 -98.5zM174 350q0 -115 52 -180.5t142 -65.5t142 65.5t52 180.5t-52 180t-142 65t-142 -65t-52 -180zM308 761l104 137h112l-104 -137h-112z" />
    <glyph glyph-name="Ocircumflex" unicode="&#xd4;" horiz-adv-x="736" 
d="M368 -10q-148 0 -238.5 98.5t-90.5 261.5q0 164 90.5 261.5t238.5 97.5t239 -97.5t91 -261.5q0 -163 -91 -261.5t-239 -98.5zM174 350q0 -115 52 -180.5t142 -65.5t142 65.5t52 180.5t-52 180t-142 65t-142 -65t-52 -180zM180 761l98 137h178l98 -137h-115l-72 102
l-72 -102h-115z" />
    <glyph glyph-name="Otilde" unicode="&#xd5;" horiz-adv-x="736" 
d="M368 -10q-148 0 -238.5 98.5t-90.5 261.5q0 164 90.5 261.5t238.5 97.5t239 -97.5t91 -261.5q0 -163 -91 -261.5t-239 -98.5zM174 350q0 -115 52 -180.5t142 -65.5t142 65.5t52 180.5t-52 180t-142 65t-142 -65t-52 -180zM199 799q0 52 25 81t71 29q25 0 46.5 -9
t33 -20.5t25 -20.5t26.5 -9t24 9t12 24h76q0 -52 -25 -81t-71 -29q-25 0 -46.5 9t-33 20.5t-25 20.5t-26.5 9t-24 -9t-12 -24h-76z" />
    <glyph glyph-name="Odieresis" unicode="&#xd6;" horiz-adv-x="736" 
d="M368 -10q-148 0 -238.5 98.5t-90.5 261.5q0 164 90.5 261.5t238.5 97.5t239 -97.5t91 -261.5q0 -163 -91 -261.5t-239 -98.5zM174 350q0 -115 52 -180.5t142 -65.5t142 65.5t52 180.5t-52 180t-142 65t-142 -65t-52 -180zM182 843q0 30 21.5 50.5t50.5 20.5t50.5 -20.5
t21.5 -50.5q0 -29 -21.5 -49.5t-50.5 -20.5t-50.5 20.5t-21.5 49.5zM408 843q0 30 21.5 50.5t50.5 20.5t50.5 -20.5t21.5 -50.5q0 -29 -21.5 -49.5t-50.5 -20.5t-50.5 20.5t-21.5 49.5z" />
    <glyph glyph-name="multiply" unicode="&#xd7;" horiz-adv-x="520" 
d="M129 42l-79 77l132 132l-132 131l79 77l131 -130l131 130l79 -77l-131 -131l131 -132l-79 -77l-131 130z" />
    <glyph glyph-name="Oslash" unicode="&#xd8;" horiz-adv-x="736" 
d="M107 -50l56 107q-124 99 -124 293q0 164 90.5 261.5t238.5 97.5q68 0 123 -21l30 57h109l-54 -104q122 -100 122 -291q0 -163 -91 -261.5t-239 -98.5q-67 0 -121 21l-32 -61h-108zM174 350q0 -113 49 -177l214 410q-31 12 -69 12q-90 0 -142 -65t-52 -180zM301 115
q31 -11 67 -11q90 0 142 65.5t52 180.5q0 108 -47 174z" />
    <glyph glyph-name="Ugrave" unicode="&#xd9;" horiz-adv-x="674" 
d="M337 -10q-131 0 -207 70.5t-76 204.5v435h132v-425q0 -83 39.5 -126.5t111.5 -43.5t111 43.5t39 126.5v425h133v-435q0 -134 -76.5 -204.5t-206.5 -70.5zM182 898h112l104 -137h-112z" />
    <glyph glyph-name="Uacute" unicode="&#xda;" horiz-adv-x="674" 
d="M337 -10q-131 0 -207 70.5t-76 204.5v435h132v-425q0 -83 39.5 -126.5t111.5 -43.5t111 43.5t39 126.5v425h133v-435q0 -134 -76.5 -204.5t-206.5 -70.5zM267 761l104 137h112l-104 -137h-112z" />
    <glyph glyph-name="Ucircumflex" unicode="&#xdb;" horiz-adv-x="674" 
d="M337 -10q-131 0 -207 70.5t-76 204.5v435h132v-425q0 -83 39.5 -126.5t111.5 -43.5t111 43.5t39 126.5v425h133v-435q0 -134 -76.5 -204.5t-206.5 -70.5zM140 761l98 137h178l98 -137h-115l-72 102l-72 -102h-115z" />
    <glyph glyph-name="Udieresis" unicode="&#xdc;" horiz-adv-x="674" 
d="M337 -10q-131 0 -207 70.5t-76 204.5v435h132v-425q0 -83 39.5 -126.5t111.5 -43.5t111 43.5t39 126.5v425h133v-435q0 -134 -76.5 -204.5t-206.5 -70.5zM150 843q0 30 21.5 50.5t50.5 20.5t50.5 -20.5t21.5 -50.5q0 -29 -21.5 -49.5t-50.5 -20.5t-50.5 20.5t-21.5 49.5z
M376 843q0 30 21.5 50.5t50.5 20.5t50.5 -20.5t21.5 -50.5q0 -29 -21.5 -49.5t-50.5 -20.5t-50.5 20.5t-21.5 49.5z" />
    <glyph glyph-name="Yacute" unicode="&#xdd;" horiz-adv-x="690" 
d="M278 0v262l-254 438h149l172 -311l173 311h149l-254 -438v-262h-135zM285 761l104 137h112l-104 -137h-112z" />
    <glyph glyph-name="Thorn" unicode="&#xde;" horiz-adv-x="619" 
d="M54 0v700h131v-121h144q131 0 196.5 -61.5t65.5 -167.5q0 -105 -65.5 -166.5t-196.5 -61.5h-144v-122h-131zM185 237h139q131 0 131 113q0 115 -131 115h-139v-228z" />
    <glyph glyph-name="germandbls" unicode="&#xdf;" horiz-adv-x="608" 
d="M54 484q0 225 242 225q110 0 175 -44t65 -133q0 -62 -31.5 -99.5t-72.5 -40.5q63 -8 105.5 -55t42.5 -129q0 -99 -67 -153.5t-204 -54.5h-44v110h43q144 0 144 111q0 112 -156 112h-31v97h31q112 0 112 84q0 85 -110 85q-60 0 -88 -28t-28 -87v-484h-128v484z" />
    <glyph glyph-name="agrave" unicode="&#xe0;" horiz-adv-x="558" 
d="M196 -10q-72 0 -119.5 36.5t-47.5 109.5q0 39 14 67t41 45t56 26t69 14l97 13q39 5 52.5 14t13.5 29v11q0 82 -94 82q-101 0 -101 -76v-11h-120v23q0 157 224 157q114 0 165.5 -41.5t51.5 -128.5v-360h-123v93h-5q-8 -20 -24 -40.5t-56.5 -41.5t-93.5 -21zM127 718h112
l104 -137h-112zM157 147q0 -64 81 -64q58 0 96 31t38 66v66q-9 -15 -61 -22l-83 -13q-71 -11 -71 -64z" />
    <glyph glyph-name="aacute" unicode="&#xe1;" horiz-adv-x="558" 
d="M196 -10q-72 0 -119.5 36.5t-47.5 109.5q0 39 14 67t41 45t56 26t69 14l97 13q39 5 52.5 14t13.5 29v11q0 82 -94 82q-101 0 -101 -76v-11h-120v23q0 157 224 157q114 0 165.5 -41.5t51.5 -128.5v-360h-123v93h-5q-8 -20 -24 -40.5t-56.5 -41.5t-93.5 -21zM157 147
q0 -64 81 -64q58 0 96 31t38 66v66q-9 -15 -61 -22l-83 -13q-71 -11 -71 -64zM213 581l104 137h112l-104 -137h-112z" />
    <glyph glyph-name="acircumflex" unicode="&#xe2;" horiz-adv-x="558" 
d="M196 -10q-72 0 -119.5 36.5t-47.5 109.5q0 39 14 67t41 45t56 26t69 14l97 13q39 5 52.5 14t13.5 29v11q0 82 -94 82q-101 0 -101 -76v-11h-120v23q0 157 224 157q114 0 165.5 -41.5t51.5 -128.5v-360h-123v93h-5q-8 -20 -24 -40.5t-56.5 -41.5t-93.5 -21zM85 581l98 137
h178l98 -137h-115l-72 102l-72 -102h-115zM157 147q0 -64 81 -64q58 0 96 31t38 66v66q-9 -15 -61 -22l-83 -13q-71 -11 -71 -64z" />
    <glyph glyph-name="atilde" unicode="&#xe3;" horiz-adv-x="558" 
d="M196 -10q-72 0 -119.5 36.5t-47.5 109.5q0 39 14 67t41 45t56 26t69 14l97 13q39 5 52.5 14t13.5 29v11q0 82 -94 82q-101 0 -101 -76v-11h-120v23q0 157 224 157q114 0 165.5 -41.5t51.5 -128.5v-360h-123v93h-5q-8 -20 -24 -40.5t-56.5 -41.5t-93.5 -21zM103 619
q0 52 25 81t71 29q25 0 46.5 -9t33 -20.5t25 -20.5t26.5 -9t24 9t12 24h76q0 -52 -25 -81t-71 -29q-25 0 -46.5 9t-33 20.5t-25 20.5t-26.5 9t-24 -9t-12 -24h-76zM157 147q0 -64 81 -64q58 0 96 31t38 66v66q-9 -15 -61 -22l-83 -13q-71 -11 -71 -64z" />
    <glyph glyph-name="adieresis" unicode="&#xe4;" horiz-adv-x="558" 
d="M196 -10q-72 0 -119.5 36.5t-47.5 109.5q0 39 14 67t41 45t56 26t69 14l97 13q39 5 52.5 14t13.5 29v11q0 82 -94 82q-101 0 -101 -76v-11h-120v23q0 157 224 157q114 0 165.5 -41.5t51.5 -128.5v-360h-123v93h-5q-8 -20 -24 -40.5t-56.5 -41.5t-93.5 -21zM86 663
q0 30 21.5 50.5t50.5 20.5t50.5 -20.5t21.5 -50.5q0 -29 -21.5 -49.5t-50.5 -20.5t-50.5 20.5t-21.5 49.5zM157 147q0 -64 81 -64q58 0 96 31t38 66v66q-9 -15 -61 -22l-83 -13q-71 -11 -71 -64zM312 663q0 30 21.5 50.5t50.5 20.5t50.5 -20.5t21.5 -50.5q0 -29 -21.5 -49.5
t-50.5 -20.5t-50.5 20.5t-21.5 49.5z" />
    <glyph glyph-name="aring" unicode="&#xe5;" horiz-adv-x="558" 
d="M196 -10q-72 0 -119.5 36.5t-47.5 109.5q0 39 14 67t41 45t56 26t69 14l97 13q39 5 52.5 14t13.5 29v11q0 82 -94 82q-101 0 -101 -76v-11h-120v23q0 157 224 157q114 0 165.5 -41.5t51.5 -128.5v-360h-123v93h-5q-8 -20 -24 -40.5t-56.5 -41.5t-93.5 -21zM157 147
q0 -64 81 -64q58 0 96 31t38 66v66q-9 -15 -61 -22l-83 -13q-71 -11 -71 -64zM173 658q0 40 28.5 68t70.5 28t70.5 -28t28.5 -68q0 -41 -28 -68.5t-71 -27.5q-42 0 -70.5 27.5t-28.5 68.5zM234 658q0 -17 11 -28t27 -11q17 0 28 11t11 28q0 16 -11 27t-28 11q-16 0 -27 -11
t-11 -27z" />
    <glyph glyph-name="ae" unicode="&#xe6;" horiz-adv-x="898" 
d="M210 -10q-81 0 -131 38t-50 116q0 82 53.5 118t137.5 36h149v58q0 77 -96 77t-96 -74v-10h-115v24q0 77 55 117t161 40q64 0 105 -18.5t63 -64.5q57 83 181 83q108 0 175.5 -66.5t67.5 -202.5q0 -21 -3 -42h-374q1 -64 38.5 -97.5t98.5 -33.5q93 0 119 74h114
q-20 -85 -82.5 -128.5t-151.5 -43.5q-68 0 -121 27.5t-78 84.5q-25 -46 -82 -79t-138 -33zM157 153q0 -31 21.5 -50t66.5 -19q60 0 92 33t32 74v32h-117q-47 0 -71 -19t-24 -51zM494 314h254q-2 53 -33.5 85.5t-90.5 32.5q-113 0 -130 -118z" />
    <glyph glyph-name="ccedilla" unicode="&#xe7;" horiz-adv-x="551" 
d="M216 -179q31 -2 50.5 8.5t19.5 30.5q0 23 -22.5 31t-45.5 -6l-35 44l58 64q-92 14 -152 80.5t-60 185.5q0 69 22 122.5t59 85t82 47.5t96 16q38 0 73 -9t70 -30t59 -63.5t31 -102.5h-116q-18 97 -118 97q-66 0 -102 -44t-36 -119t36 -118t102 -43q100 0 118 98h116
q-10 -99 -65 -147t-131 -57l-43 -43h9q36 0 60 -25.5t24 -64.5q0 -55 -46 -79t-113 -24v65z" />
    <glyph glyph-name="egrave" unicode="&#xe8;" horiz-adv-x="556" 
d="M286 -10q-111 0 -184 67t-73 204q0 136 72 202.5t183 66.5q109 0 176.5 -64.5t67.5 -199.5q0 -22 -3 -39h-375q11 -139 139 -139q95 0 118 75h114q-20 -86 -82.5 -129.5t-152.5 -43.5zM133 718h112l104 -137h-112zM151 305h256q-2 58 -33.5 92.5t-91.5 34.5
q-57 0 -90.5 -32t-40.5 -95z" />
    <glyph glyph-name="eacute" unicode="&#xe9;" horiz-adv-x="556" 
d="M286 -10q-111 0 -184 67t-73 204q0 136 72 202.5t183 66.5q109 0 176.5 -64.5t67.5 -199.5q0 -22 -3 -39h-375q11 -139 139 -139q95 0 118 75h114q-20 -86 -82.5 -129.5t-152.5 -43.5zM151 305h256q-2 58 -33.5 92.5t-91.5 34.5q-57 0 -90.5 -32t-40.5 -95zM218 581
l104 137h112l-104 -137h-112z" />
    <glyph glyph-name="ecircumflex" unicode="&#xea;" horiz-adv-x="556" 
d="M286 -10q-111 0 -184 67t-73 204q0 136 72 202.5t183 66.5q109 0 176.5 -64.5t67.5 -199.5q0 -22 -3 -39h-375q11 -139 139 -139q95 0 118 75h114q-20 -86 -82.5 -129.5t-152.5 -43.5zM90 581l98 137h178l98 -137h-115l-72 102l-72 -102h-115zM151 305h256
q-2 58 -33.5 92.5t-91.5 34.5q-57 0 -90.5 -32t-40.5 -95z" />
    <glyph glyph-name="edieresis" unicode="&#xeb;" horiz-adv-x="556" 
d="M286 -10q-111 0 -184 67t-73 204q0 136 72 202.5t183 66.5q109 0 176.5 -64.5t67.5 -199.5q0 -22 -3 -39h-375q11 -139 139 -139q95 0 118 75h114q-20 -86 -82.5 -129.5t-152.5 -43.5zM92 663q0 30 21.5 50.5t50.5 20.5t50.5 -20.5t21.5 -50.5q0 -29 -21.5 -49.5
t-50.5 -20.5t-50.5 20.5t-21.5 49.5zM151 305h256q-2 58 -33.5 92.5t-91.5 34.5q-57 0 -90.5 -32t-40.5 -95zM318 663q0 30 21.5 50.5t50.5 20.5t50.5 -20.5t21.5 -50.5q0 -29 -21.5 -49.5t-50.5 -20.5t-50.5 20.5t-21.5 49.5z" />
    <glyph glyph-name="igrave" unicode="&#xec;" horiz-adv-x="219" 
d="M45 0v520h128v-520h-128zM-36 718h112l104 -137h-112z" />
    <glyph glyph-name="iacute" unicode="&#xed;" horiz-adv-x="219" 
d="M45 0v520h128v-520h-128zM49 581l104 137h112l-104 -137h-112z" />
    <glyph glyph-name="icircumflex" unicode="&#xee;" horiz-adv-x="219" 
d="M45 0v520h128v-520h-128zM-79 581l98 137h178l98 -137h-115l-72 102l-72 -102h-115z" />
    <glyph glyph-name="idieresis" unicode="&#xef;" horiz-adv-x="219" 
d="M45 0v520h128v-520h-128zM-77 663q0 30 21.5 50.5t50.5 20.5t50.5 -20.5t21.5 -50.5q0 -29 -21.5 -49.5t-50.5 -20.5t-50.5 20.5t-21.5 49.5zM149 663q0 30 21.5 50.5t50.5 20.5t50.5 -20.5t21.5 -50.5q0 -29 -21.5 -49.5t-50.5 -20.5t-50.5 20.5t-21.5 49.5z" />
    <glyph glyph-name="eth" unicode="&#xf0;" horiz-adv-x="587" 
d="M281 -10q-106 0 -179 69.5t-73 201.5q0 122 65.5 190.5t166.5 68.5q64 0 108 -33q-29 56 -64 105h-126v58h79q-15 17 -48 50h129l40 -50h139v-58h-95q65 -90 88 -157t23 -162q0 -140 -72.5 -211.5t-180.5 -71.5zM155 261q0 -82 36.5 -121.5t90.5 -39.5t89.5 39.5
t35.5 121.5q0 76 -35 112.5t-90 36.5q-56 0 -91.5 -36.5t-35.5 -112.5z" />
    <glyph glyph-name="ntilde" unicode="&#xf1;" 
d="M409 297q0 127 -106 127q-55 0 -88 -32.5t-33 -94.5v-297h-128v520h128v-107h4q9 43 52.5 80t117.5 37q81 0 131 -51t50 -152v-327h-128v297zM127 619q0 52 25 81t71 29q25 0 46.5 -9t33 -20.5t25 -20.5t26.5 -9t24 9t12 24h76q0 -52 -25 -81t-71 -29q-25 0 -46.5 9
t-33 20.5t-25 20.5t-26.5 9t-24 -9t-12 -24h-76z" />
    <glyph glyph-name="ograve" unicode="&#xf2;" horiz-adv-x="573" 
d="M287 -10q-108 0 -183 69t-75 201t75 201t183 69q107 0 182.5 -69t75.5 -201t-75.5 -201t-182.5 -69zM141 718h112l104 -137h-112zM149 260q0 -81 38.5 -122t99.5 -41q60 0 98.5 41t38.5 122t-38.5 122t-98.5 41q-61 0 -99.5 -41t-38.5 -122z" />
    <glyph glyph-name="oacute" unicode="&#xf3;" horiz-adv-x="573" 
d="M287 -10q-108 0 -183 69t-75 201t75 201t183 69q107 0 182.5 -69t75.5 -201t-75.5 -201t-182.5 -69zM149 260q0 -81 38.5 -122t99.5 -41q60 0 98.5 41t38.5 122t-38.5 122t-98.5 41q-61 0 -99.5 -41t-38.5 -122zM226 581l104 137h112l-104 -137h-112z" />
    <glyph glyph-name="ocircumflex" unicode="&#xf4;" horiz-adv-x="573" 
d="M287 -10q-108 0 -183 69t-75 201t75 201t183 69q107 0 182.5 -69t75.5 -201t-75.5 -201t-182.5 -69zM99 581l98 137h178l98 -137h-115l-72 102l-72 -102h-115zM149 260q0 -81 38.5 -122t99.5 -41q60 0 98.5 41t38.5 122t-38.5 122t-98.5 41q-61 0 -99.5 -41t-38.5 -122z
" />
    <glyph glyph-name="otilde" unicode="&#xf5;" horiz-adv-x="573" 
d="M287 -10q-108 0 -183 69t-75 201t75 201t183 69q107 0 182.5 -69t75.5 -201t-75.5 -201t-182.5 -69zM117 619q0 52 25 81t71 29q25 0 46.5 -9t33 -20.5t25 -20.5t26.5 -9t24 9t12 24h76q0 -52 -25 -81t-71 -29q-25 0 -46.5 9t-33 20.5t-25 20.5t-26.5 9t-24 -9t-12 -24
h-76zM149 260q0 -81 38.5 -122t99.5 -41q60 0 98.5 41t38.5 122t-38.5 122t-98.5 41q-61 0 -99.5 -41t-38.5 -122z" />
    <glyph glyph-name="odieresis" unicode="&#xf6;" horiz-adv-x="573" 
d="M287 -10q-108 0 -183 69t-75 201t75 201t183 69q107 0 182.5 -69t75.5 -201t-75.5 -201t-182.5 -69zM100 663q0 30 21.5 50.5t50.5 20.5t50.5 -20.5t21.5 -50.5q0 -29 -21.5 -49.5t-50.5 -20.5t-50.5 20.5t-21.5 49.5zM149 260q0 -81 38.5 -122t99.5 -41q60 0 98.5 41
t38.5 122t-38.5 122t-98.5 41q-61 0 -99.5 -41t-38.5 -122zM326 663q0 30 21.5 50.5t50.5 20.5t50.5 -20.5t21.5 -50.5q0 -29 -21.5 -49.5t-50.5 -20.5t-50.5 20.5t-21.5 49.5z" />
    <glyph glyph-name="divide" unicode="&#xf7;" horiz-adv-x="431" 
d="M217 388q-24 0 -40.5 16.5t-16.5 40.5q0 23 16.5 39t40.5 16q23 0 39 -16t16 -39q0 -24 -16 -40.5t-39 -16.5zM54 229v96h323v-96h-323zM160 111q0 23 16.5 39t40.5 16q23 0 39 -16t16 -39q0 -24 -16 -40.5t-39 -16.5q-24 0 -40.5 16.5t-16.5 40.5z" />
    <glyph glyph-name="oslash" unicode="&#xf8;" horiz-adv-x="573" 
d="M86 -50l43 88q-100 73 -100 222q0 132 75 201t183 69q42 0 78 -10l29 58h94l-46 -94q103 -73 103 -224q0 -132 -75.5 -201t-182.5 -69q-41 0 -82 11l-25 -51h-94zM149 260q0 -73 33 -115l135 275q-15 3 -30 3q-61 0 -99.5 -41t-38.5 -122zM254 100q15 -3 33 -3
q60 0 98.5 41t38.5 122q0 76 -35 117z" />
    <glyph glyph-name="ugrave" unicode="&#xf9;" 
d="M181 223q0 -127 106 -127q51 0 84 29.5t37 84.5l1 310h128l-1 -520h-128v107h-4q-9 -43 -52.5 -80t-117.5 -37q-81 0 -131 51t-49 152v327h128zM147 718h112l104 -137h-112z" />
    <glyph glyph-name="uacute" unicode="&#xfa;" 
d="M181 223q0 -127 106 -127q51 0 84 29.5t37 84.5l1 310h128l-1 -520h-128v107h-4q-9 -43 -52.5 -80t-117.5 -37q-81 0 -131 51t-49 152v327h128zM233 581l104 137h112l-104 -137h-112z" />
    <glyph glyph-name="ucircumflex" unicode="&#xfb;" 
d="M181 223q0 -127 106 -127q51 0 84 29.5t37 84.5l1 310h128l-1 -520h-128v107h-4q-9 -43 -52.5 -80t-117.5 -37q-81 0 -131 51t-49 152v327h128zM105 581l98 137h178l98 -137h-115l-72 102l-72 -102h-115z" />
    <glyph glyph-name="udieresis" unicode="&#xfc;" 
d="M181 223q0 -127 106 -127q51 0 84 29.5t37 84.5l1 310h128l-1 -520h-128v107h-4q-9 -43 -52.5 -80t-117.5 -37q-81 0 -131 51t-49 152v327h128zM106 663q0 30 21.5 50.5t50.5 20.5t50.5 -20.5t21.5 -50.5q0 -29 -21.5 -49.5t-50.5 -20.5t-50.5 20.5t-21.5 49.5zM332 663
q0 30 21.5 50.5t50.5 20.5t50.5 -20.5t21.5 -50.5q0 -29 -21.5 -49.5t-50.5 -20.5t-50.5 20.5t-21.5 49.5z" />
    <glyph glyph-name="yacute" unicode="&#xfd;" horiz-adv-x="567" 
d="M71 -89q110 -15 140 60q14 35 0 70l-192 479h131l133 -360l134 360h132l-216 -534q-46 -113 -103.5 -154t-158.5 -30v109zM223 581l104 137h112l-104 -137h-112z" />
    <glyph glyph-name="thorn" unicode="&#xfe;" horiz-adv-x="601" 
d="M54 -190v890h128v-256q18 38 62 62t99 24q93 0 161 -68.5t68 -201.5t-68 -201.5t-161 -68.5q-55 0 -99 24t-62 62v-266h-128zM176 260q0 -79 40 -121t97 -42q58 0 98.5 42t40.5 121t-40.5 121t-98.5 42q-57 0 -97 -42t-40 -121z" />
    <glyph glyph-name="ydieresis" unicode="&#xff;" horiz-adv-x="567" 
d="M71 -89q110 -15 140 60q14 35 0 70l-192 479h131l133 -360l134 360h132l-216 -534q-46 -113 -103.5 -154t-158.5 -30v109zM97 663q0 30 21.5 50.5t50.5 20.5t50.5 -20.5t21.5 -50.5q0 -29 -21.5 -49.5t-50.5 -20.5t-50.5 20.5t-21.5 49.5zM323 663q0 30 21.5 50.5
t50.5 20.5t50.5 -20.5t21.5 -50.5q0 -29 -21.5 -49.5t-50.5 -20.5t-50.5 20.5t-21.5 49.5z" />
    <glyph glyph-name="Amacron" unicode="&#x100;" horiz-adv-x="719" 
d="M19 0l257 700h168l257 -700h-139l-50 143h-305l-50 -143h-138zM201 823v75h319v-75h-319zM242 241h236l-114 324h-8z" />
    <glyph glyph-name="amacron" unicode="&#x101;" horiz-adv-x="558" 
d="M196 -10q-72 0 -119.5 36.5t-47.5 109.5q0 39 14 67t41 45t56 26t69 14l97 13q39 5 52.5 14t13.5 29v11q0 82 -94 82q-101 0 -101 -76v-11h-120v23q0 157 224 157q114 0 165.5 -41.5t51.5 -128.5v-360h-123v93h-5q-8 -20 -24 -40.5t-56.5 -41.5t-93.5 -21zM113 643v75
h319v-75h-319zM157 147q0 -64 81 -64q58 0 96 31t38 66v66q-9 -15 -61 -22l-83 -13q-71 -11 -71 -64z" />
    <glyph glyph-name="Abreve" unicode="&#x102;" horiz-adv-x="719" 
d="M19 0l257 700h168l257 -700h-139l-50 143h-305l-50 -143h-138zM204 898h85q2 -37 18.5 -54.5t52.5 -17.5t52.5 17.5t18.5 54.5h85q0 -68 -39.5 -107.5t-116.5 -39.5q-76 0 -116 39.5t-40 107.5zM242 241h236l-114 324h-8z" />
    <glyph glyph-name="abreve" unicode="&#x103;" horiz-adv-x="558" 
d="M196 -10q-72 0 -119.5 36.5t-47.5 109.5q0 39 14 67t41 45t56 26t69 14l97 13q39 5 52.5 14t13.5 29v11q0 82 -94 82q-101 0 -101 -76v-11h-120v23q0 157 224 157q114 0 165.5 -41.5t51.5 -128.5v-360h-123v93h-5q-8 -20 -24 -40.5t-56.5 -41.5t-93.5 -21zM117 718h85
q2 -37 18.5 -54.5t52.5 -17.5t52.5 17.5t18.5 54.5h85q0 -68 -39.5 -107.5t-116.5 -39.5q-76 0 -116 39.5t-40 107.5zM157 147q0 -64 81 -64q58 0 96 31t38 66v66q-9 -15 -61 -22l-83 -13q-71 -11 -71 -64z" />
    <glyph glyph-name="Aogonek" unicode="&#x104;" horiz-adv-x="719" 
d="M19 0l257 700h168l257 -700q-60 0 -92 -22t-32 -54q0 -27 22 -39t53 -3v-72q-18 -9 -47 -6.5t-56.5 11t-47.5 33.5t-20 61q0 76 75 109l-44 125h-305l-50 -143h-138zM242 241h236l-114 324h-8z" />
    <glyph glyph-name="aogonek" unicode="&#x105;" horiz-adv-x="558" 
d="M196 -10q-72 0 -119.5 36.5t-47.5 109.5q0 39 14 67t41 45t56 26t69 14l97 13q39 5 52.5 14t13.5 29v11q0 82 -94 82q-101 0 -101 -76v-11h-120v23q0 157 224 157q114 0 165.5 -41.5t51.5 -128.5v-358l5 -2q-60 0 -92 -22t-32 -54q0 -27 22 -39t53 -3v-72
q-18 -9 -47 -6.5t-56.5 11t-47.5 33.5t-20 61q0 44 26 73.5t66 41.5v69h-5q-8 -20 -24 -40.5t-56.5 -41.5t-93.5 -21zM157 147q0 -64 81 -64q58 0 96 31t38 66v66q-9 -15 -61 -22l-83 -13q-71 -11 -71 -64z" />
    <glyph glyph-name="Cacute" unicode="&#x106;" horiz-adv-x="681" 
d="M364 -10q-150 0 -237.5 95t-87.5 265q0 169 88 264t238 95q118 0 196 -61t90 -181h-128q-15 64 -57.5 96t-103.5 32q-93 0 -141 -66.5t-48 -178.5q0 -113 47.5 -179.5t141.5 -66.5q61 0 103.5 32t57.5 97h128q-12 -120 -90 -181.5t-197 -61.5zM309 761l104 137h112
l-104 -137h-112z" />
    <glyph glyph-name="cacute" unicode="&#x107;" horiz-adv-x="551" 
d="M288 -10q-108 0 -183.5 67.5t-75.5 201.5q0 69 22 122.5t59 85t82 47.5t96 16q38 0 73 -9t70 -30t59 -63.5t31 -102.5h-116q-18 97 -118 97q-66 0 -102 -44t-36 -119t36 -118t102 -43q100 0 118 98h116q-5 -48 -22 -85.5t-40.5 -59.5t-54 -36.5t-58.5 -19.5t-58 -5z
M220 581l104 137h112l-104 -137h-112z" />
    <glyph glyph-name="Ccircumflex" unicode="&#x108;" horiz-adv-x="681" 
d="M364 -10q-150 0 -237.5 95t-87.5 265q0 169 88 264t238 95q118 0 196 -61t90 -181h-128q-15 64 -57.5 96t-103.5 32q-93 0 -141 -66.5t-48 -178.5q0 -113 47.5 -179.5t141.5 -66.5q61 0 103.5 32t57.5 97h128q-12 -120 -90 -181.5t-197 -61.5zM182 761l98 137h178
l98 -137h-115l-72 102l-72 -102h-115z" />
    <glyph glyph-name="ccircumflex" unicode="&#x109;" horiz-adv-x="551" 
d="M288 -10q-108 0 -183.5 67.5t-75.5 201.5q0 69 22 122.5t59 85t82 47.5t96 16q38 0 73 -9t70 -30t59 -63.5t31 -102.5h-116q-18 97 -118 97q-66 0 -102 -44t-36 -119t36 -118t102 -43q100 0 118 98h116q-5 -48 -22 -85.5t-40.5 -59.5t-54 -36.5t-58.5 -19.5t-58 -5z
M93 581l98 137h178l98 -137h-115l-72 102l-72 -102h-115z" />
    <glyph glyph-name="Cdotaccent" unicode="&#x10a;" horiz-adv-x="681" 
d="M364 -10q-150 0 -237.5 95t-87.5 265q0 169 88 264t238 95q118 0 196 -61t90 -181h-128q-15 64 -57.5 96t-103.5 32q-93 0 -141 -66.5t-48 -178.5q0 -113 47.5 -179.5t141.5 -66.5q61 0 103.5 32t57.5 97h128q-12 -120 -90 -181.5t-197 -61.5zM298 843q0 30 21.5 50.5
t50.5 20.5t50.5 -20.5t21.5 -50.5q0 -29 -21.5 -49.5t-50.5 -20.5t-50.5 20.5t-21.5 49.5z" />
    <glyph glyph-name="cdotaccent" unicode="&#x10b;" horiz-adv-x="551" 
d="M288 -10q-108 0 -183.5 67.5t-75.5 201.5q0 69 22 122.5t59 85t82 47.5t96 16q38 0 73 -9t70 -30t59 -63.5t31 -102.5h-116q-18 97 -118 97q-66 0 -102 -44t-36 -119t36 -118t102 -43q100 0 118 98h116q-5 -48 -22 -85.5t-40.5 -59.5t-54 -36.5t-58.5 -19.5t-58 -5z
M209 663q0 30 21.5 50.5t50.5 20.5t50.5 -20.5t21.5 -50.5q0 -29 -21.5 -49.5t-50.5 -20.5t-50.5 20.5t-21.5 49.5z" />
    <glyph glyph-name="Ccaron" unicode="&#x10c;" horiz-adv-x="681" 
d="M364 -10q-150 0 -237.5 95t-87.5 265q0 169 88 264t238 95q118 0 196 -61t90 -181h-128q-15 64 -57.5 96t-103.5 32q-93 0 -141 -66.5t-48 -178.5q0 -113 47.5 -179.5t141.5 -66.5q61 0 103.5 32t57.5 97h128q-12 -120 -90 -181.5t-197 -61.5zM176 897h115l72 -102
l72 102h115l-98 -137h-178z" />
    <glyph glyph-name="ccaron" unicode="&#x10d;" horiz-adv-x="551" 
d="M288 -10q-108 0 -183.5 67.5t-75.5 201.5q0 69 22 122.5t59 85t82 47.5t96 16q38 0 73 -9t70 -30t59 -63.5t31 -102.5h-116q-18 97 -118 97q-66 0 -102 -44t-36 -119t36 -118t102 -43q100 0 118 98h116q-5 -48 -22 -85.5t-40.5 -59.5t-54 -36.5t-58.5 -19.5t-58 -5z
M87 717h115l72 -102l72 102h115l-98 -137h-178z" />
    <glyph glyph-name="Dcaron" unicode="&#x10e;" horiz-adv-x="678" 
d="M54 0v700h254q163 0 247 -90.5t84 -259.5t-84 -259.5t-247 -90.5h-254zM140 897h115l72 -102l72 102h115l-98 -137h-178zM185 115h110q113 0 161.5 55.5t48.5 179.5t-48.5 179.5t-161.5 55.5h-110v-470z" />
    <glyph glyph-name="dcaron" unicode="&#x10f;" horiz-adv-x="647" 
d="M258 -10q-93 0 -161 68.5t-68 201.5t68 201.5t161 68.5q56 0 99 -23.5t62 -61.5v255h128v-700h-128v75q-19 -38 -62 -61.5t-99 -23.5zM149 260q0 -79 40.5 -121t98.5 -42q57 0 97 42t40 121t-40 121t-97 42q-58 0 -98.5 -42t-40.5 -121zM577 563l104 137h112l-104 -137
h-112z" />
    <glyph glyph-name="Dcroat" unicode="&#x110;" horiz-adv-x="709" 
d="M85 0v297h-65v96h65v307h254q163 0 247 -90.5t84 -259.5t-84 -259.5t-247 -90.5h-254zM216 115h110q113 0 161.5 55.5t48.5 179.5t-48.5 179.5t-161.5 55.5h-110v-192h103v-96h-103v-182z" />
    <glyph glyph-name="dcroat" unicode="&#x111;" horiz-adv-x="631" 
d="M271 592v58h148v50h128v-50h62v-58h-62v-592h-128v75q-19 -38 -62 -61.5t-99 -23.5q-93 0 -161 68.5t-68 201.5t68 201.5t161 68.5q56 0 99 -23.5t62 -61.5v147h-148zM149 260q0 -79 40.5 -121t98.5 -42q57 0 97 42t40 121t-40 121t-97 42q-58 0 -98.5 -42t-40.5 -121z
" />
    <glyph glyph-name="Emacron" unicode="&#x112;" horiz-adv-x="561" 
d="M54 0v700h469v-115h-338v-178h308v-103h-308v-189h348v-115h-479zM138 823v75h319v-75h-319z" />
    <glyph glyph-name="emacron" unicode="&#x113;" horiz-adv-x="556" 
d="M286 -10q-111 0 -184 67t-73 204q0 136 72 202.5t183 66.5q109 0 176.5 -64.5t67.5 -199.5q0 -22 -3 -39h-375q11 -139 139 -139q95 0 118 75h114q-20 -86 -82.5 -129.5t-152.5 -43.5zM119 643v75h319v-75h-319zM151 305h256q-2 58 -33.5 92.5t-91.5 34.5
q-57 0 -90.5 -32t-40.5 -95z" />
    <glyph glyph-name="Edotaccent" unicode="&#x116;" horiz-adv-x="561" 
d="M54 0v700h469v-115h-338v-178h308v-103h-308v-189h348v-115h-479zM226 843q0 30 21.5 50.5t50.5 20.5t50.5 -20.5t21.5 -50.5q0 -29 -21.5 -49.5t-50.5 -20.5t-50.5 20.5t-21.5 49.5z" />
    <glyph glyph-name="edotaccent" unicode="&#x117;" horiz-adv-x="556" 
d="M286 -10q-111 0 -184 67t-73 204q0 136 72 202.5t183 66.5q109 0 176.5 -64.5t67.5 -199.5q0 -22 -3 -39h-375q11 -139 139 -139q95 0 118 75h114q-20 -86 -82.5 -129.5t-152.5 -43.5zM151 305h256q-2 58 -33.5 92.5t-91.5 34.5q-57 0 -90.5 -32t-40.5 -95zM208 663
q0 30 21.5 50.5t50.5 20.5t50.5 -20.5t21.5 -50.5q0 -29 -21.5 -49.5t-50.5 -20.5t-50.5 20.5t-21.5 49.5z" />
    <glyph glyph-name="Eogonek" unicode="&#x118;" horiz-adv-x="561" 
d="M54 0v700h469v-115h-338v-178h308v-103h-308v-189h348v-115q-60 0 -92 -22t-32 -54q0 -27 22 -39t53 -3v-72q-18 -9 -47 -6.5t-56.5 11t-47.5 33.5t-20 61q0 56 45 91h-304z" />
    <glyph glyph-name="eogonek" unicode="&#x119;" horiz-adv-x="556" 
d="M358 -190q-18 -9 -47.5 -6.5t-57 11t-47.5 33.5t-20 61q0 53 40 86q-88 17 -142.5 83t-54.5 183q0 136 72 202.5t183 66.5q109 0 176.5 -64.5t67.5 -199.5q0 -22 -3 -39h-375q11 -139 139 -139q95 0 118 75h114q-32 -134 -164 -165l2 -2q-37 -8 -57 -28t-20 -44
q0 -27 22 -39t54 -3v-72zM151 305h256q-2 58 -33.5 92.5t-91.5 34.5q-57 0 -90.5 -32t-40.5 -95z" />
    <glyph glyph-name="Ecaron" unicode="&#x11a;" horiz-adv-x="561" 
d="M54 0v700h469v-115h-338v-178h308v-103h-308v-189h348v-115h-479zM104 897h115l72 -102l72 102h115l-98 -137h-178z" />
    <glyph glyph-name="ecaron" unicode="&#x11b;" horiz-adv-x="556" 
d="M286 -10q-111 0 -184 67t-73 204q0 136 72 202.5t183 66.5q109 0 176.5 -64.5t67.5 -199.5q0 -22 -3 -39h-375q11 -139 139 -139q95 0 118 75h114q-20 -86 -82.5 -129.5t-152.5 -43.5zM85 717h115l72 -102l72 102h115l-98 -137h-178zM151 305h256q-2 58 -33.5 92.5
t-91.5 34.5q-57 0 -90.5 -32t-40.5 -95z" />
    <glyph glyph-name="Gcircumflex" unicode="&#x11c;" horiz-adv-x="708" 
d="M363 -10q-154 0 -239 94t-85 263q0 172 87 267t235 95q113 0 192 -56t96 -163h-131q-29 105 -157 105q-96 0 -143 -65.5t-47 -178.5t48 -180t144 -67q73 0 122 41t49 127h-146v106h277v-66q0 -157 -79 -239.5t-223 -82.5zM173 761l98 137h178l98 -137h-115l-72 102
l-72 -102h-115z" />
    <glyph glyph-name="gcircumflex" unicode="&#x11d;" horiz-adv-x="594" 
d="M278 -209q-41 0 -78.5 7.5t-75 25t-60.5 54t-23 87.5h113q2 -37 37.5 -56t83.5 -19q61 0 99.5 31.5t38.5 94.5v74h-2q-22 -35 -64.5 -56t-95.5 -21q-92 0 -157 64t-65 194t65.5 194.5t156.5 64.5q53 0 95.5 -21t64.5 -56h2v67h128v-504q0 -54 -17.5 -95t-44 -65
t-63 -39.5t-69.5 -20.5t-69 -5zM101 581l98 137h178l98 -137h-115l-72 102l-72 -102h-115zM149 271q0 -73 39 -112.5t96 -39.5t95.5 39.5t38.5 112.5q0 74 -38.5 113t-95.5 39t-96 -39t-39 -113z" />
    <glyph glyph-name="Gbreve" unicode="&#x11e;" horiz-adv-x="708" 
d="M363 -10q-154 0 -239 94t-85 263q0 172 87 267t235 95q113 0 192 -56t96 -163h-131q-29 105 -157 105q-96 0 -143 -65.5t-47 -178.5t48 -180t144 -67q73 0 122 41t49 127h-146v106h277v-66q0 -157 -79 -239.5t-223 -82.5zM204 898h85q2 -37 18.5 -54.5t52.5 -17.5
t52.5 17.5t18.5 54.5h85q0 -68 -39.5 -107.5t-116.5 -39.5q-76 0 -116 39.5t-40 107.5z" />
    <glyph glyph-name="gbreve" unicode="&#x11f;" horiz-adv-x="594" 
d="M278 -209q-41 0 -78.5 7.5t-75 25t-60.5 54t-23 87.5h113q2 -37 37.5 -56t83.5 -19q61 0 99.5 31.5t38.5 94.5v74h-2q-22 -35 -64.5 -56t-95.5 -21q-92 0 -157 64t-65 194t65.5 194.5t156.5 64.5q53 0 95.5 -21t64.5 -56h2v67h128v-504q0 -54 -17.5 -95t-44 -65
t-63 -39.5t-69.5 -20.5t-69 -5zM132 718h85q2 -37 18.5 -54.5t52.5 -17.5t52.5 17.5t18.5 54.5h85q0 -68 -39.5 -107.5t-116.5 -39.5q-76 0 -116 39.5t-40 107.5zM149 271q0 -73 39 -112.5t96 -39.5t95.5 39.5t38.5 112.5q0 74 -38.5 113t-95.5 39t-96 -39t-39 -113z" />
    <glyph glyph-name="Gdotaccent" unicode="&#x120;" horiz-adv-x="708" 
d="M363 -10q-154 0 -239 94t-85 263q0 172 87 267t235 95q113 0 192 -56t96 -163h-131q-29 105 -157 105q-96 0 -143 -65.5t-47 -178.5t48 -180t144 -67q73 0 122 41t49 127h-146v106h277v-66q0 -157 -79 -239.5t-223 -82.5zM289 843q0 30 21.5 50.5t50.5 20.5t50.5 -20.5
t21.5 -50.5q0 -29 -21.5 -49.5t-50.5 -20.5t-50.5 20.5t-21.5 49.5z" />
    <glyph glyph-name="gdotaccent" unicode="&#x121;" horiz-adv-x="594" 
d="M278 -209q-41 0 -78.5 7.5t-75 25t-60.5 54t-23 87.5h113q2 -37 37.5 -56t83.5 -19q61 0 99.5 31.5t38.5 94.5v74h-2q-22 -35 -64.5 -56t-95.5 -21q-92 0 -157 64t-65 194t65.5 194.5t156.5 64.5q53 0 95.5 -21t64.5 -56h2v67h128v-504q0 -54 -17.5 -95t-44 -65
t-63 -39.5t-69.5 -20.5t-69 -5zM149 271q0 -73 39 -112.5t96 -39.5t95.5 39.5t38.5 112.5q0 74 -38.5 113t-95.5 39t-96 -39t-39 -113zM217 663q0 30 21.5 50.5t50.5 20.5t50.5 -20.5t21.5 -50.5q0 -29 -21.5 -49.5t-50.5 -20.5t-50.5 20.5t-21.5 49.5z" />
    <glyph glyph-name="uni0122" unicode="&#x122;" horiz-adv-x="708" 
d="M363 -10q-154 0 -239 94t-85 263q0 172 87 267t235 95q113 0 192 -56t96 -163h-131q-29 105 -157 105q-96 0 -143 -65.5t-47 -178.5t48 -180t144 -67q73 0 122 41t49 127h-146v106h277v-66q0 -157 -79 -239.5t-223 -82.5zM286 -106q0 33 22 54t56 21q40 0 65 -29.5
t25 -88.5q0 -71 -37.5 -111.5t-99.5 -40.5h-10v54q39 1 56 16t17 46q-44 0 -69 22.5t-25 56.5z" />
    <glyph glyph-name="uni0123" unicode="&#x123;" horiz-adv-x="594" 
d="M278 -209q-41 0 -78.5 7.5t-75 25t-60.5 54t-23 87.5h113q2 -37 37.5 -56t83.5 -19q61 0 99.5 31.5t38.5 94.5v74h-2q-22 -35 -64.5 -56t-95.5 -21q-92 0 -157 64t-65 194t65.5 194.5t156.5 64.5q53 0 95.5 -21t64.5 -56h2v67h128v-504q0 -54 -17.5 -95t-44 -65
t-63 -39.5t-69.5 -20.5t-69 -5zM149 271q0 -73 39 -112.5t96 -39.5t95.5 39.5t38.5 112.5q0 74 -38.5 113t-95.5 39t-96 -39t-39 -113zM186 686q0 71 37.5 111.5t99.5 40.5h10v-54q-39 -1 -56 -16t-17 -46q44 0 69 -22.5t25 -56.5q0 -33 -22 -54t-56 -21q-40 0 -65 29.5
t-25 88.5z" />
    <glyph glyph-name="Hcircumflex" unicode="&#x124;" horiz-adv-x="670" 
d="M485 0v293h-300v-293h-131v700h131v-298h300v298h131v-700h-131zM149 761l98 137h178l98 -137h-115l-72 102l-72 -102h-115z" />
    <glyph glyph-name="hcircumflex" unicode="&#x125;" 
d="M409 297q0 127 -106 127q-55 0 -88 -32.5t-33 -94.5v-297h-128v700h128v-287h4q9 43 52.5 80t117.5 37q81 0 131 -51t50 -152v-327h-128v297zM-70 761l98 137h178l98 -137h-115l-72 102l-72 -102h-115z" />
    <glyph glyph-name="Hbar" unicode="&#x126;" horiz-adv-x="670" 
d="M485 0v293h-300v-293h-131v700h131v-121h300v121h131v-700h-131zM185 402h300v68h-300v-68z" />
    <glyph glyph-name="hbar" unicode="&#x127;" horiz-adv-x="590" 
d="M-12 592v58h66v50h128v-50h145v-58h-145v-179h4q9 43 52.5 80t117.5 37q81 0 131 -51t50 -152v-327h-128v297q0 127 -106 127q-55 0 -88 -32.5t-33 -94.5v-297h-128v592h-66z" />
    <glyph glyph-name="Itilde" unicode="&#x128;" horiz-adv-x="238" 
d="M54 0v700h131v-700h-131zM-51 799q0 52 25 81t71 29q25 0 46.5 -9t33 -20.5t25 -20.5t26.5 -9t24 9t12 24h76q0 -52 -25 -81t-71 -29q-25 0 -46.5 9t-33 20.5t-25 20.5t-26.5 9t-24 -9t-12 -24h-76z" />
    <glyph glyph-name="itilde" unicode="&#x129;" horiz-adv-x="219" 
d="M45 0v520h128v-520h-128zM-60 619q0 52 25 81t71 29q25 0 46.5 -9t33 -20.5t25 -20.5t26.5 -9t24 9t12 24h76q0 -52 -25 -81t-71 -29q-25 0 -46.5 9t-33 20.5t-25 20.5t-26.5 9t-24 -9t-12 -24h-76z" />
    <glyph glyph-name="Imacron" unicode="&#x12a;" horiz-adv-x="238" 
d="M54 0v700h131v-700h-131zM-41 823v75h319v-75h-319z" />
    <glyph glyph-name="imacron" unicode="&#x12b;" horiz-adv-x="219" 
d="M45 0v520h128v-520h-128zM-50 643v75h319v-75h-319z" />
    <glyph glyph-name="Iogonek" unicode="&#x12e;" horiz-adv-x="238" 
d="M136 -190q-18 -9 -47 -6.5t-56.5 11t-47.5 33.5t-20 61q0 42 25.5 72t63.5 42v677h131v-700q-60 0 -92 -22t-32 -54q0 -27 22 -39t53 -3v-72z" />
    <glyph glyph-name="iogonek" unicode="&#x12f;" horiz-adv-x="219" 
d="M111 593q-29 0 -50.5 20.5t-21.5 49.5q0 30 21.5 50.5t50.5 20.5t50.5 -20.5t21.5 -50.5q0 -29 -21.5 -49.5t-50.5 -20.5zM-47 -91q0 44 26 73.5t66 41.5v496h128v-520q-60 0 -92 -22t-32 -54q0 -27 22 -39t53 -3v-72q-18 -9 -47 -6.5t-56.5 11t-47.5 33.5t-20 61z" />
    <glyph glyph-name="Idotaccent" unicode="&#x130;" horiz-adv-x="238" 
d="M54 0v700h131v-700h-131zM48 843q0 30 21.5 50.5t50.5 20.5t50.5 -20.5t21.5 -50.5q0 -29 -21.5 -49.5t-50.5 -20.5t-50.5 20.5t-21.5 49.5z" />
    <glyph glyph-name="dotlessi" unicode="&#x131;" horiz-adv-x="219" 
d="M45 0v520h128v-520h-128z" />
    <glyph glyph-name="IJ" unicode="&#x132;" horiz-adv-x="906" 
d="M54 0v700h131v-700h-131zM292 265h132q0 -79 39 -119.5t109 -40.5q71 0 110 42.5t39 127.5v425h131v-436q0 -133 -76 -203.5t-205 -70.5q-130 0 -204.5 70t-74.5 205z" />
    <glyph glyph-name="ij" unicode="&#x133;" horiz-adv-x="474" 
d="M54 0v520h128v-520h-128zM45 665q0 30 21.5 51t51.5 21q29 0 50.5 -21t21.5 -51t-21.5 -51t-50.5 -21q-30 0 -51.5 21t-21.5 51zM182 -190v100h46q35 0 49.5 17.5t14.5 52.5v540h128v-560q0 -153 -161 -153q-51 0 -77 3zM284 665q0 30 21.5 51t50.5 21t50.5 -21t21.5 -51
t-21.5 -51t-50.5 -21t-50.5 21t-21.5 51z" />
    <glyph glyph-name="Jcircumflex" unicode="&#x134;" horiz-adv-x="668" 
d="M333 -10q-130 0 -204.5 70t-74.5 205h132q0 -79 39 -119.5t109 -40.5q71 0 110 42.5t39 127.5v425h131v-436q0 -133 -76 -203.5t-205 -70.5zM365 761l98 137h178l98 -137h-115l-72 102l-72 -102h-115z" />
    <glyph glyph-name="jcircumflex" unicode="&#x135;" horiz-adv-x="240" 
d="M34 -193q-51 0 -77 3v100h46q35 0 49.5 17.5t14.5 52.5v540h128v-560q0 -153 -161 -153zM-57 581l98 137h178l98 -137h-115l-72 102l-72 -102h-115z" />
    <glyph glyph-name="uni0136" unicode="&#x136;" horiz-adv-x="683" 
d="M54 0v700h131v-346l298 346h155l-273 -315l300 -385h-152l-229 292l-99 -115v-177h-131zM261 -106q0 33 22 54t56 21q40 0 65 -29.5t25 -88.5q0 -71 -37.5 -111.5t-99.5 -40.5h-10v54q39 1 56 16t17 46q-44 0 -69 22.5t-25 56.5z" />
    <glyph glyph-name="uni0137" unicode="&#x137;" horiz-adv-x="572" 
d="M54 0v700h128v-413l212 233h142l-213 -223l241 -297h-142l-177 216l-63 -66v-150h-128zM217 -106q0 33 22 54t56 21q40 0 65 -29.5t25 -88.5q0 -71 -37.5 -111.5t-99.5 -40.5h-10v54q39 1 56 16t17 46q-44 0 -69 22.5t-25 56.5z" />
    <glyph glyph-name="Lacute" unicode="&#x139;" horiz-adv-x="545" 
d="M54 0v700h131v-585h332v-115h-463zM57 761l104 137h112l-104 -137h-112z" />
    <glyph glyph-name="lacute" unicode="&#x13a;" horiz-adv-x="235" 
d="M54 0v700h128v-700h-128zM57 761l104 137h112l-104 -137h-112z" />
    <glyph glyph-name="uni013B" unicode="&#x13b;" horiz-adv-x="545" 
d="M54 0v700h131v-585h332v-115h-463zM202 -111q0 33 22 54t56 21q40 0 65 -29.5t25 -88.5q0 -71 -37.5 -111.5t-99.5 -40.5h-10v54q39 1 56 16t17 46q-44 0 -69 22.5t-25 56.5z" />
    <glyph glyph-name="uni013C" unicode="&#x13c;" horiz-adv-x="235" 
d="M54 0v700h128v-700h-128zM36 -106q0 33 22 54t56 21q40 0 65 -29.5t25 -88.5q0 -71 -37.5 -111.5t-99.5 -40.5h-10v54q39 1 56 16t17 46q-44 0 -69 22.5t-25 56.5z" />
    <glyph glyph-name="Lcaron" unicode="&#x13d;" horiz-adv-x="545" 
d="M54 0v700h131v-585h332v-115h-463zM281 634q0 33 22 54t56 21q40 0 65 -29.5t25 -88.5q0 -71 -37.5 -111.5t-99.5 -40.5h-10v54q39 1 56 16t17 46q-44 0 -69 22.5t-25 56.5z" />
    <glyph glyph-name="lcaron" unicode="&#x13e;" horiz-adv-x="300" 
d="M225 419l41 281h104l-41 -281h-104zM54 0v700h128v-700h-128z" />
    <glyph glyph-name="Lslash" unicode="&#x141;" horiz-adv-x="568" 
d="M14 140v129l63 67v364h131v-225l87 93h2v-128l-89 -94v-231h332v-115h-463v207z" />
    <glyph glyph-name="lslash" unicode="&#x142;" horiz-adv-x="253" 
d="M5 154v119l59 70v357h128v-206l55 65h1v-118l-56 -66v-375h-128v224z" />
    <glyph glyph-name="Nacute" unicode="&#x143;" horiz-adv-x="686" 
d="M54 0v700h138l306 -491h3v491h132v-700h-144l-301 483h-3v-483h-131zM283 761l104 137h112l-104 -137h-112z" />
    <glyph glyph-name="nacute" unicode="&#x144;" 
d="M409 297q0 127 -106 127q-55 0 -88 -32.5t-33 -94.5v-297h-128v520h128v-107h4q9 43 52.5 80t117.5 37q81 0 131 -51t50 -152v-327h-128v297zM236 581l104 137h112l-104 -137h-112z" />
    <glyph glyph-name="uni0145" unicode="&#x145;" horiz-adv-x="686" 
d="M54 0v700h138l306 -491h3v491h132v-700h-144l-301 483h-3v-483h-131zM262 -106q0 33 22 54t56 21q40 0 65 -29.5t25 -88.5q0 -71 -37.5 -111.5t-99.5 -40.5h-10v54q39 1 56 16t17 46q-44 0 -69 22.5t-25 56.5z" />
    <glyph glyph-name="uni0146" unicode="&#x146;" 
d="M409 297q0 127 -106 127q-55 0 -88 -32.5t-33 -94.5v-297h-128v520h128v-107h4q9 43 52.5 80t117.5 37q81 0 131 -51t50 -152v-327h-128v297zM215 -106q0 33 22 54t56 21q40 0 65 -29.5t25 -88.5q0 -71 -37.5 -111.5t-99.5 -40.5h-10v54q39 1 56 16t17 46q-44 0 -69 22.5
t-25 56.5z" />
    <glyph glyph-name="Ncaron" unicode="&#x147;" horiz-adv-x="686" 
d="M54 0v700h138l306 -491h3v491h132v-700h-144l-301 483h-3v-483h-131zM151 897h115l72 -102l72 102h115l-98 -137h-178z" />
    <glyph glyph-name="ncaron" unicode="&#x148;" 
d="M409 297q0 127 -106 127q-55 0 -88 -32.5t-33 -94.5v-297h-128v520h128v-107h4q9 43 52.5 80t117.5 37q81 0 131 -51t50 -152v-327h-128v297zM103 717h115l72 -102l72 102h115l-98 -137h-178z" />
    <glyph glyph-name="Eng" unicode="&#x14a;" horiz-adv-x="686" 
d="M355 -220q-77 0 -128 26v120q58 -31 123 -31q114 0 143 104l-305 480h-3v-479h-131v700h134l310 -488h3v488h132v-645q0 -133 -76 -204t-202 -71z" />
    <glyph glyph-name="eng" unicode="&#x14b;" 
d="M384 -220q-62 0 -103 19v104q40 -13 70 -13q58 0 58 66v341q0 127 -106 127q-55 0 -88 -32.5t-33 -94.5v-297h-128v520h128v-85q18 38 63.5 66.5t109.5 28.5q82 0 132 -51t50 -152v-391q0 -79 -40.5 -117.5t-112.5 -38.5z" />
    <glyph glyph-name="Omacron" unicode="&#x14c;" horiz-adv-x="736" 
d="M368 -10q-148 0 -238.5 98.5t-90.5 261.5q0 164 90.5 261.5t238.5 97.5t239 -97.5t91 -261.5q0 -163 -91 -261.5t-239 -98.5zM174 350q0 -115 52 -180.5t142 -65.5t142 65.5t52 180.5t-52 180t-142 65t-142 -65t-52 -180zM209 823v75h319v-75h-319z" />
    <glyph glyph-name="omacron" unicode="&#x14d;" horiz-adv-x="573" 
d="M287 -10q-108 0 -183 69t-75 201t75 201t183 69q107 0 182.5 -69t75.5 -201t-75.5 -201t-182.5 -69zM127 643v75h319v-75h-319zM149 260q0 -81 38.5 -122t99.5 -41q60 0 98.5 41t38.5 122t-38.5 122t-98.5 41q-61 0 -99.5 -41t-38.5 -122z" />
    <glyph glyph-name="Ohungarumlaut" unicode="&#x150;" horiz-adv-x="736" 
d="M368 -10q-148 0 -238.5 98.5t-90.5 261.5q0 164 90.5 261.5t238.5 97.5t239 -97.5t91 -261.5q0 -163 -91 -261.5t-239 -98.5zM174 350q0 -115 52 -180.5t142 -65.5t142 65.5t52 180.5t-52 180t-142 65t-142 -65t-52 -180zM208 761l104 137h112l-104 -137h-112zM380 761
l104 137h112l-104 -137h-112z" />
    <glyph glyph-name="ohungarumlaut" unicode="&#x151;" horiz-adv-x="573" 
d="M287 -10q-108 0 -183 69t-75 201t75 201t183 69q107 0 182.5 -69t75.5 -201t-75.5 -201t-182.5 -69zM127 581l104 137h112l-104 -137h-112zM149 260q0 -81 38.5 -122t99.5 -41q60 0 98.5 41t38.5 122t-38.5 122t-98.5 41q-61 0 -99.5 -41t-38.5 -122zM298 581l104 137
h112l-104 -137h-112z" />
    <glyph glyph-name="OE" unicode="&#x152;" horiz-adv-x="1072" 
d="M368 -10q-148 0 -238.5 98.5t-90.5 261.5q0 164 90.5 261.5t238.5 97.5q115 0 197 -60v51h469v-115h-338v-178h308v-103h-308v-189h348v-115h-479v51q-83 -61 -197 -61zM174 350q0 -115 52 -180.5t142 -65.5t142 65.5t52 180.5t-52 180t-142 65t-142 -65t-52 -180z" />
    <glyph glyph-name="oe" unicode="&#x153;" horiz-adv-x="954" 
d="M287 -10q-108 0 -183 69t-75 201t75 201t183 69q125 0 197 -84q68 84 198 84q109 0 176.5 -64.5t67.5 -199.5q0 -22 -3 -39h-375q11 -139 139 -139q95 0 118 75h114q-20 -86 -82.5 -129.5t-152.5 -43.5q-129 0 -200 85q-72 -85 -197 -85zM149 260q0 -81 38.5 -122
t99.5 -41q60 0 98.5 41t38.5 122t-38.5 122t-98.5 41q-61 0 -99.5 -41t-38.5 -122zM549 305h256q-2 58 -33.5 92.5t-91.5 34.5q-57 0 -90.5 -32t-40.5 -95z" />
    <glyph glyph-name="Racute" unicode="&#x154;" horiz-adv-x="651" 
d="M472 0q-10 19 -10 81v75q0 106 -118 106h-159v-262h-131v700h287q126 0 188.5 -56t62.5 -147q0 -125 -113 -174q63 -20 88 -61t25 -106v-75q0 -60 10 -81h-130zM185 368h151q59 0 90.5 29t31.5 82q0 106 -122 106h-151v-217zM227 761l104 137h112l-104 -137h-112z" />
    <glyph glyph-name="racute" unicode="&#x155;" horiz-adv-x="397" 
d="M54 0v520h128v-124h3q14 57 53 93.5t101 36.5q23 0 40 -5v-108q-23 3 -40 3q-69 0 -113 -43.5t-44 -130.5v-242h-128zM155 581l104 137h112l-104 -137h-112z" />
    <glyph glyph-name="uni0156" unicode="&#x156;" horiz-adv-x="651" 
d="M472 0q-10 19 -10 81v75q0 106 -118 106h-159v-262h-131v700h287q126 0 188.5 -56t62.5 -147q0 -125 -113 -174q63 -20 88 -61t25 -106v-75q0 -60 10 -81h-130zM185 368h151q59 0 90.5 29t31.5 82q0 106 -122 106h-151v-217zM206 -106q0 33 22 54t56 21q40 0 65 -29.5
t25 -88.5q0 -71 -37.5 -111.5t-99.5 -40.5h-10v54q39 1 56 16t17 46q-44 0 -69 22.5t-25 56.5z" />
    <glyph glyph-name="uni0157" unicode="&#x157;" horiz-adv-x="397" 
d="M54 0v520h128v-124h3q14 57 53 93.5t101 36.5q23 0 40 -5v-108q-23 3 -40 3q-69 0 -113 -43.5t-44 -130.5v-242h-128zM38 -106q0 33 22 54t56 21q40 0 65 -29.5t25 -88.5q0 -71 -37.5 -111.5t-99.5 -40.5h-10v54q39 1 56 16t17 46q-44 0 -69 22.5t-25 56.5z" />
    <glyph glyph-name="Rcaron" unicode="&#x158;" horiz-adv-x="651" 
d="M472 0q-10 19 -10 81v75q0 106 -118 106h-159v-262h-131v700h287q126 0 188.5 -56t62.5 -147q0 -125 -113 -174q63 -20 88 -61t25 -106v-75q0 -60 10 -81h-130zM94 897h115l72 -102l72 102h115l-98 -137h-178zM185 368h151q59 0 90.5 29t31.5 82q0 106 -122 106h-151
v-217z" />
    <glyph glyph-name="rcaron" unicode="&#x159;" horiz-adv-x="397" 
d="M54 0v520h128v-124h3q14 57 53 93.5t101 36.5q23 0 40 -5v-108q-23 3 -40 3q-69 0 -113 -43.5t-44 -130.5v-242h-128zM22 717h115l72 -102l72 102h115l-98 -137h-178z" />
    <glyph glyph-name="Sacute" unicode="&#x15a;" horiz-adv-x="641" 
d="M324 -10q-134 0 -209.5 61.5t-75.5 170.5h135q3 -55 40 -88.5t111 -33.5q66 0 102 26.5t36 74.5q0 41 -27 63t-82 33l-96 19q-200 39 -200 193q0 95 70.5 147.5t192.5 52.5t192 -54t70 -154h-135q0 47 -34.5 72.5t-95.5 25.5q-63 0 -92.5 -25.5t-29.5 -64.5q0 -68 94 -88
l90 -18q117 -23 169.5 -71t52.5 -130q0 -104 -76.5 -158t-201.5 -54zM254 761l104 137h112l-104 -137h-112z" />
    <glyph glyph-name="sacute" unicode="&#x15b;" horiz-adv-x="496" 
d="M245 -10q-103 0 -161.5 44t-59.5 130h114q10 -77 109 -77q94 0 94 63q0 44 -61 56l-96 21q-146 33 -146 149q0 72 57 113t152 41q99 0 153 -45t56 -128h-106q-11 76 -102 76q-86 0 -86 -55q0 -45 63 -57l99 -22q70 -16 109.5 -49.5t39.5 -96.5q0 -82 -64.5 -122.5
t-163.5 -40.5zM186 581l104 137h112l-104 -137h-112z" />
    <glyph glyph-name="Scircumflex" unicode="&#x15c;" horiz-adv-x="641" 
d="M324 -10q-134 0 -209.5 61.5t-75.5 170.5h135q3 -55 40 -88.5t111 -33.5q66 0 102 26.5t36 74.5q0 41 -27 63t-82 33l-96 19q-200 39 -200 193q0 95 70.5 147.5t192.5 52.5t192 -54t70 -154h-135q0 47 -34.5 72.5t-95.5 25.5q-63 0 -92.5 -25.5t-29.5 -64.5q0 -68 94 -88
l90 -18q117 -23 169.5 -71t52.5 -130q0 -104 -76.5 -158t-201.5 -54zM127 761l98 137h178l98 -137h-115l-72 102l-72 -102h-115z" />
    <glyph glyph-name="scircumflex" unicode="&#x15d;" horiz-adv-x="496" 
d="M245 -10q-103 0 -161.5 44t-59.5 130h114q10 -77 109 -77q94 0 94 63q0 44 -61 56l-96 21q-146 33 -146 149q0 72 57 113t152 41q99 0 153 -45t56 -128h-106q-11 76 -102 76q-86 0 -86 -55q0 -45 63 -57l99 -22q70 -16 109.5 -49.5t39.5 -96.5q0 -82 -64.5 -122.5
t-163.5 -40.5zM60 581l98 137h178l98 -137h-115l-72 102l-72 -102h-115z" />
    <glyph glyph-name="Scedilla" unicode="&#x15e;" horiz-adv-x="641" 
d="M242 -179q31 -2 50.5 8.5t19.5 30.5q0 23 -22.5 31t-45.5 -6l-35 44l58 64q-108 13 -168 72.5t-60 156.5h135q3 -55 40 -88.5t111 -33.5q66 0 102 26.5t36 74.5q0 41 -27 63t-82 33l-96 19q-200 39 -200 193q0 95 70.5 147.5t192.5 52.5t192 -54t70 -154h-135
q0 47 -34.5 72.5t-95.5 25.5q-63 0 -92.5 -25.5t-29.5 -64.5q0 -68 94 -88l90 -18q117 -23 169.5 -71t52.5 -130q0 -98 -69 -152t-183 -59l-42 -42h9q36 0 60 -25.5t24 -64.5q0 -55 -46 -79t-113 -24v65z" />
    <glyph glyph-name="scedilla" unicode="&#x15f;" horiz-adv-x="496" 
d="M177 -179q31 -2 50.5 8.5t19.5 30.5q0 23 -22.5 31t-45.5 -6l-35 44l57 63q-83 9 -129.5 52.5t-47.5 119.5h114q10 -77 109 -77q94 0 94 63q0 44 -61 56l-96 21q-146 33 -146 149q0 72 57 113t152 41q99 0 153 -45t56 -128h-106q-11 76 -102 76q-86 0 -86 -55
q0 -45 63 -57l99 -22q70 -16 109.5 -49.5t39.5 -96.5q0 -73 -51.5 -113t-135.5 -48l-43 -43h9q36 0 60 -25.5t24 -64.5q0 -55 -46 -79t-113 -24v65z" />
    <glyph glyph-name="Scaron" unicode="&#x160;" horiz-adv-x="641" 
d="M324 -10q-134 0 -209.5 61.5t-75.5 170.5h135q3 -55 40 -88.5t111 -33.5q66 0 102 26.5t36 74.5q0 41 -27 63t-82 33l-96 19q-200 39 -200 193q0 95 70.5 147.5t192.5 52.5t192 -54t70 -154h-135q0 47 -34.5 72.5t-95.5 25.5q-63 0 -92.5 -25.5t-29.5 -64.5q0 -68 94 -88
l90 -18q117 -23 169.5 -71t52.5 -130q0 -104 -76.5 -158t-201.5 -54zM121 897h115l72 -102l72 102h115l-98 -137h-178z" />
    <glyph glyph-name="scaron" unicode="&#x161;" horiz-adv-x="496" 
d="M245 -10q-103 0 -161.5 44t-59.5 130h114q10 -77 109 -77q94 0 94 63q0 44 -61 56l-96 21q-146 33 -146 149q0 72 57 113t152 41q99 0 153 -45t56 -128h-106q-11 76 -102 76q-86 0 -86 -55q0 -45 63 -57l99 -22q70 -16 109.5 -49.5t39.5 -96.5q0 -82 -64.5 -122.5
t-163.5 -40.5zM53 717h115l72 -102l72 102h115l-98 -137h-178z" />
    <glyph glyph-name="uni0162" unicode="&#x162;" horiz-adv-x="595" 
d="M232 0v583h-208v117h547v-117h-208v-583h-45l-51 -51h9q36 0 60 -25.5t24 -64.5q0 -55 -46 -79t-113 -24v65q31 -2 50.5 8.5t19.5 30.5q0 23 -22.5 31t-45.5 -6l-35 44z" />
    <glyph glyph-name="uni0163" unicode="&#x163;" horiz-adv-x="365" 
d="M19 420v100h87v133h128v-133h102v-100h-102v-254q0 -36 14.5 -53t53.5 -17q21 0 40 2v-96q-27 -7 -59 -9l-44 -44h9q36 0 60 -25.5t24 -64.5q0 -55 -46 -79t-113 -24v65q31 -2 50.5 8.5t19.5 30.5q0 23 -22.5 31t-45.5 -6l-35 44l64 71h3q-101 26 -101 146v274h-87z" />
    <glyph glyph-name="Tcaron" unicode="&#x164;" horiz-adv-x="595" 
d="M232 0v583h-208v117h547v-117h-208v-583h-131zM104 897h115l72 -102l72 102h115l-98 -137h-178z" />
    <glyph glyph-name="tcaron" unicode="&#x165;" horiz-adv-x="362" 
d="M268 -7q-162 0 -162 153v274h-87v100h87v133h128v-133h102v-100h-102v-254q0 -36 14.5 -53t53.5 -17q21 0 40 2v-96q-33 -9 -74 -9zM257 578l104 137h112l-104 -137h-112z" />
    <glyph glyph-name="Tbar" unicode="&#x166;" horiz-adv-x="595" 
d="M91 398v88h141v97h-208v117h547v-117h-208v-97h140v-88h-140v-398h-131v398h-141z" />
    <glyph glyph-name="tbar" unicode="&#x167;" horiz-adv-x="365" 
d="M19 265v99h87v56h-87v100h87v133h128v-133h102v-100h-102v-56h102v-99h-102v-99q0 -36 14.5 -53t53.5 -17q21 0 40 2v-96q-33 -9 -74 -9q-162 0 -162 153v119h-87z" />
    <glyph glyph-name="Utilde" unicode="&#x168;" horiz-adv-x="674" 
d="M337 -10q-131 0 -207 70.5t-76 204.5v435h132v-425q0 -83 39.5 -126.5t111.5 -43.5t111 43.5t39 126.5v425h133v-435q0 -134 -76.5 -204.5t-206.5 -70.5zM158 799q0 52 25 81t71 29q25 0 46.5 -9t33 -20.5t25 -20.5t26.5 -9t24 9t12 24h76q0 -52 -25 -81t-71 -29
q-25 0 -46.5 9t-33 20.5t-25 20.5t-26.5 9t-24 -9t-12 -24h-76z" />
    <glyph glyph-name="utilde" unicode="&#x169;" 
d="M181 223q0 -127 106 -127q51 0 84 29.5t37 84.5l1 310h128l-1 -520h-128v107h-4q-9 -43 -52.5 -80t-117.5 -37q-81 0 -131 51t-49 152v327h128zM123 619q0 52 25 81t71 29q25 0 46.5 -9t33 -20.5t25 -20.5t26.5 -9t24 9t12 24h76q0 -52 -25 -81t-71 -29q-25 0 -46.5 9
t-33 20.5t-25 20.5t-26.5 9t-24 -9t-12 -24h-76z" />
    <glyph glyph-name="Umacron" unicode="&#x16a;" horiz-adv-x="674" 
d="M337 -10q-131 0 -207 70.5t-76 204.5v435h132v-425q0 -83 39.5 -126.5t111.5 -43.5t111 43.5t39 126.5v425h133v-435q0 -134 -76.5 -204.5t-206.5 -70.5zM168 823v75h319v-75h-319z" />
    <glyph glyph-name="umacron" unicode="&#x16b;" 
d="M181 223q0 -127 106 -127q51 0 84 29.5t37 84.5l1 310h128l-1 -520h-128v107h-4q-9 -43 -52.5 -80t-117.5 -37q-81 0 -131 51t-49 152v327h128zM133 643v75h319v-75h-319z" />
    <glyph glyph-name="Ubreve" unicode="&#x16c;" horiz-adv-x="674" 
d="M337 -10q-131 0 -207 70.5t-76 204.5v435h132v-425q0 -83 39.5 -126.5t111.5 -43.5t111 43.5t39 126.5v425h133v-435q0 -134 -76.5 -204.5t-206.5 -70.5zM181 898h85q2 -37 18.5 -54.5t52.5 -17.5t52.5 17.5t18.5 54.5h85q0 -68 -39.5 -107.5t-116.5 -39.5
q-76 0 -116 39.5t-40 107.5z" />
    <glyph glyph-name="ubreve" unicode="&#x16d;" 
d="M181 223q0 -127 106 -127q51 0 84 29.5t37 84.5l1 310h128l-1 -520h-128v107h-4q-9 -43 -52.5 -80t-117.5 -37q-81 0 -131 51t-49 152v327h128zM137 718h85q2 -37 18.5 -54.5t52.5 -17.5t52.5 17.5t18.5 54.5h85q0 -68 -39.5 -107.5t-116.5 -39.5q-76 0 -116 39.5
t-40 107.5z" />
    <glyph glyph-name="Uring" unicode="&#x16e;" horiz-adv-x="674" 
d="M337 -10q-131 0 -207 70.5t-76 204.5v435h132v-425q0 -83 39.5 -126.5t111.5 -43.5t111 43.5t39 126.5v425h133v-435q0 -134 -76.5 -204.5t-206.5 -70.5zM228 838q0 40 28.5 68t70.5 28t70.5 -28t28.5 -68q0 -41 -28 -68.5t-71 -27.5q-42 0 -70.5 27.5t-28.5 68.5z
M289 838q0 -17 11 -28t27 -11q17 0 28 11t11 28q0 16 -11 27t-28 11q-16 0 -27 -11t-11 -27z" />
    <glyph glyph-name="uring" unicode="&#x16f;" 
d="M181 223q0 -127 106 -127q51 0 84 29.5t37 84.5l1 310h128l-1 -520h-128v107h-4q-9 -43 -52.5 -80t-117.5 -37q-81 0 -131 51t-49 152v327h128zM193 658q0 40 28.5 68t70.5 28t70.5 -28t28.5 -68q0 -41 -28 -68.5t-71 -27.5q-42 0 -70.5 27.5t-28.5 68.5zM254 658
q0 -17 11 -28t27 -11q17 0 28 11t11 28q0 16 -11 27t-28 11q-16 0 -27 -11t-11 -27z" />
    <glyph glyph-name="Uhungarumlaut" unicode="&#x170;" horiz-adv-x="674" 
d="M337 -10q-131 0 -207 70.5t-76 204.5v435h132v-425q0 -83 39.5 -126.5t111.5 -43.5t111 43.5t39 126.5v425h133v-435q0 -134 -76.5 -204.5t-206.5 -70.5zM177 761l104 137h112l-104 -137h-112zM348 761l104 137h112l-104 -137h-112z" />
    <glyph glyph-name="uhungarumlaut" unicode="&#x171;" 
d="M181 223q0 -127 106 -127q51 0 84 29.5t37 84.5l1 310h128l-1 -520h-128v107h-4q-9 -43 -52.5 -80t-117.5 -37q-81 0 -131 51t-49 152v327h128zM133 581l104 137h112l-104 -137h-112zM304 581l104 137h112l-104 -137h-112z" />
    <glyph glyph-name="Uogonek" unicode="&#x172;" horiz-adv-x="674" 
d="M405 -190q-18 -9 -47.5 -6.5t-57 11t-47.5 33.5t-20 61q0 52 39 86q-102 16 -160 84.5t-58 185.5v435h132v-425q0 -83 39.5 -126.5t111.5 -43.5t111 43.5t39 126.5v425h133v-435q0 -116 -58 -185t-161 -85q-35 -9 -53.5 -28t-18.5 -43q0 -27 22 -39t54 -3v-72z" />
    <glyph glyph-name="uogonek" unicode="&#x173;" 
d="M181 223q0 -127 106 -127q51 0 84 29.5t37 84.5l1 310h128l-1 -520h1q-60 0 -92 -22t-32 -54q0 -27 22 -39t53 -3v-72q-18 -9 -47 -6.5t-56.5 11t-47.5 33.5t-20 61q0 43 26 73t65 42v83h-4q-9 -43 -52.5 -80t-117.5 -37q-81 0 -131 51t-49 152v327h128z" />
    <glyph glyph-name="Wcircumflex" unicode="&#x174;" horiz-adv-x="1002" 
d="M207 0l-183 700h134l123 -515h6l146 515h136l146 -515h6l123 515h135l-184 -700h-137l-157 534l-157 -534h-137zM313 761l98 137h178l98 -137h-115l-72 102l-72 -102h-115z" />
    <glyph glyph-name="wcircumflex" unicode="&#x175;" horiz-adv-x="819" 
d="M160 0l-141 520h121l97 -395h4l113 395h111l113 -395h4l97 395h122l-142 -520h-144l-105 350l-106 -350h-144zM221 581l98 137h178l98 -137h-115l-72 102l-72 -102h-115z" />
    <glyph glyph-name="Ycircumflex" unicode="&#x176;" horiz-adv-x="690" 
d="M278 0v262l-254 438h149l172 -311l173 311h149l-254 -438v-262h-135zM157 761l98 137h178l98 -137h-115l-72 102l-72 -102h-115z" />
    <glyph glyph-name="ycircumflex" unicode="&#x177;" horiz-adv-x="567" 
d="M71 -89q110 -15 140 60q14 35 0 70l-192 479h131l133 -360l134 360h132l-216 -534q-46 -113 -103.5 -154t-158.5 -30v109zM95 581l98 137h178l98 -137h-115l-72 102l-72 -102h-115z" />
    <glyph glyph-name="Ydieresis" unicode="&#x178;" horiz-adv-x="690" 
d="M278 0v262l-254 438h149l172 -311l173 311h149l-254 -438v-262h-135zM159 843q0 30 21.5 50.5t50.5 20.5t50.5 -20.5t21.5 -50.5q0 -29 -21.5 -49.5t-50.5 -20.5t-50.5 20.5t-21.5 49.5zM385 843q0 30 21.5 50.5t50.5 20.5t50.5 -20.5t21.5 -50.5q0 -29 -21.5 -49.5
t-50.5 -20.5t-50.5 20.5t-21.5 49.5z" />
    <glyph glyph-name="Zacute" unicode="&#x179;" horiz-adv-x="618" 
d="M40 0v115l388 470h-377v115h523v-115l-389 -470h393v-115h-538zM258 761l104 137h112l-104 -137h-112z" />
    <glyph glyph-name="zacute" unicode="&#x17a;" horiz-adv-x="506" 
d="M40 0v108l274 304h-264v108h416v-108l-273 -304h273v-108h-426zM188 581l104 137h112l-104 -137h-112z" />
    <glyph glyph-name="Zdotaccent" unicode="&#x17b;" horiz-adv-x="618" 
d="M40 0v115l388 470h-377v115h523v-115l-389 -470h393v-115h-538zM247 843q0 30 21.5 50.5t50.5 20.5t50.5 -20.5t21.5 -50.5q0 -29 -21.5 -49.5t-50.5 -20.5t-50.5 20.5t-21.5 49.5z" />
    <glyph glyph-name="zdotaccent" unicode="&#x17c;" horiz-adv-x="506" 
d="M40 0v108l274 304h-264v108h416v-108l-273 -304h273v-108h-426zM177 663q0 30 21.5 50.5t50.5 20.5t50.5 -20.5t21.5 -50.5q0 -29 -21.5 -49.5t-50.5 -20.5t-50.5 20.5t-21.5 49.5z" />
    <glyph glyph-name="Zcaron" unicode="&#x17d;" horiz-adv-x="618" 
d="M40 0v115l388 470h-377v115h523v-115l-389 -470h393v-115h-538zM125 897h115l72 -102l72 102h115l-98 -137h-178z" />
    <glyph glyph-name="zcaron" unicode="&#x17e;" horiz-adv-x="506" 
d="M40 0v108l274 304h-264v108h416v-108l-273 -304h273v-108h-426zM55 717h115l72 -102l72 102h115l-98 -137h-178z" />
    <glyph glyph-name="uni018F" unicode="&#x18f;" horiz-adv-x="703" 
d="M340 -10q-142 0 -221.5 82.5t-79.5 239.5v66h490q-5 102 -51 159.5t-136 57.5q-128 0 -157 -105h-130q17 107 95.5 163t191.5 56q148 0 235.5 -95t87.5 -267q0 -169 -85.5 -263t-239.5 -94zM169 272q1 -87 49.5 -127.5t121.5 -40.5q77 0 122.5 44.5t60.5 123.5h-354z" />
    <glyph glyph-name="florin" unicode="&#x192;" horiz-adv-x="310" 
d="M19 -80q39 0 54 24.5t15 72.5v297h-71v110h71v95q0 90 44 134.5t153 44.5v-110q-38 0 -53.5 -24t-15.5 -73v-67h69v-110h-69v-325q0 -95 -46 -137t-151 -42v110z" />
    <glyph glyph-name="Ohorn" unicode="&#x1a0;" horiz-adv-x="736" 
d="M368 -10q-148 0 -238.5 98.5t-90.5 261.5q0 164 90.5 261.5t238.5 97.5h226v79h109v-177h-96q91 -97 91 -261q0 -163 -91 -261.5t-239 -98.5zM174 350q0 -115 52 -180.5t142 -65.5t142 65.5t52 180.5t-52 180t-142 65t-142 -65t-52 -180z" />
    <glyph glyph-name="ohorn" unicode="&#x1a1;" horiz-adv-x="573" 
d="M287 -10q-108 0 -183 69t-75 201t75 201t183 69h161v78h103v-176h-56q50 -68 50 -172q0 -132 -75.5 -201t-182.5 -69zM149 260q0 -81 38.5 -122t99.5 -41q60 0 98.5 41t38.5 122t-38.5 122t-98.5 41q-61 0 -99.5 -41t-38.5 -122z" />
    <glyph glyph-name="Uhorn" unicode="&#x1af;" horiz-adv-x="674" 
d="M337 -10q-131 0 -207 70.5t-76 204.5v435h132v-425q0 -83 39.5 -126.5t111.5 -43.5t111 43.5t39 126.5v425h134v88h109v-187h-110v-336q0 -134 -76.5 -204.5t-206.5 -70.5z" />
    <glyph glyph-name="uhorn" unicode="&#x1b0;" 
d="M181 223q0 -127 106 -127q51 0 84 29.5t37 84.5l1 310h134v88h109v-187h-115l-1 -421h-128v107h-4q-9 -43 -52.5 -80t-117.5 -37q-81 0 -131 51t-49 152v327h128z" />
    <glyph glyph-name="uni01CD" unicode="&#x1cd;" horiz-adv-x="719" 
d="M19 0l257 700h168l257 -700h-139l-50 143h-305l-50 -143h-138zM167 897h115l72 -102l72 102h115l-98 -137h-178zM242 241h236l-114 324h-8z" />
    <glyph glyph-name="uni01CE" unicode="&#x1ce;" horiz-adv-x="558" 
d="M196 -10q-72 0 -119.5 36.5t-47.5 109.5q0 39 14 67t41 45t56 26t69 14l97 13q39 5 52.5 14t13.5 29v11q0 82 -94 82q-101 0 -101 -76v-11h-120v23q0 157 224 157q114 0 165.5 -41.5t51.5 -128.5v-360h-123v93h-5q-8 -20 -24 -40.5t-56.5 -41.5t-93.5 -21zM93 717h115
l72 -102l72 102h115l-98 -137h-178zM157 147q0 -64 81 -64q58 0 96 31t38 66v66q-9 -15 -61 -22l-83 -13q-71 -11 -71 -64z" />
    <glyph glyph-name="uni01CF" unicode="&#x1cf;" horiz-adv-x="238" 
d="M54 0v700h131v-700h-131zM-75 897h116l72 -102l72 102h115l-98 -137h-178z" />
    <glyph glyph-name="uni01D0" unicode="&#x1d0;" horiz-adv-x="219" 
d="M45 0v520h128v-520h-128zM-84 717h115l72 -102l72 102h115l-98 -137h-178z" />
    <glyph glyph-name="uni01D1" unicode="&#x1d1;" horiz-adv-x="736" 
d="M368 -10q-148 0 -238.5 98.5t-90.5 261.5q0 164 90.5 261.5t238.5 97.5t239 -97.5t91 -261.5q0 -163 -91 -261.5t-239 -98.5zM174 350q0 -115 52 -180.5t142 -65.5t142 65.5t52 180.5t-52 180t-142 65t-142 -65t-52 -180zM175 897h115l72 -102l72 102h115l-98 -137h-178z
" />
    <glyph glyph-name="uni01D2" unicode="&#x1d2;" horiz-adv-x="573" 
d="M287 -10q-108 0 -183 69t-75 201t75 201t183 69q107 0 182.5 -69t75.5 -201t-75.5 -201t-182.5 -69zM94 717h115l72 -102l72 102h115l-98 -137h-178zM149 260q0 -81 38.5 -122t99.5 -41q60 0 98.5 41t38.5 122t-38.5 122t-98.5 41q-61 0 -99.5 -41t-38.5 -122z" />
    <glyph glyph-name="uni01D3" unicode="&#x1d3;" horiz-adv-x="674" 
d="M337 -10q-131 0 -207 70.5t-76 204.5v435h132v-425q0 -83 39.5 -126.5t111.5 -43.5t111 43.5t39 126.5v425h133v-435q0 -134 -76.5 -204.5t-206.5 -70.5zM144 897h115l72 -102l72 102h115l-98 -137h-178z" />
    <glyph glyph-name="uni01D4" unicode="&#x1d4;" 
d="M181 223q0 -127 106 -127q51 0 84 29.5t37 84.5l1 310h128l-1 -520h-128v107h-4q-9 -43 -52.5 -80t-117.5 -37q-81 0 -131 51t-49 152v327h128zM100 717h115l72 -102l72 102h115l-98 -137h-178z" />
    <glyph glyph-name="uni01D5" unicode="&#x1d5;" horiz-adv-x="674" 
d="M337 -10q-131 0 -207 70.5t-76 204.5v435h132v-425q0 -83 39.5 -126.5t111.5 -43.5t111 43.5t39 126.5v425h133v-435q0 -134 -76.5 -204.5t-206.5 -70.5zM152 843q0 30 21.5 50.5t50.5 20.5t50.5 -20.5t21.5 -50.5q0 -29 -21.5 -49.5t-50.5 -20.5t-50.5 20.5t-21.5 49.5z
M177 980v75h319v-75h-319zM378 843q0 30 21.5 50.5t50.5 20.5t50.5 -20.5t21.5 -50.5q0 -29 -21.5 -49.5t-50.5 -20.5t-50.5 20.5t-21.5 49.5z" />
    <glyph glyph-name="uni01D6" unicode="&#x1d6;" 
d="M181 223q0 -127 106 -127q51 0 84 29.5t37 84.5l1 310h128l-1 -520h-128v107h-4q-9 -43 -52.5 -80t-117.5 -37q-81 0 -131 51t-49 152v327h128zM108 663q0 30 21.5 50.5t50.5 20.5t50.5 -20.5t21.5 -50.5q0 -29 -21.5 -49.5t-50.5 -20.5t-50.5 20.5t-21.5 49.5zM133 801
v75h319v-75h-319zM334 663q0 30 21.5 50.5t50.5 20.5t50.5 -20.5t21.5 -50.5q0 -29 -21.5 -49.5t-50.5 -20.5t-50.5 20.5t-21.5 49.5z" />
    <glyph glyph-name="uni01D7" unicode="&#x1d7;" horiz-adv-x="674" 
d="M337 -10q-131 0 -207 70.5t-76 204.5v435h132v-425q0 -83 39.5 -126.5t111.5 -43.5t111 43.5t39 126.5v425h133v-435q0 -134 -76.5 -204.5t-206.5 -70.5zM152 843q0 30 21.5 50.5t50.5 20.5t50.5 -20.5t21.5 -50.5q0 -29 -21.5 -49.5t-50.5 -20.5t-50.5 20.5t-21.5 49.5z
M271 945l104 137h112l-104 -137h-112zM378 843q0 30 21.5 50.5t50.5 20.5t50.5 -20.5t21.5 -50.5q0 -29 -21.5 -49.5t-50.5 -20.5t-50.5 20.5t-21.5 49.5z" />
    <glyph glyph-name="uni01D8" unicode="&#x1d8;" 
d="M181 223q0 -127 106 -127q51 0 84 29.5t37 84.5l1 310h128l-1 -520h-128v107h-4q-9 -43 -52.5 -80t-117.5 -37q-81 0 -131 51t-49 152v327h128zM108 663q0 30 21.5 50.5t50.5 20.5t50.5 -20.5t21.5 -50.5q0 -29 -21.5 -49.5t-50.5 -20.5t-50.5 20.5t-21.5 49.5zM227 765
l104 137h112l-104 -137h-112zM334 663q0 30 21.5 50.5t50.5 20.5t50.5 -20.5t21.5 -50.5q0 -29 -21.5 -49.5t-50.5 -20.5t-50.5 20.5t-21.5 49.5z" />
    <glyph glyph-name="uni01D9" unicode="&#x1d9;" horiz-adv-x="674" 
d="M337 -10q-131 0 -207 70.5t-76 204.5v435h132v-425q0 -83 39.5 -126.5t111.5 -43.5t111 43.5t39 126.5v425h133v-435q0 -134 -76.5 -204.5t-206.5 -70.5zM150 1081h115l72 -102l72 102h115l-98 -137h-178zM152 843q0 30 21.5 50.5t50.5 20.5t50.5 -20.5t21.5 -50.5
q0 -29 -21.5 -49.5t-50.5 -20.5t-50.5 20.5t-21.5 49.5zM378 843q0 30 21.5 50.5t50.5 20.5t50.5 -20.5t21.5 -50.5q0 -29 -21.5 -49.5t-50.5 -20.5t-50.5 20.5t-21.5 49.5z" />
    <glyph glyph-name="uni01DA" unicode="&#x1da;" 
d="M181 223q0 -127 106 -127q51 0 84 29.5t37 84.5l1 310h128l-1 -520h-128v107h-4q-9 -43 -52.5 -80t-117.5 -37q-81 0 -131 51t-49 152v327h128zM106 901h115l72 -102l72 102h115l-98 -137h-178zM108 663q0 30 21.5 50.5t50.5 20.5t50.5 -20.5t21.5 -50.5
q0 -29 -21.5 -49.5t-50.5 -20.5t-50.5 20.5t-21.5 49.5zM334 663q0 30 21.5 50.5t50.5 20.5t50.5 -20.5t21.5 -50.5q0 -29 -21.5 -49.5t-50.5 -20.5t-50.5 20.5t-21.5 49.5z" />
    <glyph glyph-name="uni01DB" unicode="&#x1db;" horiz-adv-x="674" 
d="M337 -10q-131 0 -207 70.5t-76 204.5v435h132v-425q0 -83 39.5 -126.5t111.5 -43.5t111 43.5t39 126.5v425h133v-435q0 -134 -76.5 -204.5t-206.5 -70.5zM152 843q0 30 21.5 50.5t50.5 20.5t50.5 -20.5t21.5 -50.5q0 -29 -21.5 -49.5t-50.5 -20.5t-50.5 20.5t-21.5 49.5z
M181 1082h112l104 -137h-112zM378 843q0 30 21.5 50.5t50.5 20.5t50.5 -20.5t21.5 -50.5q0 -29 -21.5 -49.5t-50.5 -20.5t-50.5 20.5t-21.5 49.5z" />
    <glyph glyph-name="uni01DC" unicode="&#x1dc;" 
d="M181 223q0 -127 106 -127q51 0 84 29.5t37 84.5l1 310h128l-1 -520h-128v107h-4q-9 -43 -52.5 -80t-117.5 -37q-81 0 -131 51t-49 152v327h128zM108 663q0 30 21.5 50.5t50.5 20.5t50.5 -20.5t21.5 -50.5q0 -29 -21.5 -49.5t-50.5 -20.5t-50.5 20.5t-21.5 49.5zM137 902
h112l104 -137h-112zM334 663q0 30 21.5 50.5t50.5 20.5t50.5 -20.5t21.5 -50.5q0 -29 -21.5 -49.5t-50.5 -20.5t-50.5 20.5t-21.5 49.5z" />
    <glyph glyph-name="Gcaron" unicode="&#x1e6;" horiz-adv-x="708" 
d="M363 -10q-154 0 -239 94t-85 263q0 172 87 267t235 95q113 0 192 -56t96 -163h-131q-29 105 -157 105q-96 0 -143 -65.5t-47 -178.5t48 -180t144 -67q73 0 122 41t49 127h-146v106h277v-66q0 -157 -79 -239.5t-223 -82.5zM173 897h115l72 -102l72 102h115l-98 -137h-178z
" />
    <glyph glyph-name="gcaron" unicode="&#x1e7;" horiz-adv-x="594" 
d="M278 -209q-41 0 -78.5 7.5t-75 25t-60.5 54t-23 87.5h113q2 -37 37.5 -56t83.5 -19q61 0 99.5 31.5t38.5 94.5v74h-2q-22 -35 -64.5 -56t-95.5 -21q-92 0 -157 64t-65 194t65.5 194.5t156.5 64.5q53 0 95.5 -21t64.5 -56h2v67h128v-504q0 -54 -17.5 -95t-44 -65
t-63 -39.5t-69.5 -20.5t-69 -5zM101 717h115l72 -102l72 102h115l-98 -137h-178zM149 271q0 -73 39 -112.5t96 -39.5t95.5 39.5t38.5 112.5q0 74 -38.5 113t-95.5 39t-96 -39t-39 -113z" />
    <glyph glyph-name="uni01E8" unicode="&#x1e8;" horiz-adv-x="683" 
d="M54 0v700h131v-346l298 346h155l-273 -315l300 -385h-152l-229 292l-99 -115v-177h-131zM156 897h115l72 -102l72 102h115l-98 -137h-178z" />
    <glyph glyph-name="uni01E9" unicode="&#x1e9;" horiz-adv-x="572" 
d="M54 0v700h128v-413l212 233h142l-213 -223l241 -297h-142l-177 216l-63 -66v-150h-128zM-72 897h116l72 -102l72 102h115l-98 -137h-178z" />
    <glyph glyph-name="uni01EA" unicode="&#x1ea;" horiz-adv-x="736" 
d="M432 -190q-18 -9 -47 -6.5t-56.5 11t-47.5 33.5t-20 61q0 54 40 87q-120 22 -191 116.5t-71 237.5q0 164 90.5 261.5t238.5 97.5t239 -97.5t91 -261.5q0 -146 -74 -241.5t-198 -114.5q-34 -9 -52 -28t-18 -42q0 -27 22 -39t54 -3v-72zM174 350q0 -115 52 -180.5
t142 -65.5t142 65.5t52 180.5t-52 180t-142 65t-142 -65t-52 -180z" />
    <glyph glyph-name="uni01EB" unicode="&#x1eb;" horiz-adv-x="573" 
d="M344 -190q-18 -9 -47.5 -6.5t-57 11t-47.5 33.5t-20 61q0 54 43 90q-82 20 -134 86t-52 175q0 132 75 201t183 69q107 0 182.5 -69t75.5 -201q0 -115 -58.5 -183t-148.5 -83q-34 -9 -52 -28t-18 -42q0 -27 22 -39t54 -3v-72zM149 260q0 -81 38.5 -122t99.5 -41
q60 0 98.5 41t38.5 122t-38.5 122t-98.5 41q-61 0 -99.5 -41t-38.5 -122z" />
    <glyph glyph-name="uni0218" unicode="&#x218;" horiz-adv-x="641" 
d="M324 -10q-134 0 -209.5 61.5t-75.5 170.5h135q3 -55 40 -88.5t111 -33.5q66 0 102 26.5t36 74.5q0 41 -27 63t-82 33l-96 19q-200 39 -200 193q0 95 70.5 147.5t192.5 52.5t192 -54t70 -154h-135q0 47 -34.5 72.5t-95.5 25.5q-63 0 -92.5 -25.5t-29.5 -64.5q0 -68 94 -88
l90 -18q117 -23 169.5 -71t52.5 -130q0 -104 -76.5 -158t-201.5 -54zM231 -106q0 33 22 54t56 21q40 0 65 -29.5t25 -88.5q0 -71 -37.5 -111.5t-99.5 -40.5h-10v54q39 1 56 16t17 46q-44 0 -69 22.5t-25 56.5z" />
    <glyph glyph-name="uni0219" unicode="&#x219;" horiz-adv-x="496" 
d="M245 -10q-103 0 -161.5 44t-59.5 130h114q10 -77 109 -77q94 0 94 63q0 44 -61 56l-96 21q-146 33 -146 149q0 72 57 113t152 41q99 0 153 -45t56 -128h-106q-11 76 -102 76q-86 0 -86 -55q0 -45 63 -57l99 -22q70 -16 109.5 -49.5t39.5 -96.5q0 -82 -64.5 -122.5
t-163.5 -40.5zM168 -116q0 33 22 54t56 21q40 0 65 -29.5t25 -88.5q0 -71 -37.5 -111.5t-99.5 -40.5h-10v54q39 1 56 16t17 46q-44 0 -69 22.5t-25 56.5z" />
    <glyph glyph-name="uni021A" unicode="&#x21a;" horiz-adv-x="595" 
d="M232 0v583h-208v117h547v-117h-208v-583h-131zM191 -106q0 33 22 54t56 21q40 0 65 -29.5t25 -88.5q0 -71 -37.5 -111.5t-99.5 -40.5h-10v54q39 1 56 16t17 46q-44 0 -69 22.5t-25 56.5z" />
    <glyph glyph-name="uni021B" unicode="&#x21b;" horiz-adv-x="365" 
d="M268 -7q-162 0 -162 153v274h-87v100h87v133h128v-133h102v-100h-102v-254q0 -36 14.5 -53t53.5 -17q21 0 40 2v-96q-33 -9 -74 -9zM162 -106q0 33 22 54t56 21q40 0 65 -29.5t25 -88.5q0 -71 -37.5 -111.5t-99.5 -40.5h-10v54q39 1 56 16t17 46q-44 0 -69 22.5t-25 56.5
z" />
    <glyph glyph-name="uni0237" unicode="&#x237;" horiz-adv-x="240" 
d="M34 -193q-51 0 -77 3v100h46q35 0 49.5 17.5t14.5 52.5v540h128v-560q0 -153 -161 -153z" />
    <glyph glyph-name="uni0259" unicode="&#x259;" horiz-adv-x="556" 
d="M272 -13q-109 0 -176 66.5t-67 203.5q0 12 2 34h375q-5 74 -38.5 108t-96.5 34q-97 0 -122 -76h-113q20 86 82 129.5t152 43.5q111 0 184.5 -67t73.5 -204q0 -136 -72.5 -204t-183.5 -68zM149 219q2 -62 33 -98t92 -36q120 0 132 134h-257z" />
    <glyph glyph-name="circumflex" unicode="&#x2c6;" horiz-adv-x="374" 
d="M0 581l98 137h178l98 -137h-115l-72 102l-72 -102h-115z" />
    <glyph glyph-name="caron" unicode="&#x2c7;" horiz-adv-x="383" 
d="M0 717h115l72 -102l72 102h115l-98 -137h-178z" />
    <glyph glyph-name="breve" unicode="&#x2d8;" horiz-adv-x="322" 
d="M161 571q-76 0 -116 39.5t-40 107.5h85q2 -37 18.5 -54.5t52.5 -17.5t52.5 17.5t18.5 54.5h85q0 -68 -39.5 -107.5t-116.5 -39.5z" />
    <glyph glyph-name="dotaccent" unicode="&#x2d9;" horiz-adv-x="144" 
d="M72 593q-29 0 -50.5 20.5t-21.5 49.5q0 30 21.5 50.5t50.5 20.5t50.5 -20.5t21.5 -50.5q0 -29 -21.5 -49.5t-50.5 -20.5z" />
    <glyph glyph-name="ring" unicode="&#x2da;" horiz-adv-x="198" 
d="M99 562q-42 0 -70.5 27.5t-28.5 68.5q0 40 28.5 68t70.5 28t70.5 -28t28.5 -68q0 -41 -28 -68.5t-71 -27.5zM61 658q0 -17 11 -28t27 -11q17 0 28 11t11 28q0 16 -11 27t-28 11q-16 0 -27 -11t-11 -27z" />
    <glyph glyph-name="ogonek" unicode="&#x2db;" horiz-adv-x="220" 
d="M171 -190q-18 -9 -47 -6.5t-56.5 11t-47.5 33.5t-20 61q0 57 42.5 89.5t95.5 32.5l82 -31q-60 0 -92 -22t-32 -54q0 -27 22 -39t53 -3v-72z" />
    <glyph glyph-name="tilde" unicode="&#x2dc;" horiz-adv-x="349" 
d="M248 593q-25 0 -46.5 9t-33 20.5t-25 20.5t-26.5 9t-24 -9t-12 -24h-76q0 52 25 81t71 29q25 0 46.5 -9t33 -20.5t25 -20.5t26.5 -9t24 9t12 24h76q0 -52 -25 -81t-71 -29z" />
    <glyph glyph-name="hungarumlaut" unicode="&#x2dd;" horiz-adv-x="387" 
d="M171 581l104 137h112l-104 -137h-112zM0 581l104 137h112l-104 -137h-112z" />
    <glyph glyph-name="gravecomb" unicode="&#x300;" horiz-adv-x="0" 
d="M104 581l-104 137h112l104 -137h-112z" />
    <glyph glyph-name="acutecomb" unicode="&#x301;" horiz-adv-x="0" 
d="M0 581l104 137h112l-104 -137h-112z" />
    <glyph glyph-name="uni0302" unicode="&#x302;" horiz-adv-x="0" 
d="M0 581l98 137h178l98 -137h-115l-72 102l-72 -102h-115z" />
    <glyph glyph-name="tildecomb" unicode="&#x303;" horiz-adv-x="0" 
d="M248 593q-25 0 -46.5 9t-33 20.5t-25 20.5t-26.5 9t-24 -9t-12 -24h-76q0 52 25 81t71 29q25 0 46.5 -9t33 -20.5t25 -20.5t26.5 -9t24 9t12 24h76q0 -52 -25 -81t-71 -29z" />
    <glyph glyph-name="uni0304" unicode="&#x304;" horiz-adv-x="0" 
d="M0 643v75h319v-75h-319z" />
    <glyph glyph-name="uni0306" unicode="&#x306;" horiz-adv-x="0" 
d="M161 571q-76 0 -116 39.5t-40 107.5h85q2 -37 18.5 -54.5t52.5 -17.5t52.5 17.5t18.5 54.5h85q0 -68 -39.5 -107.5t-116.5 -39.5z" />
    <glyph glyph-name="uni0307" unicode="&#x307;" horiz-adv-x="0" 
d="M72 593q-29 0 -50.5 20.5t-21.5 49.5q0 30 21.5 50.5t50.5 20.5t50.5 -20.5t21.5 -50.5q0 -29 -21.5 -49.5t-50.5 -20.5z" />
    <glyph glyph-name="uni0308" unicode="&#x308;" horiz-adv-x="0" 
d="M298 593q-29 0 -50.5 20.5t-21.5 49.5q0 30 21.5 50.5t50.5 20.5t50.5 -20.5t21.5 -50.5q0 -29 -21.5 -49.5t-50.5 -20.5zM0 663q0 30 21.5 50.5t50.5 20.5t50.5 -20.5t21.5 -50.5q0 -29 -21.5 -49.5t-50.5 -20.5t-50.5 20.5t-21.5 49.5z" />
    <glyph glyph-name="hookabovecomb" unicode="&#x309;" horiz-adv-x="0" 
d="M123 622q48 1 48 40q0 17 -9.5 27t-24.5 10q-31 0 -34 -32h-66q0 51 30 75.5t71 24.5q44 0 74.5 -26t30.5 -74q0 -42 -25 -67.5t-63 -30.5z" />
    <glyph glyph-name="uni030A" unicode="&#x30a;" horiz-adv-x="0" 
d="M99 562q-42 0 -70.5 27.5t-28.5 68.5q0 40 28.5 68t70.5 28t70.5 -28t28.5 -68q0 -41 -28 -68.5t-71 -27.5zM61 658q0 -17 11 -28t27 -11q17 0 28 11t11 28q0 16 -11 27t-28 11q-16 0 -27 -11t-11 -27z" />
    <glyph glyph-name="uni030B" unicode="&#x30b;" horiz-adv-x="0" 
d="M171 581l104 137h112l-104 -137h-112zM0 581l104 137h112l-104 -137h-112z" />
    <glyph glyph-name="uni030C" unicode="&#x30c;" horiz-adv-x="0" 
d="M0 717h115l72 -102l72 102h115l-98 -137h-178z" />
    <glyph glyph-name="uni0312" unicode="&#x312;" horiz-adv-x="0" 
d="M180 640q-39 -1 -56 -16t-17 -46q44 0 69 -22.5t25 -56.5q0 -33 -22 -54t-56 -21q-40 0 -65 29.5t-25 88.5q0 71 37.5 111.5t99.5 40.5h10v-54z" />
    <glyph glyph-name="uni031B" unicode="&#x31b;" horiz-adv-x="0" 
d="M0 421v99h134v88h109v-187h-243z" />
    <glyph glyph-name="dotbelowcomb" unicode="&#x323;" horiz-adv-x="0" 
d="M130 -230q-33 0 -56.5 23t-23.5 55q0 33 23.5 56t56.5 23t56 -23t23 -56q0 -32 -23 -55t-56 -23z" />
    <glyph glyph-name="uni0326" unicode="&#x326;" horiz-adv-x="0" 
d="M10 -247q39 1 56 16t17 46q-44 0 -69 22.5t-25 56.5q0 33 22 54t56 21q40 0 65 -29.5t25 -88.5q0 -71 -37.5 -111.5t-99.5 -40.5h-10v54z" />
    <glyph glyph-name="uni0327" unicode="&#x327;" horiz-adv-x="0" 
d="M33 -179q31 -2 50.5 8.5t19.5 30.5q0 23 -22.5 31t-45.5 -6l-35 44l64 71h86l-51 -51h9q36 0 60 -25.5t24 -64.5q0 -55 -46 -79t-113 -24v65z" />
    <glyph glyph-name="uni0328" unicode="&#x328;" horiz-adv-x="0" 
d="M171 -190q-18 -9 -47 -6.5t-56.5 11t-47.5 33.5t-20 61q0 57 42.5 89.5t95.5 32.5l82 -31q-60 0 -92 -22t-32 -54q0 -27 22 -39t53 -3v-72z" />
    <glyph glyph-name="uni0394" unicode="&#x394;" horiz-adv-x="670" 
d="M19 0l316 713h1l316 -713h-633zM177 100h316l-157 380z" />
    <glyph glyph-name="uni03A9" unicode="&#x3a9;" horiz-adv-x="776" 
d="M60 0v104h112q-133 99 -133 258q0 149 104 247t245 98q142 0 246 -98t104 -247q0 -159 -134 -258h113v-104h-254v145q70 33 106.5 90.5t36.5 126.5q0 96 -63 158.5t-155 62.5q-91 0 -154.5 -62.5t-63.5 -158.5q0 -68 36.5 -126t106.5 -91v-145h-253z" />
    <glyph glyph-name="uni03BC" unicode="&#x3bc;" 
d="M54 -190v710h128v-297q0 -127 106 -127q54 0 87.5 32.5t33.5 94.5v297h128v-520h-128v85q-12 -40 -48.5 -67.5t-89.5 -27.5q-61 0 -89 36v-216h-128z" />
    <glyph glyph-name="pi" unicode="&#x3c0;" horiz-adv-x="708" 
d="M575 -6q-59 0 -101 30.5t-42 106.5v279h-160v-410h-128v410h-100v110h615v-110h-99v-250q0 -32 13.5 -44.5t40.5 -12.5q29 0 56 13v-97q-25 -25 -95 -25z" />
    <glyph glyph-name="uni0401" unicode="&#x401;" horiz-adv-x="561" 
d="M54 0v700h469v-115h-338v-178h308v-103h-308v-189h348v-115h-479zM111 843q0 30 21.5 50.5t50.5 20.5t50.5 -20.5t21.5 -50.5q0 -29 -21.5 -49.5t-50.5 -20.5t-50.5 20.5t-21.5 49.5zM337 843q0 30 21.5 50.5t50.5 20.5t50.5 -20.5t21.5 -50.5q0 -29 -21.5 -49.5
t-50.5 -20.5t-50.5 20.5t-21.5 49.5z" />
    <glyph glyph-name="uni0403" unicode="&#x403;" horiz-adv-x="518" 
d="M54 0v700h441v-116h-308v-584h-133zM214 761l104 137h112l-104 -137h-112z" />
    <glyph glyph-name="uni0404" unicode="&#x404;" horiz-adv-x="681" 
d="M364 -10q-150 0 -237.5 95t-87.5 265q0 169 88 264t238 95q118 0 196 -61t90 -181h-128q-15 64 -57.5 96t-103.5 32q-80 0 -126.5 -49t-58.5 -136h211v-108h-213q10 -93 57 -145.5t130 -52.5q61 0 103.5 32t57.5 97h128q-12 -120 -90 -181.5t-197 -61.5z" />
    <glyph glyph-name="uni0407" unicode="&#x407;" horiz-adv-x="238" 
d="M54 0v700h131v-700h-131zM-68 843q0 30 21.5 50.5t50.5 20.5t50.5 -20.5t21.5 -50.5q0 -29 -21.5 -49.5t-50.5 -20.5t-50.5 20.5t-21.5 49.5zM158 843q0 30 21.5 50.5t50.5 20.5t50.5 -20.5t21.5 -50.5q0 -29 -21.5 -49.5t-50.5 -20.5t-50.5 20.5t-21.5 49.5z" />
    <glyph glyph-name="uni040C" unicode="&#x40c;" horiz-adv-x="683" 
d="M54 0v700h131v-346l298 346h155l-273 -315l300 -385h-152l-229 292l-99 -115v-177h-131zM284 761l104 137h112l-104 -137h-112z" />
    <glyph glyph-name="uni040E" unicode="&#x40e;" horiz-adv-x="595" 
d="M91 105q60 -7 86 9t40 50q17 39 -8 98l-185 438h147l125 -335l129 335h147l-226 -529q-49 -113 -104 -154t-151 -31v119zM142 898h85q2 -37 18.5 -54.5t52.5 -17.5t52.5 17.5t18.5 54.5h85q0 -68 -39.5 -107.5t-116.5 -39.5q-76 0 -116 39.5t-40 107.5z" />
    <glyph glyph-name="uni0410" unicode="&#x410;" horiz-adv-x="719" 
d="M19 0l257 700h168l257 -700h-139l-50 143h-305l-50 -143h-138zM242 241h236l-114 324h-8z" />
    <glyph glyph-name="uni0411" unicode="&#x411;" horiz-adv-x="619" 
d="M54 0v700h441v-116h-308v-123h143q129 0 195 -61.5t66 -168.5q0 -109 -65.5 -170t-195.5 -61h-276zM187 114h139q122 0 122 117q0 55 -31 85t-91 30h-139v-232z" />
    <glyph glyph-name="uni0412" unicode="&#x412;" horiz-adv-x="629" 
d="M54 0v700h278q111 0 166.5 -46.5t55.5 -126.5q0 -109 -103 -143q150 -38 150 -180q0 -91 -65 -147.5t-194 -56.5h-288zM185 111h151q66 0 97.5 29.5t31.5 77.5q0 49 -31.5 79t-97.5 30h-151v-216zM185 414h141q44 0 69.5 22.5t25.5 67.5q0 85 -95 85h-141v-175z" />
    <glyph glyph-name="uni0413" unicode="&#x413;" horiz-adv-x="518" 
d="M54 0v700h441v-116h-308v-584h-133z" />
    <glyph glyph-name="uni0414" unicode="&#x414;" horiz-adv-x="748" 
d="M19 -69v179h44q88 72 88 398v192h507v-590h61v-179h-128v69h-444v-69h-128zM205 110h319v474h-240v-76q0 -326 -79 -398z" />
    <glyph glyph-name="uni0415" unicode="&#x415;" horiz-adv-x="561" 
d="M54 0v700h469v-115h-338v-178h308v-103h-308v-189h348v-115h-479z" />
    <glyph glyph-name="uni0416" unicode="&#x416;" horiz-adv-x="989" 
d="M817 0l-256 297v-297h-134v296l-255 -296h-153l302 354l-295 346h153l248 -288v288h134v-289l249 289h153l-295 -346l302 -354h-153z" />
    <glyph glyph-name="uni0417" unicode="&#x417;" 
d="M288 -10q-127 0 -191 65.5t-63 178.5h120q1 -68 39.5 -101.5t99.5 -33.5q56 0 95.5 28.5t39.5 82.5q0 50 -36.5 79.5t-109.5 29.5h-38v94h32q126 0 126 94q0 45 -30.5 68.5t-77.5 23.5q-51 0 -84 -29.5t-34 -94.5h-119q0 112 62 173t177 61q106 0 168 -50t62 -131
q0 -62 -33.5 -101.5t-81.5 -52.5q53 -7 100 -50t47 -122q0 -94 -73.5 -153t-196.5 -59z" />
    <glyph glyph-name="uni0418" unicode="&#x418;" horiz-adv-x="686" 
d="M632 0h-131v483h-3l-301 -483h-144v700h132v-491h3l306 491h138v-700z" />
    <glyph glyph-name="uni0419" unicode="&#x419;" horiz-adv-x="686" 
d="M632 0h-131v483h-3l-301 -483h-144v700h132v-491h3l306 491h138v-700zM187 898h85q2 -37 18.5 -54.5t52.5 -17.5t52.5 17.5t18.5 54.5h85q0 -68 -39.5 -107.5t-116.5 -39.5q-76 0 -116 39.5t-40 107.5z" />
    <glyph glyph-name="uni041A" unicode="&#x41a;" horiz-adv-x="683" 
d="M54 0v700h131v-346l298 346h155l-273 -315l300 -385h-152l-229 292l-99 -115v-177h-131z" />
    <glyph glyph-name="uni041B" unicode="&#x41b;" horiz-adv-x="682" 
d="M15 109q52 -1 80.5 23t28.5 94v474h505v-700h-134v584h-237v-364q0 -124 -66 -180.5t-177 -46.5v116z" />
    <glyph glyph-name="uni041C" unicode="&#x41c;" horiz-adv-x="843" 
d="M54 0v700h164l204 -523l204 523h164v-700h-131v470h-5l-182 -470h-100l-183 470h-4v-470h-131z" />
    <glyph glyph-name="uni041D" unicode="&#x41d;" horiz-adv-x="670" 
d="M485 0v293h-300v-293h-131v700h131v-298h300v298h131v-700h-131z" />
    <glyph glyph-name="uni041E" unicode="&#x41e;" horiz-adv-x="736" 
d="M368 -10q-148 0 -238.5 98.5t-90.5 261.5q0 164 90.5 261.5t238.5 97.5t239 -97.5t91 -261.5q0 -163 -91 -261.5t-239 -98.5zM174 350q0 -115 52 -180.5t142 -65.5t142 65.5t52 180.5t-52 180t-142 65t-142 -65t-52 -180z" />
    <glyph glyph-name="uni041F" unicode="&#x41f;" horiz-adv-x="670" 
d="M54 0v700h562v-700h-134v584h-295v-584h-133z" />
    <glyph glyph-name="uni0420" unicode="&#x420;" horiz-adv-x="619" 
d="M54 0v700h275q131 0 196.5 -61.5t65.5 -167.5q0 -105 -65.5 -166.5t-196.5 -61.5h-144v-243h-131zM185 358h139q131 0 131 113q0 114 -131 114h-139v-227z" />
    <glyph glyph-name="uni0421" unicode="&#x421;" horiz-adv-x="681" 
d="M364 -10q-150 0 -237.5 95t-87.5 265q0 169 88 264t238 95q118 0 196 -61t90 -181h-128q-15 64 -57.5 96t-103.5 32q-93 0 -141 -66.5t-48 -178.5q0 -113 47.5 -179.5t141.5 -66.5q61 0 103.5 32t57.5 97h128q-12 -120 -90 -181.5t-197 -61.5z" />
    <glyph glyph-name="uni0422" unicode="&#x422;" horiz-adv-x="595" 
d="M232 0v583h-208v117h547v-117h-208v-583h-131z" />
    <glyph glyph-name="uni0423" unicode="&#x423;" horiz-adv-x="595" 
d="M91 105q60 -7 86 9t40 50q17 39 -8 98l-185 438h147l125 -335l129 335h147l-226 -529q-49 -113 -104 -154t-151 -31v119z" />
    <glyph glyph-name="uni0424" unicode="&#x424;" horiz-adv-x="731" 
d="M299 -15v77q-121 17 -190.5 92.5t-69.5 195.5q0 121 69.5 196t190.5 92v77h134v-78q121 -17 190.5 -92t69.5 -195t-69.5 -195t-190.5 -92v-78h-134zM167 350q0 -71 34 -118.5t98 -63.5v365q-64 -16 -98 -63.5t-34 -119.5zM433 168q65 16 98.5 63.5t33.5 118.5
q0 150 -132 182v-364z" />
    <glyph glyph-name="uni0425" unicode="&#x425;" horiz-adv-x="669" 
d="M503 0l-168 251l-169 -251h-147l242 360l-228 340h147l155 -230l154 230h147l-228 -339l243 -361h-148z" />
    <glyph glyph-name="uni0426" unicode="&#x426;" horiz-adv-x="697" 
d="M54 0v700h133v-584h295v584h134v-584h63v-257h-128v141h-497z" />
    <glyph glyph-name="uni0427" unicode="&#x427;" horiz-adv-x="649" 
d="M243 155q-94 0 -149 55.5t-55 174.5v315h133v-309q0 -117 124 -117q69 0 114 38.5t52 75.5v312h134v-700h-134v279q-16 -40 -74.5 -82t-144.5 -42z" />
    <glyph glyph-name="uni0428" unicode="&#x428;" horiz-adv-x="825" 
d="M54 0v700h133v-584h158v584h134v-584h158v584h134v-700h-717z" />
    <glyph glyph-name="uni0429" unicode="&#x429;" horiz-adv-x="851" 
d="M54 0v700h133v-584h158v584h134v-584h158v584h134v-584h61v-257h-127v141h-651z" />
    <glyph glyph-name="uni042A" unicode="&#x42a;" horiz-adv-x="671" 
d="M19 584v116h220v-239h139q132 0 198.5 -61t66.5 -169q0 -109 -66.5 -170t-198.5 -61h-272v584h-87zM239 114h139q122 0 122 117q0 55 -31 85t-91 30h-139v-232z" />
    <glyph glyph-name="uni042B" unicode="&#x42b;" horiz-adv-x="849" 
d="M54 0v700h133v-239h139q132 0 198.5 -61t66.5 -169q0 -109 -66.5 -170t-198.5 -61h-272zM187 114h139q122 0 122 117q0 55 -31 85t-91 30h-139v-232zM664 0v700h131v-700h-131z" />
    <glyph glyph-name="uni042C" unicode="&#x42c;" horiz-adv-x="619" 
d="M54 0v700h133v-239h139q132 0 198.5 -61t66.5 -169q0 -109 -66.5 -170t-198.5 -61h-272zM187 114h139q122 0 122 117q0 55 -31 85t-91 30h-139v-232z" />
    <glyph glyph-name="uni042D" unicode="&#x42d;" horiz-adv-x="680" 
d="M292 302v108h211q-12 87 -58.5 136t-126.5 49q-61 0 -103.5 -32t-57.5 -96h-128q12 120 90 181t196 61q150 0 238 -95t88 -264q0 -170 -87.5 -265t-237.5 -95q-119 0 -197 61.5t-90 181.5h128q15 -65 57.5 -97t103.5 -32q83 0 130 52.5t57 145.5h-213z" />
    <glyph glyph-name="uni042E" unicode="&#x42e;" horiz-adv-x="979" 
d="M54 0v700h131v-298h100q14 142 102.5 224.5t223.5 82.5q148 0 239 -97.5t91 -261.5q0 -163 -91 -261.5t-239 -98.5q-134 0 -222 82t-104 221h-100v-293h-131zM417 350q0 -115 52 -180.5t142 -65.5t142 65.5t52 180.5t-52 180t-142 65t-142 -65t-52 -180z" />
    <glyph glyph-name="uni042F" unicode="&#x42f;" horiz-adv-x="626" 
d="M572 0h-131v243h-142l-139 -243h-131l152 260q-146 47 -146 211q0 106 65.5 167.5t196.5 61.5h275v-700zM171 471q0 -113 131 -113h139v227h-139q-131 0 -131 -114z" />
    <glyph glyph-name="uni0430" unicode="&#x430;" horiz-adv-x="548" 
d="M196 -10q-71 0 -119 35.5t-48 107.5t48 104t130 43l102 14q35 4 47 14.5t12 33.5v11q0 46 -23.5 64t-68.5 18q-96 0 -96 -74v-8h-121v20q0 157 222 157q113 0 164 -41.5t51 -129.5v-238q0 -23 7.5 -30t25.5 -8v-76q-14 -13 -53 -13q-44 0 -73 20t-29 63v15h-5
q-8 -32 -52 -67t-121 -35zM155 149q0 -29 21 -47t65 -18q60 0 93.5 31t33.5 64v65q-7 -12 -56 -20l-74 -10q-83 -14 -83 -65z" />
    <glyph glyph-name="uni0431" unicode="&#x431;" horiz-adv-x="574" 
d="M292 -9q-45 0 -86.5 16t-80.5 50t-62.5 98t-23.5 150v136q-1 259 231 259h44q53 0 77 22h114q-20 -67 -58.5 -94.5t-116.5 -27.5h-60q-51 0 -80 -32t-29 -81v-43q11 32 54.5 55t96.5 23q41 0 80 -15t74.5 -44.5t57.5 -82.5t22 -122q0 -57 -16 -103.5t-41.5 -76.5
t-59.5 -50t-68 -28.5t-69 -8.5zM162 257q0 -81 37.5 -121.5t94.5 -40.5q56 0 93.5 41t37.5 122q0 82 -38 124t-93 42q-56 0 -94 -42t-38 -125z" />
    <glyph glyph-name="uni0432" unicode="&#x432;" horiz-adv-x="581" 
d="M54 0v520h268q86 0 137.5 -33t51.5 -97q0 -76 -73 -102q55 -15 84.5 -51t29.5 -86q0 -75 -59.5 -113t-148.5 -38h-290zM182 104h141q102 0 102 65q0 68 -103 68h-140v-133zM182 311h136q75 0 75 53t-74 53h-137v-106z" />
    <glyph glyph-name="uni0433" unicode="&#x433;" horiz-adv-x="433" 
d="M54 0v520h360v-101h-232v-419h-128z" />
    <glyph glyph-name="uni0434" unicode="&#x434;" horiz-adv-x="638" 
d="M135 0v-56h-116v157h44q31 33 39 94.5t8 185.5v139h464v-419h46v-157h-116v56h-369zM186 101h260v318h-208v-38q0 -119 -9.5 -183t-42.5 -97z" />
    <glyph glyph-name="uni0435" unicode="&#x435;" horiz-adv-x="556" 
d="M286 -10q-111 0 -184 67t-73 204q0 136 72 202.5t183 66.5q109 0 176.5 -64.5t67.5 -199.5q0 -22 -3 -39h-375q11 -139 139 -139q95 0 118 75h114q-20 -86 -82.5 -129.5t-152.5 -43.5zM151 305h256q-2 58 -33.5 92.5t-91.5 34.5q-57 0 -90.5 -32t-40.5 -95z" />
    <glyph glyph-name="uni0436" unicode="&#x436;" horiz-adv-x="848" 
d="M681 0l-193 202v-202h-128v202l-193 -202h-158l254 259l-248 261h158l187 -203v203h128v-202l187 202h158l-248 -261l254 -259h-158z" />
    <glyph glyph-name="uni0437" unicode="&#x437;" horiz-adv-x="529" 
d="M259 -9q-114 0 -172 52t-58 150h114q0 -50 30.5 -79.5t89.5 -29.5q49 0 77.5 20.5t28.5 54.5q0 35 -32.5 57t-100.5 22v67q114 0 114 66q0 31 -25.5 47t-63.5 16q-45 0 -71.5 -23t-26.5 -63h-116q0 86 55.5 132.5t158.5 46.5q93 0 151 -38t58 -105q0 -85 -93 -109
q16 -3 33.5 -10t38.5 -20.5t34 -38t13 -56.5q0 -75 -66.5 -117t-170.5 -42z" />
    <glyph glyph-name="uni0438" unicode="&#x438;" horiz-adv-x="604" 
d="M54 0v520h128v-342h3l234 342h131v-520h-128v334h-3l-229 -334h-136z" />
    <glyph glyph-name="uni0439" unicode="&#x439;" horiz-adv-x="604" 
d="M54 0v520h128v-342h3l234 342h131v-520h-128v334h-3l-229 -334h-136zM147 718h85q2 -37 18.5 -54.5t52.5 -17.5t52.5 17.5t18.5 54.5h85q0 -68 -39.5 -107.5t-116.5 -39.5q-76 0 -116 39.5t-40 107.5z" />
    <glyph glyph-name="uni043A" unicode="&#x43a;" horiz-adv-x="570" 
d="M54 0v520h128v-223l204 223h145l-210 -224l240 -296h-140l-179 212l-60 -64v-148h-128z" />
    <glyph glyph-name="uni043B" unicode="&#x43b;" horiz-adv-x="616" 
d="M15 97q51 -1 80 26t29 100v297h438v-520h-126v419h-184v-203q0 -123 -63 -176.5t-174 -43.5v101z" />
    <glyph glyph-name="uni043C" unicode="&#x43c;" horiz-adv-x="732" 
d="M54 0v520h149l163 -371l163 371h150v-520h-128v316h-5l-132 -316h-96l-132 316h-4v-316h-128z" />
    <glyph glyph-name="uni043D" unicode="&#x43d;" horiz-adv-x="562" 
d="M54 0v520h128v-199h199v199h128v-520h-128v220h-199v-220h-128z" />
    <glyph glyph-name="uni043E" unicode="&#x43e;" horiz-adv-x="573" 
d="M287 -10q-108 0 -183 69t-75 201t75 201t183 69q107 0 182.5 -69t75.5 -201t-75.5 -201t-182.5 -69zM149 260q0 -81 38.5 -122t99.5 -41q60 0 98.5 41t38.5 122t-38.5 122t-98.5 41q-61 0 -99.5 -41t-38.5 -122z" />
    <glyph glyph-name="uni043F" unicode="&#x43f;" horiz-adv-x="559" 
d="M54 0v520h452v-520h-128v419h-196v-419h-128z" />
    <glyph glyph-name="uni0440" unicode="&#x440;" horiz-adv-x="601" 
d="M54 -190v710h128v-75q19 38 62 61.5t99 23.5q93 0 161 -68.5t68 -201.5t-68 -201.5t-161 -68.5q-56 0 -99 23.5t-62 61.5v-265h-128zM176 260q0 -79 40 -121t97 -42q58 0 98.5 42t40.5 121t-40.5 121t-98.5 42q-57 0 -97 -42t-40 -121z" />
    <glyph glyph-name="uni0441" unicode="&#x441;" horiz-adv-x="551" 
d="M288 -10q-108 0 -183.5 67.5t-75.5 201.5q0 69 22 122.5t59 85t82 47.5t96 16q38 0 73 -9t70 -30t59 -63.5t31 -102.5h-116q-18 97 -118 97q-66 0 -102 -44t-36 -119t36 -118t102 -43q100 0 118 98h116q-5 -48 -22 -85.5t-40.5 -59.5t-54 -36.5t-58.5 -19.5t-58 -5z" />
    <glyph glyph-name="uni0442" unicode="&#x442;" horiz-adv-x="515" 
d="M194 0v419h-164v101h455v-101h-163v-419h-128z" />
    <glyph glyph-name="uni0443" unicode="&#x443;" horiz-adv-x="567" 
d="M71 -89q110 -15 140 60q14 35 0 70l-192 479h131l133 -360l134 360h132l-216 -534q-46 -113 -103.5 -154t-158.5 -30v109z" />
    <glyph glyph-name="uni0444" unicode="&#x444;" horiz-adv-x="607" 
d="M244 -190v187q-92 17 -153.5 82t-61.5 179t61.5 180t153.5 83v179h120v-179q92 -18 153.5 -84t61.5 -179q0 -114 -61.5 -179.5t-153.5 -82.5v-186h-120zM134 258q0 -135 110 -164v330q-110 -29 -110 -166zM364 94q110 29 110 164t-110 166v-330z" />
    <glyph glyph-name="uni0445" unicode="&#x445;" horiz-adv-x="565" 
d="M29 0l181 263l-172 257h139l106 -165l105 165h139l-172 -257l182 -263h-139l-115 170l-116 -170h-138z" />
    <glyph glyph-name="uni0446" unicode="&#x446;" horiz-adv-x="618" 
d="M54 0v520h128v-419h196v419h128v-419h59v-241h-122v140h-389z" />
    <glyph glyph-name="uni0447" unicode="&#x447;" horiz-adv-x="567" 
d="M216 134q-83 0 -135 49t-52 153v184h128v-169q0 -57 29.5 -83.5t77.5 -26.5q56 0 89 33t33 77v169h128v-520h-128v237q-8 -36 -53 -69.5t-117 -33.5z" />
    <glyph glyph-name="uni0448" unicode="&#x448;" horiz-adv-x="787" 
d="M54 0v520h128v-419h151v419h121v-419h151v419h128v-520h-679z" />
    <glyph glyph-name="uni0449" unicode="&#x449;" horiz-adv-x="846" 
d="M671 -140v140h-617v520h128v-419h151v419h121v-419h151v419h128v-419h60v-241h-122z" />
    <glyph glyph-name="uni044A" unicode="&#x44a;" horiz-adv-x="617" 
d="M19 419v101h218v-178h146q98 0 152 -46t54 -125q0 -81 -53.5 -126t-152.5 -45h-274v419h-90zM237 101h141q88 0 88 70q0 71 -88 71h-141v-141z" />
    <glyph glyph-name="uni044B" unicode="&#x44b;" horiz-adv-x="772" 
d="M54 0v520h128v-178h146q98 0 152 -46t54 -125q0 -81 -53.5 -126t-152.5 -45h-274zM182 101h141q88 0 88 70q0 71 -88 71h-141v-141zM590 0v520h128v-520h-128z" />
    <glyph glyph-name="uni044C" unicode="&#x44c;" horiz-adv-x="562" 
d="M54 0v520h128v-178h146q98 0 152 -46t54 -125q0 -81 -53.5 -126t-152.5 -45h-274zM182 101h141q88 0 88 70q0 71 -88 71h-141v-141z" />
    <glyph glyph-name="uni044D" unicode="&#x44d;" horiz-adv-x="550" 
d="M244 224v79h153q-10 56 -44.5 87.5t-89.5 31.5q-100 0 -118 -97h-116q7 60 31 102.5t59 63.5t70 30t73 9q51 0 96 -16t82 -47.5t59 -85t22 -122.5q0 -134 -75.5 -201.5t-183.5 -67.5q-30 0 -58 5t-58.5 19.5t-54 36.5t-40.5 59.5t-22 85.5h116q18 -98 118 -98
q58 0 93 33.5t43 92.5h-155z" />
    <glyph glyph-name="uni044E" unicode="&#x44e;" horiz-adv-x="778" 
d="M45 0v520h128v-210h64q15 109 87 164.5t168 55.5q107 0 182.5 -69t75.5 -201t-75.5 -201t-182.5 -69q-96 0 -168 55.5t-87 163.5h-64v-209h-128zM354 260q0 -81 38.5 -122t99.5 -41q60 0 98.5 41t38.5 122t-38.5 122t-98.5 41q-61 0 -99.5 -41t-38.5 -122z" />
    <glyph glyph-name="uni044F" unicode="&#x44f;" horiz-adv-x="567" 
d="M165 186q-63 16 -97 58t-34 105q0 81 53 126t152 45h275v-520h-128v178h-95l-119 -178h-135zM156 349q0 -71 88 -71h142v141h-142q-88 0 -88 -70z" />
    <glyph glyph-name="uni0451" unicode="&#x451;" horiz-adv-x="556" 
d="M286 -10q-111 0 -184 67t-73 204q0 136 72 202.5t183 66.5q109 0 176.5 -64.5t67.5 -199.5q0 -22 -3 -39h-375q11 -139 139 -139q95 0 118 75h114q-20 -86 -82.5 -129.5t-152.5 -43.5zM92 663q0 30 21.5 50.5t50.5 20.5t50.5 -20.5t21.5 -50.5q0 -29 -21.5 -49.5
t-50.5 -20.5t-50.5 20.5t-21.5 49.5zM151 305h256q-2 58 -33.5 92.5t-91.5 34.5q-57 0 -90.5 -32t-40.5 -95zM318 663q0 30 21.5 50.5t50.5 20.5t50.5 -20.5t21.5 -50.5q0 -29 -21.5 -49.5t-50.5 -20.5t-50.5 20.5t-21.5 49.5z" />
    <glyph glyph-name="uni0453" unicode="&#x453;" horiz-adv-x="433" 
d="M54 0v520h360v-101h-232v-419h-128zM159 581l104 137h112l-104 -137h-112z" />
    <glyph glyph-name="uni0454" unicode="&#x454;" horiz-adv-x="551" 
d="M288 -10q-108 0 -183.5 67.5t-75.5 201.5q0 69 22 122.5t59 85t82 47.5t96 16q38 0 73 -9t70 -30t59 -63.5t31 -102.5h-116q-18 97 -118 97q-55 0 -89.5 -31.5t-44.5 -87.5h153v-79h-155q8 -59 43 -92.5t93 -33.5q100 0 118 98h116q-5 -48 -22 -85.5t-40.5 -59.5
t-54 -36.5t-58.5 -19.5t-58 -5z" />
    <glyph glyph-name="uni0457" unicode="&#x457;" horiz-adv-x="219" 
d="M45 0v520h128v-520h-128zM-77 663q0 30 21.5 50.5t50.5 20.5t50.5 -20.5t21.5 -50.5q0 -29 -21.5 -49.5t-50.5 -20.5t-50.5 20.5t-21.5 49.5zM149 663q0 30 21.5 50.5t50.5 20.5t50.5 -20.5t21.5 -50.5q0 -29 -21.5 -49.5t-50.5 -20.5t-50.5 20.5t-21.5 49.5z" />
    <glyph glyph-name="uni045C" unicode="&#x45c;" horiz-adv-x="570" 
d="M54 0v520h128v-223l204 223h145l-210 -224l240 -296h-140l-179 212l-60 -64v-148h-128zM225 581l104 137h112l-104 -137h-112z" />
    <glyph glyph-name="uni045E" unicode="&#x45e;" horiz-adv-x="567" 
d="M71 -89q110 -15 140 60q14 35 0 70l-192 479h131l133 -360l134 360h132l-216 -534q-46 -113 -103.5 -154t-158.5 -30v109zM127 718h85q2 -37 18.5 -54.5t52.5 -17.5t52.5 17.5t18.5 54.5h85q0 -68 -39.5 -107.5t-116.5 -39.5q-76 0 -116 39.5t-40 107.5z" />
    <glyph glyph-name="uni0490" unicode="&#x490;" horiz-adv-x="518" 
d="M54 0v700h307v100h134v-216h-308v-584h-133z" />
    <glyph glyph-name="uni0491" unicode="&#x491;" horiz-adv-x="433" 
d="M54 0v520h250v66h110v-167h-232v-419h-128z" />
    <glyph glyph-name="uni1E0C" unicode="&#x1e0c;" horiz-adv-x="678" 
d="M54 0v700h254q163 0 247 -90.5t84 -259.5t-84 -259.5t-247 -90.5h-254zM185 115h110q113 0 161.5 55.5t48.5 179.5t-48.5 179.5t-161.5 55.5h-110v-470zM259 -152q0 33 23.5 56t56.5 23t56 -23t23 -56q0 -32 -23 -55t-56 -23t-56.5 23t-23.5 55z" />
    <glyph glyph-name="uni1E0D" unicode="&#x1e0d;" horiz-adv-x="601" 
d="M258 -10q-93 0 -161 68.5t-68 201.5t68 201.5t161 68.5q56 0 99 -23.5t62 -61.5v255h128v-700h-128v75q-19 -38 -62 -61.5t-99 -23.5zM149 260q0 -79 40.5 -121t98.5 -42q57 0 97 42t40 121t-40 121t-97 42q-58 0 -98.5 -42t-40.5 -121zM218 -152q0 33 23.5 56t56.5 23
t56 -23t23 -56q0 -32 -23 -55t-56 -23t-56.5 23t-23.5 55z" />
    <glyph glyph-name="uni1E20" unicode="&#x1e20;" horiz-adv-x="708" 
d="M363 -10q-154 0 -239 94t-85 263q0 172 87 267t235 95q113 0 192 -56t96 -163h-131q-29 105 -157 105q-96 0 -143 -65.5t-47 -178.5t48 -180t144 -67q73 0 122 41t49 127h-146v106h277v-66q0 -157 -79 -239.5t-223 -82.5zM200 823v75h319v-75h-319z" />
    <glyph glyph-name="uni1E21" unicode="&#x1e21;" horiz-adv-x="594" 
d="M278 -209q-41 0 -78.5 7.5t-75 25t-60.5 54t-23 87.5h113q2 -37 37.5 -56t83.5 -19q61 0 99.5 31.5t38.5 94.5v74h-2q-22 -35 -64.5 -56t-95.5 -21q-92 0 -157 64t-65 194t65.5 194.5t156.5 64.5q53 0 95.5 -21t64.5 -56h2v67h128v-504q0 -54 -17.5 -95t-44 -65
t-63 -39.5t-69.5 -20.5t-69 -5zM128 643v75h319v-75h-319zM149 271q0 -73 39 -112.5t96 -39.5t95.5 39.5t38.5 112.5q0 74 -38.5 113t-95.5 39t-96 -39t-39 -113z" />
    <glyph glyph-name="uni1E24" unicode="&#x1e24;" horiz-adv-x="670" 
d="M485 0v293h-300v-293h-131v700h131v-298h300v298h131v-700h-131zM255 -152q0 33 23.5 56t56.5 23t56 -23t23 -56q0 -32 -23 -55t-56 -23t-56.5 23t-23.5 55z" />
    <glyph glyph-name="uni1E25" unicode="&#x1e25;" 
d="M409 297q0 127 -106 127q-55 0 -88 -32.5t-33 -94.5v-297h-128v700h128v-287h4q9 43 52.5 80t117.5 37q81 0 131 -51t50 -152v-327h-128v297zM208 -152q0 33 23.5 56t56.5 23t56 -23t23 -56q0 -32 -23 -55t-56 -23t-56.5 23t-23.5 55z" />
    <glyph glyph-name="uni1E62" unicode="&#x1e62;" horiz-adv-x="641" 
d="M324 -10q-134 0 -209.5 61.5t-75.5 170.5h135q3 -55 40 -88.5t111 -33.5q66 0 102 26.5t36 74.5q0 41 -27 63t-82 33l-96 19q-200 39 -200 193q0 95 70.5 147.5t192.5 52.5t192 -54t70 -154h-135q0 47 -34.5 72.5t-95.5 25.5q-63 0 -92.5 -25.5t-29.5 -64.5q0 -68 94 -88
l90 -18q117 -23 169.5 -71t52.5 -130q0 -104 -76.5 -158t-201.5 -54zM233 -152q0 33 23.5 56t56.5 23t56 -23t23 -56q0 -32 -23 -55t-56 -23t-56.5 23t-23.5 55z" />
    <glyph glyph-name="uni1E63" unicode="&#x1e63;" horiz-adv-x="496" 
d="M245 -10q-103 0 -161.5 44t-59.5 130h114q10 -77 109 -77q94 0 94 63q0 44 -61 56l-96 21q-146 33 -146 149q0 72 57 113t152 41q99 0 153 -45t56 -128h-106q-11 76 -102 76q-86 0 -86 -55q0 -45 63 -57l99 -22q70 -16 109.5 -49.5t39.5 -96.5q0 -82 -64.5 -122.5
t-163.5 -40.5zM168 -152q0 33 23.5 56t56.5 23t56 -23t23 -56q0 -32 -23 -55t-56 -23t-56.5 23t-23.5 55z" />
    <glyph glyph-name="uni1E6C" unicode="&#x1e6c;" horiz-adv-x="595" 
d="M232 0v583h-208v117h547v-117h-208v-583h-131zM192 -152q0 33 23.5 56t56.5 23t56 -23t23 -56q0 -32 -23 -55t-56 -23t-56.5 23t-23.5 55z" />
    <glyph glyph-name="uni1E6D" unicode="&#x1e6d;" horiz-adv-x="365" 
d="M268 -7q-162 0 -162 153v274h-87v100h87v133h128v-133h102v-100h-102v-254q0 -36 14.5 -53t53.5 -17q21 0 40 2v-96q-33 -9 -74 -9zM164 -152q0 33 23.5 56t56.5 23t56 -23t23 -56q0 -32 -23 -55t-56 -23t-56.5 23t-23.5 55z" />
    <glyph glyph-name="Wgrave" unicode="&#x1e80;" horiz-adv-x="1002" 
d="M207 0l-183 700h134l123 -515h6l146 515h136l146 -515h6l123 515h135l-184 -700h-137l-157 534l-157 -534h-137zM355 898h112l104 -137h-112z" />
    <glyph glyph-name="wgrave" unicode="&#x1e81;" horiz-adv-x="819" 
d="M160 0l-141 520h121l97 -395h4l113 395h111l113 -395h4l97 395h122l-142 -520h-144l-105 350l-106 -350h-144zM263 718h112l104 -137h-112z" />
    <glyph glyph-name="Wacute" unicode="&#x1e82;" horiz-adv-x="1002" 
d="M207 0l-183 700h134l123 -515h6l146 515h136l146 -515h6l123 515h135l-184 -700h-137l-157 534l-157 -534h-137zM441 761l104 137h112l-104 -137h-112z" />
    <glyph glyph-name="wacute" unicode="&#x1e83;" horiz-adv-x="819" 
d="M160 0l-141 520h121l97 -395h4l113 395h111l113 -395h4l97 395h122l-142 -520h-144l-105 350l-106 -350h-144zM349 581l104 137h112l-104 -137h-112z" />
    <glyph glyph-name="Wdieresis" unicode="&#x1e84;" horiz-adv-x="1002" 
d="M207 0l-183 700h134l123 -515h6l146 515h136l146 -515h6l123 515h135l-184 -700h-137l-157 534l-157 -534h-137zM315 843q0 30 21.5 50.5t50.5 20.5t50.5 -20.5t21.5 -50.5q0 -29 -21.5 -49.5t-50.5 -20.5t-50.5 20.5t-21.5 49.5zM541 843q0 30 21.5 50.5t50.5 20.5
t50.5 -20.5t21.5 -50.5q0 -29 -21.5 -49.5t-50.5 -20.5t-50.5 20.5t-21.5 49.5z" />
    <glyph glyph-name="wdieresis" unicode="&#x1e85;" horiz-adv-x="819" 
d="M160 0l-141 520h121l97 -395h4l113 395h111l113 -395h4l97 395h122l-142 -520h-144l-105 350l-106 -350h-144zM223 663q0 30 21.5 50.5t50.5 20.5t50.5 -20.5t21.5 -50.5q0 -29 -21.5 -49.5t-50.5 -20.5t-50.5 20.5t-21.5 49.5zM449 663q0 30 21.5 50.5t50.5 20.5
t50.5 -20.5t21.5 -50.5q0 -29 -21.5 -49.5t-50.5 -20.5t-50.5 20.5t-21.5 49.5z" />
    <glyph glyph-name="uni1E92" unicode="&#x1e92;" horiz-adv-x="618" 
d="M40 0v115l388 470h-377v115h523v-115l-389 -470h393v-115h-538zM238 -152q0 33 23.5 56t56.5 23t56 -23t23 -56q0 -32 -23 -55t-56 -23t-56.5 23t-23.5 55z" />
    <glyph glyph-name="uni1E93" unicode="&#x1e93;" horiz-adv-x="506" 
d="M40 0v108l274 304h-264v108h416v-108l-273 -304h273v-108h-426zM174 -152q0 33 23.5 56t56.5 23t56 -23t23 -56q0 -32 -23 -55t-56 -23t-56.5 23t-23.5 55z" />
    <glyph glyph-name="uni1E9E" unicode="&#x1e9e;" horiz-adv-x="717" 
d="M448 -10q-105 0 -158 56t-53 159h120q0 -41 22 -70.5t68 -29.5t68.5 31t22.5 75q0 57 -38.5 90t-115.5 33h-100l154 260h-165q-47 0 -66.5 -21t-19.5 -66v-507h-133v520q0 100 50 145t156 45h369l-169 -272q97 -10 157.5 -67.5t60.5 -159.5q0 -100 -60 -160.5t-170 -60.5
z" />
    <glyph glyph-name="uni1EA0" unicode="&#x1ea0;" horiz-adv-x="719" 
d="M19 0l257 700h168l257 -700h-139l-50 143h-305l-50 -143h-138zM242 241h236l-114 324h-8zM281 -152q0 33 23.5 56t56.5 23t56 -23t23 -56q0 -32 -23 -55t-56 -23t-56.5 23t-23.5 55z" />
    <glyph glyph-name="uni1EA1" unicode="&#x1ea1;" horiz-adv-x="551" 
d="M196 -10q-72 0 -119.5 36.5t-47.5 109.5q0 39 14 67t41 45t56 26t69 14l97 13q39 5 52.5 14t13.5 29v11q0 82 -94 82q-101 0 -101 -76v-11h-120v23q0 157 224 157q114 0 165.5 -41.5t51.5 -128.5v-360h-123v93h-5q-8 -20 -24 -40.5t-56.5 -41.5t-93.5 -21zM157 147
q0 -64 81 -64q58 0 96 31t38 66v66q-9 -15 -61 -22l-83 -13q-71 -11 -71 -64zM198 -152q0 33 23.5 56t56.5 23t56 -23t23 -56q0 -32 -23 -55t-56 -23t-56.5 23t-23.5 55z" />
    <glyph glyph-name="uni1EA2" unicode="&#x1ea2;" horiz-adv-x="719" 
d="M19 0l257 700h168l257 -700h-139l-50 143h-305l-50 -143h-138zM242 241h236l-114 324h-8zM264 847q0 51 30 75.5t71 24.5q44 0 74.5 -26t30.5 -74q0 -42 -25 -67.5t-63 -30.5l-32 53q48 1 48 40q0 17 -9.5 27t-24.5 10q-31 0 -34 -32h-66z" />
    <glyph glyph-name="uni1EA3" unicode="&#x1ea3;" horiz-adv-x="551" 
d="M196 -10q-72 0 -119.5 36.5t-47.5 109.5q0 39 14 67t41 45t56 26t69 14l97 13q39 5 52.5 14t13.5 29v11q0 82 -94 82q-101 0 -101 -76v-11h-120v23q0 157 224 157q114 0 165.5 -41.5t51.5 -128.5v-360h-123v93h-5q-8 -20 -24 -40.5t-56.5 -41.5t-93.5 -21zM157 147
q0 -64 81 -64q58 0 96 31t38 66v66q-9 -15 -61 -22l-83 -13q-71 -11 -71 -64zM185 667q0 51 30 75.5t71 24.5q44 0 74.5 -26t30.5 -74q0 -42 -25 -67.5t-63 -30.5l-32 53q48 1 48 40q0 17 -9.5 27t-24.5 10q-31 0 -34 -32h-66z" />
    <glyph glyph-name="uni1EA4" unicode="&#x1ea4;" horiz-adv-x="719" 
d="M19 0l257 700h168l257 -700h-139l-50 143h-305l-50 -143h-138zM174 761l98 137h178l98 -137h-115l-72 102l-72 -102h-115zM242 241h236l-114 324h-8zM504 860l104 137h112l-104 -137h-112z" />
    <glyph glyph-name="uni1EA5" unicode="&#x1ea5;" horiz-adv-x="551" 
d="M196 -10q-72 0 -119.5 36.5t-47.5 109.5q0 39 14 67t41 45t56 26t69 14l97 13q39 5 52.5 14t13.5 29v11q0 82 -94 82q-101 0 -101 -76v-11h-120v23q0 157 224 157q114 0 165.5 -41.5t51.5 -128.5v-360h-123v93h-5q-8 -20 -24 -40.5t-56.5 -41.5t-93.5 -21zM95 581l98 137
h178l98 -137h-115l-72 102l-72 -102h-115zM157 147q0 -64 81 -64q58 0 96 31t38 66v66q-9 -15 -61 -22l-83 -13q-71 -11 -71 -64zM425 680l104 137h112l-104 -137h-112z" />
    <glyph glyph-name="uni1EA6" unicode="&#x1ea6;" horiz-adv-x="719" 
d="M19 0l257 700h168l257 -700h-139l-50 143h-305l-50 -143h-138zM174 761l98 137h178l98 -137h-115l-72 102l-72 -102h-115zM242 241h236l-114 324h-8zM440 997h112l91 -137h-111z" />
    <glyph glyph-name="uni1EA7" unicode="&#x1ea7;" horiz-adv-x="551" 
d="M196 -10q-72 0 -119.5 36.5t-47.5 109.5q0 39 14 67t41 45t56 26t69 14l97 13q39 5 52.5 14t13.5 29v11q0 82 -94 82q-101 0 -101 -76v-11h-120v23q0 157 224 157q114 0 165.5 -41.5t51.5 -128.5v-360h-123v93h-5q-8 -20 -24 -40.5t-56.5 -41.5t-93.5 -21zM95 581l98 137
h178l98 -137h-115l-72 102l-72 -102h-115zM157 147q0 -64 81 -64q58 0 96 31t38 66v66q-9 -15 -61 -22l-83 -13q-71 -11 -71 -64zM361 817h112l91 -137h-111z" />
    <glyph glyph-name="uni1EA8" unicode="&#x1ea8;" horiz-adv-x="719" 
d="M19 0l257 700h168l257 -700h-139l-50 143h-305l-50 -143h-138zM174 761l98 137h178l98 -137h-115l-72 102l-72 -102h-115zM242 241h236l-114 324h-8zM410 980q0 51 30 75.5t71 24.5q44 0 74.5 -26t30.5 -74q0 -42 -25 -67.5t-63 -30.5l-32 53q48 1 48 40q0 17 -9.5 27
t-24.5 10q-31 0 -34 -32h-66z" />
    <glyph glyph-name="uni1EA9" unicode="&#x1ea9;" horiz-adv-x="551" 
d="M196 -10q-72 0 -119.5 36.5t-47.5 109.5q0 39 14 67t41 45t56 26t69 14l97 13q39 5 52.5 14t13.5 29v11q0 82 -94 82q-101 0 -101 -76v-11h-120v23q0 157 224 157q114 0 165.5 -41.5t51.5 -128.5v-360h-123v93h-5q-8 -20 -24 -40.5t-56.5 -41.5t-93.5 -21zM95 581l98 137
h178l98 -137h-115l-72 102l-72 -102h-115zM157 147q0 -64 81 -64q58 0 96 31t38 66v66q-9 -15 -61 -22l-83 -13q-71 -11 -71 -64zM331 800q0 51 30 75.5t71 24.5q44 0 74.5 -26t30.5 -74q0 -42 -25 -67.5t-63 -30.5l-32 53q48 1 48 40q0 17 -9.5 27t-24.5 10q-31 0 -34 -32
h-66z" />
    <glyph glyph-name="uni1EAA" unicode="&#x1eaa;" horiz-adv-x="719" 
d="M19 0l257 700h168l257 -700h-139l-50 143h-305l-50 -143h-138zM174 761l98 137h178l98 -137h-115l-72 102l-72 -102h-115zM191 962q0 52 25 81t71 29q32 0 56.5 -15t42 -29.5t32.5 -14.5q13 0 24 9t12 24h76q0 -52 -25 -81t-71 -29q-32 0 -56.5 15t-42 29.5t-32.5 14.5
q-13 0 -24 -9t-12 -24h-76zM242 241h236l-114 324h-8z" />
    <glyph glyph-name="uni1EAB" unicode="&#x1eab;" horiz-adv-x="551" 
d="M196 -10q-72 0 -119.5 36.5t-47.5 109.5q0 39 14 67t41 45t56 26t69 14l97 13q39 5 52.5 14t13.5 29v11q0 82 -94 82q-101 0 -101 -76v-11h-120v23q0 157 224 157q114 0 165.5 -41.5t51.5 -128.5v-360h-123v93h-5q-8 -20 -24 -40.5t-56.5 -41.5t-93.5 -21zM95 581l98 137
h178l98 -137h-115l-72 102l-72 -102h-115zM112 782q0 52 25 81t71 29q32 0 56.5 -15t42 -29.5t32.5 -14.5q13 0 24 9t12 24h76q0 -52 -25 -81t-71 -29q-32 0 -56.5 15t-42 29.5t-32.5 14.5q-13 0 -24 -9t-12 -24h-76zM157 147q0 -64 81 -64q58 0 96 31t38 66v66
q-9 -15 -61 -22l-83 -13q-71 -11 -71 -64z" />
    <glyph glyph-name="uni1EAC" unicode="&#x1eac;" horiz-adv-x="719" 
d="M19 0l257 700h168l257 -700h-139l-50 143h-305l-50 -143h-138zM174 761l98 137h178l98 -137h-115l-72 102l-72 -102h-115zM242 241h236l-114 324h-8zM281 -152q0 33 23.5 56t56.5 23t56 -23t23 -56q0 -32 -23 -55t-56 -23t-56.5 23t-23.5 55z" />
    <glyph glyph-name="uni1EAD" unicode="&#x1ead;" horiz-adv-x="551" 
d="M196 -10q-72 0 -119.5 36.5t-47.5 109.5q0 39 14 67t41 45t56 26t69 14l97 13q39 5 52.5 14t13.5 29v11q0 82 -94 82q-101 0 -101 -76v-11h-120v23q0 157 224 157q114 0 165.5 -41.5t51.5 -128.5v-360h-123v93h-5q-8 -20 -24 -40.5t-56.5 -41.5t-93.5 -21zM95 581l98 137
h178l98 -137h-115l-72 102l-72 -102h-115zM157 147q0 -64 81 -64q58 0 96 31t38 66v66q-9 -15 -61 -22l-83 -13q-71 -11 -71 -64zM198 -152q0 33 23.5 56t56.5 23t56 -23t23 -56q0 -32 -23 -55t-56 -23t-56.5 23t-23.5 55z" />
    <glyph glyph-name="uni1EAE" unicode="&#x1eae;" horiz-adv-x="719" 
d="M19 0l257 700h168l257 -700h-139l-50 143h-305l-50 -143h-138zM204 898h85q2 -37 18.5 -54.5t52.5 -17.5t52.5 17.5t18.5 54.5h85q0 -68 -39.5 -107.5t-116.5 -39.5q-76 0 -116 39.5t-40 107.5zM242 241h236l-114 324h-8zM294 929l104 137h112l-104 -137h-112z" />
    <glyph glyph-name="uni1EAF" unicode="&#x1eaf;" horiz-adv-x="551" 
d="M196 -10q-72 0 -119.5 36.5t-47.5 109.5q0 39 14 67t41 45t56 26t69 14l97 13q39 5 52.5 14t13.5 29v11q0 82 -94 82q-101 0 -101 -76v-11h-120v23q0 157 224 157q114 0 165.5 -41.5t51.5 -128.5v-360h-123v93h-5q-8 -20 -24 -40.5t-56.5 -41.5t-93.5 -21zM126 718h85
q2 -37 18.5 -54.5t52.5 -17.5t52.5 17.5t18.5 54.5h85q0 -68 -39.5 -107.5t-116.5 -39.5q-76 0 -116 39.5t-40 107.5zM157 147q0 -64 81 -64q58 0 96 31t38 66v66q-9 -15 -61 -22l-83 -13q-71 -11 -71 -64zM216 749l104 137h112l-104 -137h-112z" />
    <glyph glyph-name="uni1EB0" unicode="&#x1eb0;" horiz-adv-x="719" 
d="M19 0l257 700h168l257 -700h-139l-50 143h-305l-50 -143h-138zM204 898h85q2 -37 18.5 -54.5t52.5 -17.5t52.5 17.5t18.5 54.5h85q0 -68 -39.5 -107.5t-116.5 -39.5q-76 0 -116 39.5t-40 107.5zM204 1066h112l104 -137h-112zM242 241h236l-114 324h-8z" />
    <glyph glyph-name="uni1EB1" unicode="&#x1eb1;" horiz-adv-x="551" 
d="M196 -10q-72 0 -119.5 36.5t-47.5 109.5q0 39 14 67t41 45t56 26t69 14l97 13q39 5 52.5 14t13.5 29v11q0 82 -94 82q-101 0 -101 -76v-11h-120v23q0 157 224 157q114 0 165.5 -41.5t51.5 -128.5v-360h-123v93h-5q-8 -20 -24 -40.5t-56.5 -41.5t-93.5 -21zM126 718h85
q2 -37 18.5 -54.5t52.5 -17.5t52.5 17.5t18.5 54.5h85q0 -68 -39.5 -107.5t-116.5 -39.5q-76 0 -116 39.5t-40 107.5zM126 886h112l104 -137h-112zM157 147q0 -64 81 -64q58 0 96 31t38 66v66q-9 -15 -61 -22l-83 -13q-71 -11 -71 -64z" />
    <glyph glyph-name="uni1EB2" unicode="&#x1eb2;" horiz-adv-x="719" 
d="M19 0l257 700h168l257 -700h-139l-50 143h-305l-50 -143h-138zM204 898h85q2 -37 18.5 -54.5t52.5 -17.5t52.5 17.5t18.5 54.5h85q0 -68 -39.5 -107.5t-116.5 -39.5q-76 0 -116 39.5t-40 107.5zM226 978q0 51 30 75.5t71 24.5q44 0 74.5 -26t30.5 -74q0 -42 -25 -67.5
t-63 -30.5l-32 53q48 1 48 40q0 17 -9.5 27t-24.5 10q-31 0 -34 -32h-66zM242 241h236l-114 324h-8z" />
    <glyph glyph-name="uni1EB3" unicode="&#x1eb3;" horiz-adv-x="551" 
d="M196 -10q-72 0 -119.5 36.5t-47.5 109.5q0 39 14 67t41 45t56 26t69 14l97 13q39 5 52.5 14t13.5 29v11q0 82 -94 82q-101 0 -101 -76v-11h-120v23q0 157 224 157q114 0 165.5 -41.5t51.5 -128.5v-360h-123v93h-5q-8 -20 -24 -40.5t-56.5 -41.5t-93.5 -21zM126 718h85
q2 -37 18.5 -54.5t52.5 -17.5t52.5 17.5t18.5 54.5h85q0 -68 -39.5 -107.5t-116.5 -39.5q-76 0 -116 39.5t-40 107.5zM147 798q0 51 30 75.5t71 24.5q44 0 74.5 -26t30.5 -74q0 -42 -25 -67.5t-63 -30.5l-32 53q48 1 48 40q0 17 -9.5 27t-24.5 10q-31 0 -34 -32h-66z
M157 147q0 -64 81 -64q58 0 96 31t38 66v66q-9 -15 -61 -22l-83 -13q-71 -11 -71 -64z" />
    <glyph glyph-name="uni1EB4" unicode="&#x1eb4;" horiz-adv-x="719" 
d="M19 0l257 700h168l257 -700h-139l-50 143h-305l-50 -143h-138zM191 967q0 52 25 81t71 29q25 0 46.5 -9t33 -20.5t25 -20.5t26.5 -9t24 9t12 24h76q0 -52 -25 -81t-71 -29q-25 0 -46.5 9t-33 20.5t-25 20.5t-26.5 9t-24 -9t-12 -24h-76zM204 898h85q2 -37 18.5 -54.5
t52.5 -17.5t52.5 17.5t18.5 54.5h85q0 -68 -39.5 -107.5t-116.5 -39.5q-76 0 -116 39.5t-40 107.5zM242 241h236l-114 324h-8z" />
    <glyph glyph-name="uni1EB5" unicode="&#x1eb5;" horiz-adv-x="551" 
d="M196 -10q-72 0 -119.5 36.5t-47.5 109.5q0 39 14 67t41 45t56 26t69 14l97 13q39 5 52.5 14t13.5 29v11q0 82 -94 82q-101 0 -101 -76v-11h-120v23q0 157 224 157q114 0 165.5 -41.5t51.5 -128.5v-360h-123v93h-5q-8 -20 -24 -40.5t-56.5 -41.5t-93.5 -21zM113 787
q0 52 25 81t71 29q25 0 46.5 -9t33 -20.5t25 -20.5t26.5 -9t24 9t12 24h76q0 -52 -25 -81t-71 -29q-25 0 -46.5 9t-33 20.5t-25 20.5t-26.5 9t-24 -9t-12 -24h-76zM126 718h85q2 -37 18.5 -54.5t52.5 -17.5t52.5 17.5t18.5 54.5h85q0 -68 -39.5 -107.5t-116.5 -39.5
q-76 0 -116 39.5t-40 107.5zM157 147q0 -64 81 -64q58 0 96 31t38 66v66q-9 -15 -61 -22l-83 -13q-71 -11 -71 -64z" />
    <glyph glyph-name="uni1EB6" unicode="&#x1eb6;" horiz-adv-x="719" 
d="M19 0l257 700h168l257 -700h-139l-50 143h-305l-50 -143h-138zM204 898h85q2 -37 18.5 -54.5t52.5 -17.5t52.5 17.5t18.5 54.5h85q0 -68 -39.5 -107.5t-116.5 -39.5q-76 0 -116 39.5t-40 107.5zM242 241h236l-114 324h-8zM281 -152q0 33 23.5 56t56.5 23t56 -23t23 -56
q0 -32 -23 -55t-56 -23t-56.5 23t-23.5 55z" />
    <glyph glyph-name="uni1EB7" unicode="&#x1eb7;" horiz-adv-x="551" 
d="M196 -10q-72 0 -119.5 36.5t-47.5 109.5q0 39 14 67t41 45t56 26t69 14l97 13q39 5 52.5 14t13.5 29v11q0 82 -94 82q-101 0 -101 -76v-11h-120v23q0 157 224 157q114 0 165.5 -41.5t51.5 -128.5v-360h-123v93h-5q-8 -20 -24 -40.5t-56.5 -41.5t-93.5 -21zM126 718h85
q2 -37 18.5 -54.5t52.5 -17.5t52.5 17.5t18.5 54.5h85q0 -68 -39.5 -107.5t-116.5 -39.5q-76 0 -116 39.5t-40 107.5zM157 147q0 -64 81 -64q58 0 96 31t38 66v66q-9 -15 -61 -22l-83 -13q-71 -11 -71 -64zM198 -152q0 33 23.5 56t56.5 23t56 -23t23 -56q0 -32 -23 -55
t-56 -23t-56.5 23t-23.5 55z" />
    <glyph glyph-name="uni1EB8" unicode="&#x1eb8;" horiz-adv-x="561" 
d="M54 0v700h469v-115h-338v-178h308v-103h-308v-189h348v-115h-479zM217 -152q0 33 23.5 56t56.5 23t56 -23t23 -56q0 -32 -23 -55t-56 -23t-56.5 23t-23.5 55z" />
    <glyph glyph-name="uni1EB9" unicode="&#x1eb9;" horiz-adv-x="556" 
d="M286 -10q-111 0 -184 67t-73 204q0 136 72 202.5t183 66.5q109 0 176.5 -64.5t67.5 -199.5q0 -22 -3 -39h-375q11 -139 139 -139q95 0 118 75h114q-20 -86 -82.5 -129.5t-152.5 -43.5zM151 305h256q-2 58 -33.5 92.5t-91.5 34.5q-57 0 -90.5 -32t-40.5 -95zM200 -152
q0 33 23.5 56t56.5 23t56 -23t23 -56q0 -32 -23 -55t-56 -23t-56.5 23t-23.5 55z" />
    <glyph glyph-name="uni1EBA" unicode="&#x1eba;" horiz-adv-x="561" 
d="M54 0v700h469v-115h-338v-178h308v-103h-308v-189h348v-115h-479zM201 847q0 51 30 75.5t71 24.5q44 0 74.5 -26t30.5 -74q0 -42 -25 -67.5t-63 -30.5l-32 53q48 1 48 40q0 17 -9.5 27t-24.5 10q-31 0 -34 -32h-66z" />
    <glyph glyph-name="uni1EBB" unicode="&#x1ebb;" horiz-adv-x="556" 
d="M286 -10q-111 0 -184 67t-73 204q0 136 72 202.5t183 66.5q109 0 176.5 -64.5t67.5 -199.5q0 -22 -3 -39h-375q11 -139 139 -139q95 0 118 75h114q-20 -86 -82.5 -129.5t-152.5 -43.5zM151 305h256q-2 58 -33.5 92.5t-91.5 34.5q-57 0 -90.5 -32t-40.5 -95zM182 667
q0 51 30 75.5t71 24.5q44 0 74.5 -26t30.5 -74q0 -42 -25 -67.5t-63 -30.5l-32 53q48 1 48 40q0 17 -9.5 27t-24.5 10q-31 0 -34 -32h-66z" />
    <glyph glyph-name="uni1EBC" unicode="&#x1ebc;" horiz-adv-x="561" 
d="M54 0v700h469v-115h-338v-178h308v-103h-308v-189h348v-115h-479zM128 799q0 52 25 81t71 29q25 0 46.5 -9t33 -20.5t25 -20.5t26.5 -9t24 9t12 24h76q0 -52 -25 -81t-71 -29q-25 0 -46.5 9t-33 20.5t-25 20.5t-26.5 9t-24 -9t-12 -24h-76z" />
    <glyph glyph-name="uni1EBD" unicode="&#x1ebd;" horiz-adv-x="556" 
d="M286 -10q-111 0 -184 67t-73 204q0 136 72 202.5t183 66.5q109 0 176.5 -64.5t67.5 -199.5q0 -22 -3 -39h-375q11 -139 139 -139q95 0 118 75h114q-20 -86 -82.5 -129.5t-152.5 -43.5zM109 619q0 52 25 81t71 29q25 0 46.5 -9t33 -20.5t25 -20.5t26.5 -9t24 9t12 24h76
q0 -52 -25 -81t-71 -29q-25 0 -46.5 9t-33 20.5t-25 20.5t-26.5 9t-24 -9t-12 -24h-76zM151 305h256q-2 58 -33.5 92.5t-91.5 34.5q-57 0 -90.5 -32t-40.5 -95z" />
    <glyph glyph-name="uni1EBE" unicode="&#x1ebe;" horiz-adv-x="561" 
d="M54 0v700h469v-115h-338v-178h308v-103h-308v-189h348v-115h-479zM111 761l98 137h178l98 -137h-115l-72 102l-72 -102h-115zM441 860l104 137h112l-104 -137h-112z" />
    <glyph glyph-name="uni1EBF" unicode="&#x1ebf;" horiz-adv-x="556" 
d="M286 -10q-111 0 -184 67t-73 204q0 136 72 202.5t183 66.5q109 0 176.5 -64.5t67.5 -199.5q0 -22 -3 -39h-375q11 -139 139 -139q95 0 118 75h114q-20 -86 -82.5 -129.5t-152.5 -43.5zM92 581l98 137h178l98 -137h-115l-72 102l-72 -102h-115zM151 305h256
q-2 58 -33.5 92.5t-91.5 34.5q-57 0 -90.5 -32t-40.5 -95zM422 680l104 137h112l-104 -137h-112z" />
    <glyph glyph-name="uni1EC0" unicode="&#x1ec0;" horiz-adv-x="561" 
d="M54 0v700h469v-115h-338v-178h308v-103h-308v-189h348v-115h-479zM111 761l98 137h178l98 -137h-115l-72 102l-72 -102h-115zM377 997h112l91 -137h-111z" />
    <glyph glyph-name="uni1EC1" unicode="&#x1ec1;" horiz-adv-x="556" 
d="M286 -10q-111 0 -184 67t-73 204q0 136 72 202.5t183 66.5q109 0 176.5 -64.5t67.5 -199.5q0 -22 -3 -39h-375q11 -139 139 -139q95 0 118 75h114q-20 -86 -82.5 -129.5t-152.5 -43.5zM92 581l98 137h178l98 -137h-115l-72 102l-72 -102h-115zM151 305h256
q-2 58 -33.5 92.5t-91.5 34.5q-57 0 -90.5 -32t-40.5 -95zM358 817h112l91 -137h-111z" />
    <glyph glyph-name="uni1EC2" unicode="&#x1ec2;" horiz-adv-x="561" 
d="M54 0v700h469v-115h-338v-178h308v-103h-308v-189h348v-115h-479zM111 761l98 137h178l98 -137h-115l-72 102l-72 -102h-115zM347 980q0 51 30 75.5t71 24.5q44 0 74.5 -26t30.5 -74q0 -42 -25 -67.5t-63 -30.5l-32 53q48 1 48 40q0 17 -9.5 27t-24.5 10q-31 0 -34 -32
h-66z" />
    <glyph glyph-name="uni1EC3" unicode="&#x1ec3;" horiz-adv-x="556" 
d="M286 -10q-111 0 -184 67t-73 204q0 136 72 202.5t183 66.5q109 0 176.5 -64.5t67.5 -199.5q0 -22 -3 -39h-375q11 -139 139 -139q95 0 118 75h114q-20 -86 -82.5 -129.5t-152.5 -43.5zM92 581l98 137h178l98 -137h-115l-72 102l-72 -102h-115zM151 305h256
q-2 58 -33.5 92.5t-91.5 34.5q-57 0 -90.5 -32t-40.5 -95zM328 800q0 51 30 75.5t71 24.5q44 0 74.5 -26t30.5 -74q0 -42 -25 -67.5t-63 -30.5l-32 53q48 1 48 40q0 17 -9.5 27t-24.5 10q-31 0 -34 -32h-66z" />
    <glyph glyph-name="uni1EC4" unicode="&#x1ec4;" horiz-adv-x="561" 
d="M54 0v700h469v-115h-338v-178h308v-103h-308v-189h348v-115h-479zM111 761l98 137h178l98 -137h-115l-72 102l-72 -102h-115zM128 962q0 52 25 81t71 29q32 0 56.5 -15t42 -29.5t32.5 -14.5q13 0 24 9t12 24h76q0 -52 -25 -81t-71 -29q-32 0 -56.5 15t-42 29.5
t-32.5 14.5q-13 0 -24 -9t-12 -24h-76z" />
    <glyph glyph-name="uni1EC5" unicode="&#x1ec5;" horiz-adv-x="556" 
d="M286 -10q-111 0 -184 67t-73 204q0 136 72 202.5t183 66.5q109 0 176.5 -64.5t67.5 -199.5q0 -22 -3 -39h-375q11 -139 139 -139q95 0 118 75h114q-20 -86 -82.5 -129.5t-152.5 -43.5zM92 581l98 137h178l98 -137h-115l-72 102l-72 -102h-115zM109 782q0 52 25 81t71 29
q32 0 56.5 -15t42 -29.5t32.5 -14.5q13 0 24 9t12 24h76q0 -52 -25 -81t-71 -29q-32 0 -56.5 15t-42 29.5t-32.5 14.5q-13 0 -24 -9t-12 -24h-76zM151 305h256q-2 58 -33.5 92.5t-91.5 34.5q-57 0 -90.5 -32t-40.5 -95z" />
    <glyph glyph-name="uni1EC6" unicode="&#x1ec6;" horiz-adv-x="561" 
d="M54 0v700h469v-115h-338v-178h308v-103h-308v-189h348v-115h-479zM111 761l98 137h178l98 -137h-115l-72 102l-72 -102h-115zM217 -152q0 33 23.5 56t56.5 23t56 -23t23 -56q0 -32 -23 -55t-56 -23t-56.5 23t-23.5 55z" />
    <glyph glyph-name="uni1EC7" unicode="&#x1ec7;" horiz-adv-x="556" 
d="M286 -10q-111 0 -184 67t-73 204q0 136 72 202.5t183 66.5q109 0 176.5 -64.5t67.5 -199.5q0 -22 -3 -39h-375q11 -139 139 -139q95 0 118 75h114q-20 -86 -82.5 -129.5t-152.5 -43.5zM92 581l98 137h178l98 -137h-115l-72 102l-72 -102h-115zM151 305h256
q-2 58 -33.5 92.5t-91.5 34.5q-57 0 -90.5 -32t-40.5 -95zM200 -152q0 33 23.5 56t56.5 23t56 -23t23 -56q0 -32 -23 -55t-56 -23t-56.5 23t-23.5 55z" />
    <glyph glyph-name="uni1EC8" unicode="&#x1ec8;" horiz-adv-x="238" 
d="M54 0v700h131v-700h-131zM22 847q0 51 30 75.5t71 24.5q44 0 74.5 -26t30.5 -74q0 -42 -25 -67.5t-63 -30.5l-32 53q48 1 48 40q0 17 -9.5 27t-24.5 10q-31 0 -34 -32h-66z" />
    <glyph glyph-name="uni1EC9" unicode="&#x1ec9;" horiz-adv-x="219" 
d="M45 0v520h128v-520h-128zM13 667q0 51 30 75.5t71 24.5q44 0 74.5 -26t30.5 -74q0 -42 -25 -67.5t-63 -30.5l-32 53q48 1 48 40q0 17 -9.5 27t-24.5 10q-31 0 -34 -32h-66z" />
    <glyph glyph-name="uni1ECA" unicode="&#x1eca;" horiz-adv-x="238" 
d="M54 0v700h131v-700h-131zM39 -152q0 33 23.5 56t56.5 23t56 -23t23 -56q0 -32 -23 -55t-56 -23t-56.5 23t-23.5 55z" />
    <glyph glyph-name="uni1ECB" unicode="&#x1ecb;" horiz-adv-x="235" 
d="M54 0v520h128v-520h-128zM45 665q0 30 21.5 51t51.5 21q29 0 50.5 -21t21.5 -51t-21.5 -51t-50.5 -21q-30 0 -51.5 21t-21.5 51zM50 -152q0 33 23.5 56t56.5 23t56 -23t23 -56q0 -32 -23 -55t-56 -23t-56.5 23t-23.5 55z" />
    <glyph glyph-name="uni1ECC" unicode="&#x1ecc;" horiz-adv-x="736" 
d="M368 -10q-148 0 -238.5 98.5t-90.5 261.5q0 164 90.5 261.5t238.5 97.5t239 -97.5t91 -261.5q0 -163 -91 -261.5t-239 -98.5zM174 350q0 -115 52 -180.5t142 -65.5t142 65.5t52 180.5t-52 180t-142 65t-142 -65t-52 -180zM288 -152q0 33 23.5 56t56.5 23t56 -23t23 -56
q0 -32 -23 -55t-56 -23t-56.5 23t-23.5 55z" />
    <glyph glyph-name="uni1ECD" unicode="&#x1ecd;" horiz-adv-x="573" 
d="M287 -10q-108 0 -183 69t-75 201t75 201t183 69q107 0 182.5 -69t75.5 -201t-75.5 -201t-182.5 -69zM149 260q0 -81 38.5 -122t99.5 -41q60 0 98.5 41t38.5 122t-38.5 122t-98.5 41q-61 0 -99.5 -41t-38.5 -122zM207 -152q0 33 23.5 56t56.5 23t56 -23t23 -56
q0 -32 -23 -55t-56 -23t-56.5 23t-23.5 55z" />
    <glyph glyph-name="uni1ECE" unicode="&#x1ece;" horiz-adv-x="736" 
d="M368 -10q-148 0 -238.5 98.5t-90.5 261.5q0 164 90.5 261.5t238.5 97.5t239 -97.5t91 -261.5q0 -163 -91 -261.5t-239 -98.5zM174 350q0 -115 52 -180.5t142 -65.5t142 65.5t52 180.5t-52 180t-142 65t-142 -65t-52 -180zM272 847q0 51 30 75.5t71 24.5q44 0 74.5 -26
t30.5 -74q0 -42 -25 -67.5t-63 -30.5l-32 53q48 1 48 40q0 17 -9.5 27t-24.5 10q-31 0 -34 -32h-66z" />
    <glyph glyph-name="uni1ECF" unicode="&#x1ecf;" horiz-adv-x="573" 
d="M287 -10q-108 0 -183 69t-75 201t75 201t183 69q107 0 182.5 -69t75.5 -201t-75.5 -201t-182.5 -69zM149 260q0 -81 38.5 -122t99.5 -41q60 0 98.5 41t38.5 122t-38.5 122t-98.5 41q-61 0 -99.5 -41t-38.5 -122zM190 667q0 51 30 75.5t71 24.5q44 0 74.5 -26t30.5 -74
q0 -42 -25 -67.5t-63 -30.5l-32 53q48 1 48 40q0 17 -9.5 27t-24.5 10q-31 0 -34 -32h-66z" />
    <glyph glyph-name="uni1ED0" unicode="&#x1ed0;" horiz-adv-x="736" 
d="M368 -10q-148 0 -238.5 98.5t-90.5 261.5q0 164 90.5 261.5t238.5 97.5t239 -97.5t91 -261.5q0 -163 -91 -261.5t-239 -98.5zM174 350q0 -115 52 -180.5t142 -65.5t142 65.5t52 180.5t-52 180t-142 65t-142 -65t-52 -180zM182 761l98 137h178l98 -137h-115l-72 102
l-72 -102h-115zM512 860l104 137h112l-104 -137h-112z" />
    <glyph glyph-name="uni1ED1" unicode="&#x1ed1;" horiz-adv-x="573" 
d="M287 -10q-108 0 -183 69t-75 201t75 201t183 69q107 0 182.5 -69t75.5 -201t-75.5 -201t-182.5 -69zM100 581l98 137h178l98 -137h-115l-72 102l-72 -102h-115zM149 260q0 -81 38.5 -122t99.5 -41q60 0 98.5 41t38.5 122t-38.5 122t-98.5 41q-61 0 -99.5 -41t-38.5 -122z
M430 680l104 137h112l-104 -137h-112z" />
    <glyph glyph-name="uni1ED2" unicode="&#x1ed2;" horiz-adv-x="736" 
d="M368 -10q-148 0 -238.5 98.5t-90.5 261.5q0 164 90.5 261.5t238.5 97.5t239 -97.5t91 -261.5q0 -163 -91 -261.5t-239 -98.5zM174 350q0 -115 52 -180.5t142 -65.5t142 65.5t52 180.5t-52 180t-142 65t-142 -65t-52 -180zM182 761l98 137h178l98 -137h-115l-72 102
l-72 -102h-115zM448 997h112l91 -137h-111z" />
    <glyph glyph-name="uni1ED3" unicode="&#x1ed3;" horiz-adv-x="573" 
d="M287 -10q-108 0 -183 69t-75 201t75 201t183 69q107 0 182.5 -69t75.5 -201t-75.5 -201t-182.5 -69zM100 581l98 137h178l98 -137h-115l-72 102l-72 -102h-115zM149 260q0 -81 38.5 -122t99.5 -41q60 0 98.5 41t38.5 122t-38.5 122t-98.5 41q-61 0 -99.5 -41t-38.5 -122z
M366 817h112l91 -137h-111z" />
    <glyph glyph-name="uni1ED4" unicode="&#x1ed4;" horiz-adv-x="736" 
d="M368 -10q-148 0 -238.5 98.5t-90.5 261.5q0 164 90.5 261.5t238.5 97.5t239 -97.5t91 -261.5q0 -163 -91 -261.5t-239 -98.5zM174 350q0 -115 52 -180.5t142 -65.5t142 65.5t52 180.5t-52 180t-142 65t-142 -65t-52 -180zM182 761l98 137h178l98 -137h-115l-72 102
l-72 -102h-115zM418 980q0 51 30 75.5t71 24.5q44 0 74.5 -26t30.5 -74q0 -42 -25 -67.5t-63 -30.5l-32 53q48 1 48 40q0 17 -9.5 27t-24.5 10q-31 0 -34 -32h-66z" />
    <glyph glyph-name="uni1ED5" unicode="&#x1ed5;" horiz-adv-x="573" 
d="M287 -10q-108 0 -183 69t-75 201t75 201t183 69q107 0 182.5 -69t75.5 -201t-75.5 -201t-182.5 -69zM100 581l98 137h178l98 -137h-115l-72 102l-72 -102h-115zM149 260q0 -81 38.5 -122t99.5 -41q60 0 98.5 41t38.5 122t-38.5 122t-98.5 41q-61 0 -99.5 -41t-38.5 -122z
M336 800q0 51 30 75.5t71 24.5q44 0 74.5 -26t30.5 -74q0 -42 -25 -67.5t-63 -30.5l-32 53q48 1 48 40q0 17 -9.5 27t-24.5 10q-31 0 -34 -32h-66z" />
    <glyph glyph-name="uni1ED6" unicode="&#x1ed6;" horiz-adv-x="736" 
d="M368 -10q-148 0 -238.5 98.5t-90.5 261.5q0 164 90.5 261.5t238.5 97.5t239 -97.5t91 -261.5q0 -163 -91 -261.5t-239 -98.5zM174 350q0 -115 52 -180.5t142 -65.5t142 65.5t52 180.5t-52 180t-142 65t-142 -65t-52 -180zM182 761l98 137h178l98 -137h-115l-72 102
l-72 -102h-115zM199 962q0 52 25 81t71 29q32 0 56.5 -15t42 -29.5t32.5 -14.5q13 0 24 9t12 24h76q0 -52 -25 -81t-71 -29q-32 0 -56.5 15t-42 29.5t-32.5 14.5q-13 0 -24 -9t-12 -24h-76z" />
    <glyph glyph-name="uni1ED7" unicode="&#x1ed7;" horiz-adv-x="573" 
d="M287 -10q-108 0 -183 69t-75 201t75 201t183 69q107 0 182.5 -69t75.5 -201t-75.5 -201t-182.5 -69zM100 581l98 137h178l98 -137h-115l-72 102l-72 -102h-115zM117 782q0 52 25 81t71 29q32 0 56.5 -15t42 -29.5t32.5 -14.5q13 0 24 9t12 24h76q0 -52 -25 -81t-71 -29
q-32 0 -56.5 15t-42 29.5t-32.5 14.5q-13 0 -24 -9t-12 -24h-76zM149 260q0 -81 38.5 -122t99.5 -41q60 0 98.5 41t38.5 122t-38.5 122t-98.5 41q-61 0 -99.5 -41t-38.5 -122z" />
    <glyph glyph-name="uni1ED8" unicode="&#x1ed8;" horiz-adv-x="736" 
d="M368 -10q-148 0 -238.5 98.5t-90.5 261.5q0 164 90.5 261.5t238.5 97.5t239 -97.5t91 -261.5q0 -163 -91 -261.5t-239 -98.5zM174 350q0 -115 52 -180.5t142 -65.5t142 65.5t52 180.5t-52 180t-142 65t-142 -65t-52 -180zM182 761l98 137h178l98 -137h-115l-72 102
l-72 -102h-115zM288 -152q0 33 23.5 56t56.5 23t56 -23t23 -56q0 -32 -23 -55t-56 -23t-56.5 23t-23.5 55z" />
    <glyph glyph-name="uni1ED9" unicode="&#x1ed9;" horiz-adv-x="573" 
d="M287 -10q-108 0 -183 69t-75 201t75 201t183 69q107 0 182.5 -69t75.5 -201t-75.5 -201t-182.5 -69zM100 581l98 137h178l98 -137h-115l-72 102l-72 -102h-115zM149 260q0 -81 38.5 -122t99.5 -41q60 0 98.5 41t38.5 122t-38.5 122t-98.5 41q-61 0 -99.5 -41t-38.5 -122z
M207 -152q0 33 23.5 56t56.5 23t56 -23t23 -56q0 -32 -23 -55t-56 -23t-56.5 23t-23.5 55z" />
    <glyph glyph-name="uni1EDA" unicode="&#x1eda;" horiz-adv-x="736" 
d="M368 -10q-148 0 -238.5 98.5t-90.5 261.5q0 164 90.5 261.5t238.5 97.5h226v79h109v-177h-96q91 -97 91 -261q0 -163 -91 -261.5t-239 -98.5zM174 350q0 -115 52 -180.5t142 -65.5t142 65.5t52 180.5t-52 180t-142 65t-142 -65t-52 -180zM302 761l104 137h112l-104 -137
h-112z" />
    <glyph glyph-name="uni1EDB" unicode="&#x1edb;" horiz-adv-x="573" 
d="M287 -10q-108 0 -183 69t-75 201t75 201t183 69h161v78h103v-176h-56q50 -68 50 -172q0 -132 -75.5 -201t-182.5 -69zM149 260q0 -81 38.5 -122t99.5 -41q60 0 98.5 41t38.5 122t-38.5 122t-98.5 41q-61 0 -99.5 -41t-38.5 -122zM221 581l104 137h112l-104 -137h-112z
" />
    <glyph glyph-name="uni1EDC" unicode="&#x1edc;" horiz-adv-x="736" 
d="M368 -10q-148 0 -238.5 98.5t-90.5 261.5q0 164 90.5 261.5t238.5 97.5h226v79h109v-177h-96q91 -97 91 -261q0 -163 -91 -261.5t-239 -98.5zM174 350q0 -115 52 -180.5t142 -65.5t142 65.5t52 180.5t-52 180t-142 65t-142 -65t-52 -180zM212 898h112l104 -137h-112z" />
    <glyph glyph-name="uni1EDD" unicode="&#x1edd;" horiz-adv-x="573" 
d="M287 -10q-108 0 -183 69t-75 201t75 201t183 69h161v78h103v-176h-56q50 -68 50 -172q0 -132 -75.5 -201t-182.5 -69zM131 718h112l104 -137h-112zM149 260q0 -81 38.5 -122t99.5 -41q60 0 98.5 41t38.5 122t-38.5 122t-98.5 41q-61 0 -99.5 -41t-38.5 -122z" />
    <glyph glyph-name="uni1EDE" unicode="&#x1ede;" horiz-adv-x="736" 
d="M368 -10q-148 0 -238.5 98.5t-90.5 261.5q0 164 90.5 261.5t238.5 97.5h226v79h109v-177h-96q91 -97 91 -261q0 -163 -91 -261.5t-239 -98.5zM174 350q0 -115 52 -180.5t142 -65.5t142 65.5t52 180.5t-52 180t-142 65t-142 -65t-52 -180zM272 847q0 51 30 75.5t71 24.5
q44 0 74.5 -26t30.5 -74q0 -42 -25 -67.5t-63 -30.5l-32 53q48 1 48 40q0 17 -9.5 27t-24.5 10q-31 0 -34 -32h-66z" />
    <glyph glyph-name="uni1EDF" unicode="&#x1edf;" horiz-adv-x="573" 
d="M287 -10q-108 0 -183 69t-75 201t75 201t183 69h161v78h103v-176h-56q50 -68 50 -172q0 -132 -75.5 -201t-182.5 -69zM149 260q0 -81 38.5 -122t99.5 -41q60 0 98.5 41t38.5 122t-38.5 122t-98.5 41q-61 0 -99.5 -41t-38.5 -122zM190 667q0 51 30 75.5t71 24.5
q44 0 74.5 -26t30.5 -74q0 -42 -25 -67.5t-63 -30.5l-32 53q48 1 48 40q0 17 -9.5 27t-24.5 10q-31 0 -34 -32h-66z" />
    <glyph glyph-name="uni1EE0" unicode="&#x1ee0;" horiz-adv-x="736" 
d="M368 -10q-148 0 -238.5 98.5t-90.5 261.5q0 164 90.5 261.5t238.5 97.5h226v79h109v-177h-96q91 -97 91 -261q0 -163 -91 -261.5t-239 -98.5zM174 350q0 -115 52 -180.5t142 -65.5t142 65.5t52 180.5t-52 180t-142 65t-142 -65t-52 -180zM199 799q0 52 25 81t71 29
q25 0 46.5 -9t33 -20.5t25 -20.5t26.5 -9t24 9t12 24h76q0 -52 -25 -81t-71 -29q-25 0 -46.5 9t-33 20.5t-25 20.5t-26.5 9t-24 -9t-12 -24h-76z" />
    <glyph glyph-name="uni1EE1" unicode="&#x1ee1;" horiz-adv-x="573" 
d="M287 -10q-108 0 -183 69t-75 201t75 201t183 69h161v78h103v-176h-56q50 -68 50 -172q0 -132 -75.5 -201t-182.5 -69zM117 619q0 52 25 81t71 29q25 0 46.5 -9t33 -20.5t25 -20.5t26.5 -9t24 9t12 24h76q0 -52 -25 -81t-71 -29q-25 0 -46.5 9t-33 20.5t-25 20.5t-26.5 9
t-24 -9t-12 -24h-76zM149 260q0 -81 38.5 -122t99.5 -41q60 0 98.5 41t38.5 122t-38.5 122t-98.5 41q-61 0 -99.5 -41t-38.5 -122z" />
    <glyph glyph-name="uni1EE2" unicode="&#x1ee2;" horiz-adv-x="736" 
d="M368 -10q-148 0 -238.5 98.5t-90.5 261.5q0 164 90.5 261.5t238.5 97.5h226v79h109v-177h-96q91 -97 91 -261q0 -163 -91 -261.5t-239 -98.5zM174 350q0 -115 52 -180.5t142 -65.5t142 65.5t52 180.5t-52 180t-142 65t-142 -65t-52 -180zM288 -152q0 33 23.5 56t56.5 23
t56 -23t23 -56q0 -32 -23 -55t-56 -23t-56.5 23t-23.5 55z" />
    <glyph glyph-name="uni1EE3" unicode="&#x1ee3;" horiz-adv-x="573" 
d="M287 -10q-108 0 -183 69t-75 201t75 201t183 69h161v78h103v-176h-56q50 -68 50 -172q0 -132 -75.5 -201t-182.5 -69zM149 260q0 -81 38.5 -122t99.5 -41q60 0 98.5 41t38.5 122t-38.5 122t-98.5 41q-61 0 -99.5 -41t-38.5 -122zM207 -152q0 33 23.5 56t56.5 23t56 -23
t23 -56q0 -32 -23 -55t-56 -23t-56.5 23t-23.5 55z" />
    <glyph glyph-name="uni1EE4" unicode="&#x1ee4;" horiz-adv-x="674" 
d="M337 -10q-131 0 -207 70.5t-76 204.5v435h132v-425q0 -83 39.5 -126.5t111.5 -43.5t111 43.5t39 126.5v425h133v-435q0 -134 -76.5 -204.5t-206.5 -70.5zM257 -152q0 33 23.5 56t56.5 23t56 -23t23 -56q0 -32 -23 -55t-56 -23t-56.5 23t-23.5 55z" />
    <glyph glyph-name="uni1EE5" unicode="&#x1ee5;" 
d="M181 223q0 -127 106 -127q51 0 84 29.5t37 84.5l1 310h128l-1 -520h-128v107h-4q-9 -43 -52.5 -80t-117.5 -37q-81 0 -131 51t-49 152v327h128zM223 -152q0 33 23.5 56t56.5 23t56 -23t23 -56q0 -32 -23 -55t-56 -23t-56.5 23t-23.5 55z" />
    <glyph glyph-name="uni1EE6" unicode="&#x1ee6;" horiz-adv-x="674" 
d="M337 -10q-131 0 -207 70.5t-76 204.5v435h132v-425q0 -83 39.5 -126.5t111.5 -43.5t111 43.5t39 126.5v425h133v-435q0 -134 -76.5 -204.5t-206.5 -70.5zM231 847q0 51 30 75.5t71 24.5q44 0 74.5 -26t30.5 -74q0 -42 -25 -67.5t-63 -30.5l-32 53q48 1 48 40
q0 17 -9.5 27t-24.5 10q-31 0 -34 -32h-66z" />
    <glyph glyph-name="uni1EE7" unicode="&#x1ee7;" 
d="M181 223q0 -127 106 -127q51 0 84 29.5t37 84.5l1 310h128l-1 -520h-128v107h-4q-9 -43 -52.5 -80t-117.5 -37q-81 0 -131 51t-49 152v327h128zM196 667q0 51 30 75.5t71 24.5q44 0 74.5 -26t30.5 -74q0 -42 -25 -67.5t-63 -30.5l-32 53q48 1 48 40q0 17 -9.5 27
t-24.5 10q-31 0 -34 -32h-66z" />
    <glyph glyph-name="uni1EE8" unicode="&#x1ee8;" horiz-adv-x="674" 
d="M337 -10q-131 0 -207 70.5t-76 204.5v435h132v-425q0 -83 39.5 -126.5t111.5 -43.5t111 43.5t39 126.5v425h134v88h109v-187h-110v-336q0 -134 -76.5 -204.5t-206.5 -70.5zM271 761l104 137h112l-104 -137h-112z" />
    <glyph glyph-name="uni1EE9" unicode="&#x1ee9;" 
d="M181 223q0 -127 106 -127q51 0 84 29.5t37 84.5l1 310h134v88h109v-187h-115l-1 -421h-128v107h-4q-9 -43 -52.5 -80t-117.5 -37q-81 0 -131 51t-49 152v327h128zM229 581l104 137h112l-104 -137h-112z" />
    <glyph glyph-name="uni1EEA" unicode="&#x1eea;" horiz-adv-x="674" 
d="M337 -10q-131 0 -207 70.5t-76 204.5v435h132v-425q0 -83 39.5 -126.5t111.5 -43.5t111 43.5t39 126.5v425h134v88h109v-187h-110v-336q0 -134 -76.5 -204.5t-206.5 -70.5zM181 898h112l104 -137h-112z" />
    <glyph glyph-name="uni1EEB" unicode="&#x1eeb;" 
d="M181 223q0 -127 106 -127q51 0 84 29.5t37 84.5l1 310h134v88h109v-187h-115l-1 -421h-128v107h-4q-9 -43 -52.5 -80t-117.5 -37q-81 0 -131 51t-49 152v327h128zM139 718h112l104 -137h-112z" />
    <glyph glyph-name="uni1EEC" unicode="&#x1eec;" horiz-adv-x="674" 
d="M337 -10q-131 0 -207 70.5t-76 204.5v435h132v-425q0 -83 39.5 -126.5t111.5 -43.5t111 43.5t39 126.5v425h134v88h109v-187h-110v-336q0 -134 -76.5 -204.5t-206.5 -70.5zM240 847q0 51 30 75.5t71 24.5q44 0 74.5 -26t30.5 -74q0 -42 -25 -67.5t-63 -30.5l-32 53
q48 1 48 40q0 17 -9.5 27t-24.5 10q-31 0 -34 -32h-66z" />
    <glyph glyph-name="uni1EED" unicode="&#x1eed;" 
d="M181 223q0 -127 106 -127q51 0 84 29.5t37 84.5l1 310h134v88h109v-187h-115l-1 -421h-128v107h-4q-9 -43 -52.5 -80t-117.5 -37q-81 0 -131 51t-49 152v327h128zM199 667q0 51 30 75.5t71 24.5q44 0 74.5 -26t30.5 -74q0 -42 -25 -67.5t-63 -30.5l-32 53q48 1 48 40
q0 17 -9.5 27t-24.5 10q-31 0 -34 -32h-66z" />
    <glyph glyph-name="uni1EEE" unicode="&#x1eee;" horiz-adv-x="674" 
d="M337 -10q-131 0 -207 70.5t-76 204.5v435h132v-425q0 -83 39.5 -126.5t111.5 -43.5t111 43.5t39 126.5v425h134v88h109v-187h-110v-336q0 -134 -76.5 -204.5t-206.5 -70.5zM167 799q0 52 25 81t71 29q25 0 46.5 -9t33 -20.5t25 -20.5t26.5 -9t24 9t12 24h76
q0 -52 -25 -81t-71 -29q-25 0 -46.5 9t-33 20.5t-25 20.5t-26.5 9t-24 -9t-12 -24h-76z" />
    <glyph glyph-name="uni1EEF" unicode="&#x1eef;" 
d="M181 223q0 -127 106 -127q51 0 84 29.5t37 84.5l1 310h134v88h109v-187h-115l-1 -421h-128v107h-4q-9 -43 -52.5 -80t-117.5 -37q-81 0 -131 51t-49 152v327h128zM126 619q0 52 25 81t71 29q25 0 46.5 -9t33 -20.5t25 -20.5t26.5 -9t24 9t12 24h76q0 -52 -25 -81t-71 -29
q-25 0 -46.5 9t-33 20.5t-25 20.5t-26.5 9t-24 -9t-12 -24h-76z" />
    <glyph glyph-name="uni1EF0" unicode="&#x1ef0;" horiz-adv-x="674" 
d="M337 -10q-131 0 -207 70.5t-76 204.5v435h132v-425q0 -83 39.5 -126.5t111.5 -43.5t111 43.5t39 126.5v425h134v88h109v-187h-110v-336q0 -134 -76.5 -204.5t-206.5 -70.5zM257 -152q0 33 23.5 56t56.5 23t56 -23t23 -56q0 -32 -23 -55t-56 -23t-56.5 23t-23.5 55z" />
    <glyph glyph-name="uni1EF1" unicode="&#x1ef1;" 
d="M181 223q0 -127 106 -127q51 0 84 29.5t37 84.5l1 310h134v88h109v-187h-115l-1 -421h-128v107h-4q-9 -43 -52.5 -80t-117.5 -37q-81 0 -131 51t-49 152v327h128zM215 -152q0 33 23.5 56t56.5 23t56 -23t23 -56q0 -32 -23 -55t-56 -23t-56.5 23t-23.5 55z" />
    <glyph glyph-name="Ygrave" unicode="&#x1ef2;" horiz-adv-x="690" 
d="M278 0v262l-254 438h149l172 -311l173 311h149l-254 -438v-262h-135zM199 898h112l104 -137h-112z" />
    <glyph glyph-name="ygrave" unicode="&#x1ef3;" horiz-adv-x="567" 
d="M71 -89q110 -15 140 60q14 35 0 70l-192 479h131l133 -360l134 360h132l-216 -534q-46 -113 -103.5 -154t-158.5 -30v109zM138 718h112l104 -137h-112z" />
    <glyph glyph-name="uni1EF4" unicode="&#x1ef4;" horiz-adv-x="690" 
d="M278 0v262l-254 438h149l172 -311l173 311h149l-254 -438v-262h-135zM266 -152q0 33 23.5 56t56.5 23t56 -23t23 -56q0 -32 -23 -55t-56 -23t-56.5 23t-23.5 55z" />
    <glyph glyph-name="uni1EF5" unicode="&#x1ef5;" horiz-adv-x="567" 
d="M71 -89q110 -15 140 60q14 35 0 70l-192 479h131l133 -360l134 360h132l-216 -534q-46 -113 -103.5 -154t-158.5 -30v109zM352 -152q0 33 23.5 56t56.5 23t56 -23t23 -56q0 -32 -23 -55t-56 -23t-56.5 23t-23.5 55z" />
    <glyph glyph-name="uni1EF6" unicode="&#x1ef6;" horiz-adv-x="690" 
d="M278 0v262l-254 438h149l172 -311l173 311h149l-254 -438v-262h-135zM249 847q0 51 30 75.5t71 24.5q44 0 74.5 -26t30.5 -74q0 -42 -25 -67.5t-63 -30.5l-32 53q48 1 48 40q0 17 -9.5 27t-24.5 10q-31 0 -34 -32h-66z" />
    <glyph glyph-name="uni1EF7" unicode="&#x1ef7;" horiz-adv-x="567" 
d="M71 -89q110 -15 140 60q14 35 0 70l-192 479h131l133 -360l134 360h132l-216 -534q-46 -113 -103.5 -154t-158.5 -30v109zM187 667q0 51 30 75.5t71 24.5q44 0 74.5 -26t30.5 -74q0 -42 -25 -67.5t-63 -30.5l-32 53q48 1 48 40q0 17 -9.5 27t-24.5 10q-31 0 -34 -32h-66z
" />
    <glyph glyph-name="uni1EF8" unicode="&#x1ef8;" horiz-adv-x="690" 
d="M278 0v262l-254 438h149l172 -311l173 311h149l-254 -438v-262h-135zM176 799q0 52 25 81t71 29q25 0 46.5 -9t33 -20.5t25 -20.5t26.5 -9t24 9t12 24h76q0 -52 -25 -81t-71 -29q-25 0 -46.5 9t-33 20.5t-25 20.5t-26.5 9t-24 -9t-12 -24h-76z" />
    <glyph glyph-name="uni1EF9" unicode="&#x1ef9;" horiz-adv-x="567" 
d="M71 -89q110 -15 140 60q14 35 0 70l-192 479h131l133 -360l134 360h132l-216 -534q-46 -113 -103.5 -154t-158.5 -30v109zM114 619q0 52 25 81t71 29q25 0 46.5 -9t33 -20.5t25 -20.5t26.5 -9t24 9t12 24h76q0 -52 -25 -81t-71 -29q-25 0 -46.5 9t-33 20.5t-25 20.5
t-26.5 9t-24 -9t-12 -24h-76z" />
    <glyph glyph-name="endash" unicode="&#x2013;" horiz-adv-x="600" 
d="M45 229v96h510v-96h-510z" />
    <glyph glyph-name="emdash" unicode="&#x2014;" horiz-adv-x="660" 
d="M45 229v96h570v-96h-570z" />
    <glyph glyph-name="quoteleft" unicode="&#x2018;" horiz-adv-x="240" 
d="M180 652q-39 -1 -56 -16t-17 -46q44 0 69 -22.5t25 -56.5q0 -33 -22 -54t-56 -21q-40 0 -65 29.5t-25 88.5q0 71 37.5 111.5t99.5 40.5h10v-54z" />
    <glyph glyph-name="quoteright" unicode="&#x2019;" horiz-adv-x="240" 
d="M60 493q39 1 56 16t17 46q-44 0 -69 22.5t-25 56.5q0 33 22 54t56 21q40 0 65 -29.5t25 -88.5q0 -71 -37.5 -111.5t-99.5 -40.5h-10v54z" />
    <glyph glyph-name="quotesinglbase" unicode="&#x201a;" horiz-adv-x="245" 
d="M60 -69q39 1 56 16t17 46q-44 0 -69 22.5t-25 56.5q0 33 22 54t56 21q40 0 65 -29.5t25 -88.5q0 -71 -37.5 -111.5t-99.5 -40.5h-10v54z" />
    <glyph glyph-name="quotedblleft" unicode="&#x201c;" horiz-adv-x="447" 
d="M180 652q-39 -1 -56 -16t-17 -46q44 0 69 -22.5t25 -56.5q0 -33 -22 -54t-56 -21q-40 0 -65 29.5t-25 88.5q0 71 37.5 111.5t99.5 40.5h10v-54zM240 554q0 71 37.5 111.5t99.5 40.5h10v-54q-39 -1 -56 -16t-17 -46q44 0 69 -22.5t25 -56.5q0 -33 -22 -54t-56 -21
q-40 0 -65 29.5t-25 88.5z" />
    <glyph glyph-name="quotedblright" unicode="&#x201d;" horiz-adv-x="447" 
d="M60 493q39 1 56 16t17 46q-44 0 -69 22.5t-25 56.5q0 33 22 54t56 21q40 0 65 -29.5t25 -88.5q0 -71 -37.5 -111.5t-99.5 -40.5h-10v54zM246 634q0 33 22 54t56 21q40 0 65 -29.5t25 -88.5q0 -71 -37.5 -111.5t-99.5 -40.5h-10v54q39 1 56 16t17 46q-44 0 -69 22.5
t-25 56.5z" />
    <glyph glyph-name="quotedblbase" unicode="&#x201e;" horiz-adv-x="452" 
d="M267 -81q39 1 56 16t17 46q-44 0 -69 22.5t-25 56.5q0 33 22 54t56 21q40 0 65 -29.5t25 -88.5q0 -71 -37.5 -111.5t-99.5 -40.5h-10v54zM39 60q0 33 22 54t56 21q40 0 65 -29.5t25 -88.5q0 -71 -37.5 -111.5t-99.5 -40.5h-10v54q39 1 56 16t17 46q-44 0 -69 22.5
t-25 56.5z" />
    <glyph glyph-name="dagger" unicode="&#x2020;" horiz-adv-x="403" 
d="M151 214v249h-101v97h101v140h102v-140h100v-97h-100v-249h-102z" />
    <glyph glyph-name="daggerdbl" unicode="&#x2021;" horiz-adv-x="403" 
d="M151 0v138h-101v97h101v230h-101v97h101v138h102v-138h100v-97h-100v-230h100v-97h-100v-138h-102z" />
    <glyph glyph-name="bullet" unicode="&#x2022;" horiz-adv-x="274" 
d="M137 177q-36 0 -61.5 25.5t-25.5 61.5q0 35 25.5 60.5t61.5 25.5t61.5 -25.5t25.5 -60.5q0 -36 -25.5 -61.5t-61.5 -25.5z" />
    <glyph glyph-name="ellipsis" unicode="&#x2026;" horiz-adv-x="722" 
d="M361 -10q-33 0 -56 23t-23 55q0 33 23 56t56 23t56.5 -23t23.5 -56q0 -32 -23.5 -55t-56.5 -23zM39 68q0 33 23 56t56 23t56.5 -23t23.5 -56q0 -32 -23.5 -55t-56.5 -23t-56 23t-23 55zM525 68q0 33 23 56t56 23t56.5 -23t23.5 -56q0 -32 -23.5 -55t-56.5 -23t-56 23
t-23 55z" />
    <glyph glyph-name="perthousand" unicode="&#x2030;" horiz-adv-x="1085" 
d="M902 -9q-63 0 -104 41.5t-41 119.5q0 75 41 116.5t104 41.5t104 -41.5t41 -116.5q0 -78 -41 -119.5t-104 -41.5zM39 552q0 75 40.5 116.5t103.5 41.5t104 -41.5t41 -116.5q0 -78 -41 -119.5t-104 -41.5t-103.5 41.5t-40.5 119.5zM68 186l552 402l53 -73l-552 -402z
M130 552q0 -39 15.5 -57t37.5 -18t37.5 18t15.5 57q0 38 -15.5 55t-37.5 17t-37.5 -17t-15.5 -55zM413 152q0 75 41 116.5t104 41.5t104 -41.5t41 -116.5q0 -78 -41 -119.5t-104 -41.5t-104 41.5t-41 119.5zM505 152q0 -75 53 -75t53 75q0 38 -15.5 55t-37.5 17t-37.5 -17
t-15.5 -55zM849 152q0 -75 53 -75t53 75q0 38 -15.5 55t-37.5 17t-37.5 -17t-15.5 -55z" />
    <glyph glyph-name="guilsinglleft" unicode="&#x2039;" horiz-adv-x="246" 
d="M206 111l-166 136v100l166 139v-116l-87 -71l87 -71v-117z" />
    <glyph glyph-name="guilsinglright" unicode="&#x203a;" horiz-adv-x="243" 
d="M42 111v117l87 71l-87 71v116l166 -139v-100z" />
    <glyph glyph-name="fraction" unicode="&#x2044;" horiz-adv-x="155" 
d="M-173 0l436 700h65l-436 -700h-65z" />
    <glyph glyph-name="Euro" unicode="&#x20ac;" horiz-adv-x="726" 
d="M35 361v65h54q19 135 104 209t217 74q118 0 196 -61t90 -181h-128q-15 64 -57.5 96t-103.5 32q-75 0 -121.5 -45t-61.5 -124h155v-65h-161v-11q0 -24 1 -35h160v-65h-150q38 -146 178 -146q61 0 103.5 32t57.5 97h128q-12 -120 -90 -181.5t-197 -61.5q-125 0 -208 67.5
t-108 192.5h-58v65h50q-1 11 -1 35v11h-49z" />
    <glyph glyph-name="trademark" unicode="&#x2122;" horiz-adv-x="512" 
d="M247 520v180h55l58 -137l57 137h55v-180h-52v94l-38 -94h-45l-38 94v-94h-52zM40 656v44h174v-44h-61v-136h-52v136h-61z" />
    <glyph glyph-name="partialdiff" unicode="&#x2202;" horiz-adv-x="601" 
d="M297 -10q-46 0 -88.5 13.5t-80.5 40.5t-61 75.5t-23 111.5q0 60 20 107t54 73.5t73 40t82 13.5q104 0 169 -78q0 38 -6 71.5t-20.5 69.5t-46 57.5t-76.5 21.5q-47 0 -79.5 -23.5t-38.5 -70.5h-113q-1 77 58 136.5t170 59.5q140 0 206 -98.5t66 -261.5
q0 -184 -73.5 -271.5t-191.5 -87.5zM166 233q0 -67 39 -103t93 -36q53 0 92 36t39 103q0 66 -38.5 100.5t-92.5 34.5t-93 -34.5t-39 -100.5z" />
    <glyph glyph-name="product" unicode="&#x220f;" horiz-adv-x="726" 
d="M45 -190v990h636v-990h-123v874h-390v-874h-123z" />
    <glyph glyph-name="summation" unicode="&#x2211;" horiz-adv-x="687" 
d="M45 -190l275 495l-275 495h597v-116h-392l209 -379l-209 -379h392v-116h-597z" />
    <glyph glyph-name="minus" unicode="&#x2212;" horiz-adv-x="431" 
d="M54 206v96h323v-96h-323z" />
    <glyph glyph-name="radical" unicode="&#x221a;" horiz-adv-x="798" 
d="M342 -190l-177 437h-120v137h206l158 -408l218 824h126l-263 -990h-148z" />
    <glyph glyph-name="infinity" unicode="&#x221e;" horiz-adv-x="825" 
d="M215 88q-73 0 -124.5 48.5t-51.5 125.5t51 124t125 47q98 0 197 -97q99 97 198 97q74 0 125 -47t51 -124t-51.5 -125.5t-124.5 -48.5q-99 0 -198 97q-99 -97 -197 -97zM149 262q0 -32 21.5 -54.5t58.5 -22.5q60 0 119 77q-59 76 -119 76q-37 0 -58.5 -22t-21.5 -54z
M477 262q57 -77 119 -77q36 0 58 23t22 54t-22 53.5t-58 22.5q-62 0 -119 -76z" />
    <glyph glyph-name="integral" unicode="&#x222b;" horiz-adv-x="310" 
d="M19 -80q39 0 54 24.5t15 72.5v502q0 90 44 134.5t153 44.5v-110q-38 0 -53.5 -24t-15.5 -73v-502q0 -95 -46 -137t-151 -42v110z" />
    <glyph glyph-name="approxequal" unicode="&#x2248;" horiz-adv-x="571" 
d="M396 107q-32 0 -63.5 15t-52 32.5t-46.5 32.5t-49 15q-25 0 -39.5 -14t-14.5 -36h-77q-3 56 31.5 92t88.5 36q33 0 64.5 -15t52.5 -32.5t47 -32.5t49 -15q24 0 38.5 14t14.5 36h78q2 -56 -32.5 -92t-89.5 -36zM54 312q-3 56 31.5 92t88.5 36q33 0 64.5 -15t52.5 -32.5
t47 -32.5t49 -15q24 0 38.5 14t14.5 36h78q2 -56 -32.5 -92t-89.5 -36q-32 0 -63.5 15t-52 32.5t-46.5 32.5t-49 15q-25 0 -39.5 -14t-14.5 -36h-77z" />
    <glyph glyph-name="notequal" unicode="&#x2260;" horiz-adv-x="431" 
d="M65 0l60 149h-71v96h109l26 64h-135v96h173l63 156h77l-62 -156h72v-96h-111l-25 -64h136v-96h-175l-59 -149h-78z" />
    <glyph glyph-name="lessequal" unicode="&#x2264;" horiz-adv-x="443" 
d="M393 157l-343 168v101l343 168v-108l-248 -110l248 -111v-108zM50 0v97h343v-97h-343z" />
    <glyph glyph-name="greaterequal" unicode="&#x2265;" horiz-adv-x="444" 
d="M51 157v108l248 111l-248 110v108l343 -168v-101zM51 0v97h343v-97h-343z" />
    <glyph glyph-name="lozenge" unicode="&#x25ca;" horiz-adv-x="579" 
d="M200 0l-155 350l155 350h179l155 -350l-155 -350h-179zM175 350l115 -259l114 259l-114 259z" />
    <glyph glyph-name="uniA78B" unicode="&#xa78b;" horiz-adv-x="238" 
d="M54 240v460h131v-460h-131z" />
    <glyph glyph-name="uniA78C" unicode="&#xa78c;" horiz-adv-x="235" 
d="M54 298v402h128v-402h-128z" />
    <glyph glyph-name="uni004A0301" horiz-adv-x="668" 
d="M333 -10q-130 0 -204.5 70t-74.5 205h132q0 -79 39 -119.5t109 -40.5q71 0 110 42.5t39 127.5v425h131v-436q0 -133 -76 -203.5t-205 -70.5zM485 761l104 137h112l-104 -137h-112z" />
    <glyph glyph-name="G.ss01" horiz-adv-x="705" 
d="M345 -10q-138 0 -222 95.5t-84 264.5q0 170 90 264.5t237 94.5q112 0 189 -55.5t95 -163.5h-134q-34 105 -148 105q-94 0 -144 -64.5t-50 -180.5q0 -113 52 -179t147 -67q75 -2 119.5 39.5t44.5 114.5v14h-152v106h276v-378h-123v85q-63 -95 -193 -95z" />
    <glyph glyph-name="R.ss01" horiz-adv-x="651" 
d="M472 0q-10 19 -10 81v75q0 106 -118 106h-159v-262h-131v700h287q126 0 188.5 -56t62.5 -147q0 -125 -113 -174q63 -20 88 -61t25 -106v-75q0 -60 10 -81h-130zM185 368h151q59 0 90.5 29t31.5 82q0 106 -122 106h-151v-217z" />
    <glyph glyph-name="G.ss05" horiz-adv-x="705" 
d="M345 -10q-138 0 -222 95.5t-84 264.5q0 170 90 264.5t237 94.5q112 0 189 -55.5t95 -163.5h-134q-34 105 -148 105q-94 0 -144 -64.5t-50 -180.5q0 -113 52 -179t147 -67q75 -2 119.5 39.5t44.5 114.5v14h-152v106h276v-378h-123v85q-63 -95 -193 -95z" />
    <glyph glyph-name="i.loclTRK" horiz-adv-x="219" 
d="M45 0v520h128v-520h-128zM39 663q0 30 21.5 50.5t50.5 20.5t50.5 -20.5t21.5 -50.5q0 -29 -21.5 -49.5t-50.5 -20.5t-50.5 20.5t-21.5 49.5z" />
    <glyph glyph-name="uni006A0301" horiz-adv-x="240" 
d="M34 -193q-51 0 -77 3v100h46q35 0 49.5 17.5t14.5 52.5v540h128v-560q0 -153 -161 -153zM71 581l104 137h112l-104 -137h-112z" />
    <glyph glyph-name="a.ss01" horiz-adv-x="601" 
d="M258 -10q-93 0 -161 68.5t-68 201.5t68 201.5t161 68.5q56 0 98.5 -23.5t62.5 -62.5v76h128v-520h-128v76q-20 -39 -62.5 -62.5t-98.5 -23.5zM151 260q0 -79 39.5 -120t96.5 -41q58 0 98 41t40 120t-40 120t-98 41q-57 0 -96.5 -41t-39.5 -120z" />
    <glyph glyph-name="aacute.ss01" horiz-adv-x="601" 
d="M258 -10q-93 0 -161 68.5t-68 201.5t68 201.5t161 68.5q56 0 98.5 -23.5t62.5 -62.5v76h128v-520h-128v76q-20 -39 -62.5 -62.5t-98.5 -23.5zM151 260q0 -79 39.5 -120t96.5 -41q58 0 98 41t40 120t-40 120t-98 41q-57 0 -96.5 -41t-39.5 -120zM245 581l104 137h112
l-104 -137h-112z" />
    <glyph glyph-name="abreve.ss01" horiz-adv-x="601" 
d="M258 -10q-93 0 -161 68.5t-68 201.5t68 201.5t161 68.5q56 0 98.5 -23.5t62.5 -62.5v76h128v-520h-128v76q-20 -39 -62.5 -62.5t-98.5 -23.5zM149 718h85q2 -37 18.5 -54.5t52.5 -17.5t52.5 17.5t18.5 54.5h85q0 -68 -39.5 -107.5t-116.5 -39.5q-76 0 -116 39.5
t-40 107.5zM151 260q0 -79 39.5 -120t96.5 -41q58 0 98 41t40 120t-40 120t-98 41q-57 0 -96.5 -41t-39.5 -120z" />
    <glyph glyph-name="uni01CE.ss01" horiz-adv-x="601" 
d="M258 -10q-93 0 -161 68.5t-68 201.5t68 201.5t161 68.5q56 0 98.5 -23.5t62.5 -62.5v76h128v-520h-128v76q-20 -39 -62.5 -62.5t-98.5 -23.5zM112 717h115l72 -102l72 102h115l-98 -137h-178zM151 260q0 -79 39.5 -120t96.5 -41q58 0 98 41t40 120t-40 120t-98 41
q-57 0 -96.5 -41t-39.5 -120z" />
    <glyph glyph-name="acircumflex.ss01" horiz-adv-x="601" 
d="M258 -10q-93 0 -161 68.5t-68 201.5t68 201.5t161 68.5q56 0 98.5 -23.5t62.5 -62.5v76h128v-520h-128v76q-20 -39 -62.5 -62.5t-98.5 -23.5zM117 581l98 137h178l98 -137h-115l-72 102l-72 -102h-115zM151 260q0 -79 39.5 -120t96.5 -41q58 0 98 41t40 120t-40 120
t-98 41q-57 0 -96.5 -41t-39.5 -120z" />
    <glyph glyph-name="adieresis.ss01" horiz-adv-x="601" 
d="M258 -10q-93 0 -161 68.5t-68 201.5t68 201.5t161 68.5q56 0 98.5 -23.5t62.5 -62.5v76h128v-520h-128v76q-20 -39 -62.5 -62.5t-98.5 -23.5zM119 663q0 30 21.5 50.5t50.5 20.5t50.5 -20.5t21.5 -50.5q0 -29 -21.5 -49.5t-50.5 -20.5t-50.5 20.5t-21.5 49.5zM151 260
q0 -79 39.5 -120t96.5 -41q58 0 98 41t40 120t-40 120t-98 41q-57 0 -96.5 -41t-39.5 -120zM345 663q0 30 21.5 50.5t50.5 20.5t50.5 -20.5t21.5 -50.5q0 -29 -21.5 -49.5t-50.5 -20.5t-50.5 20.5t-21.5 49.5z" />
    <glyph glyph-name="agrave.ss01" horiz-adv-x="601" 
d="M258 -10q-93 0 -161 68.5t-68 201.5t68 201.5t161 68.5q56 0 98.5 -23.5t62.5 -62.5v76h128v-520h-128v76q-20 -39 -62.5 -62.5t-98.5 -23.5zM151 260q0 -79 39.5 -120t96.5 -41q58 0 98 41t40 120t-40 120t-98 41q-57 0 -96.5 -41t-39.5 -120zM159 718h112l104 -137
h-112z" />
    <glyph glyph-name="amacron.ss01" horiz-adv-x="601" 
d="M258 -10q-93 0 -161 68.5t-68 201.5t68 201.5t161 68.5q56 0 98.5 -23.5t62.5 -62.5v76h128v-520h-128v76q-20 -39 -62.5 -62.5t-98.5 -23.5zM146 643v75h319v-75h-319zM151 260q0 -79 39.5 -120t96.5 -41q58 0 98 41t40 120t-40 120t-98 41q-57 0 -96.5 -41t-39.5 -120z
" />
    <glyph glyph-name="aogonek.ss01" horiz-adv-x="601" 
d="M258 -10q-93 0 -161 68.5t-68 201.5t68 201.5t161 68.5q56 0 98.5 -23.5t62.5 -62.5v76h128v-520q-60 0 -92 -22t-32 -54q0 -27 22 -39t53 -3v-72q-18 -9 -47 -6.5t-56.5 11t-47.5 33.5t-20 61q0 44 26 73.5t66 41.5v52q-20 -39 -62.5 -62.5t-98.5 -23.5zM151 260
q0 -79 39.5 -120t96.5 -41q58 0 98 41t40 120t-40 120t-98 41q-57 0 -96.5 -41t-39.5 -120z" />
    <glyph glyph-name="aring.ss01" horiz-adv-x="601" 
d="M258 -10q-93 0 -161 68.5t-68 201.5t68 201.5t161 68.5q56 0 98.5 -23.5t62.5 -62.5v76h128v-520h-128v76q-20 -39 -62.5 -62.5t-98.5 -23.5zM151 260q0 -79 39.5 -120t96.5 -41q58 0 98 41t40 120t-40 120t-98 41q-57 0 -96.5 -41t-39.5 -120zM206 658q0 40 28.5 68
t70.5 28t70.5 -28t28.5 -68q0 -41 -28 -68.5t-71 -27.5q-42 0 -70.5 27.5t-28.5 68.5zM267 658q0 -17 11 -28t27 -11q17 0 28 11t11 28q0 16 -11 27t-28 11q-16 0 -27 -11t-11 -27z" />
    <glyph glyph-name="atilde.ss01" horiz-adv-x="601" 
d="M258 -10q-93 0 -161 68.5t-68 201.5t68 201.5t161 68.5q56 0 98.5 -23.5t62.5 -62.5v76h128v-520h-128v76q-20 -39 -62.5 -62.5t-98.5 -23.5zM136 619q0 52 25 81t71 29q25 0 46.5 -9t33 -20.5t25 -20.5t26.5 -9t24 9t12 24h76q0 -52 -25 -81t-71 -29q-25 0 -46.5 9
t-33 20.5t-25 20.5t-26.5 9t-24 -9t-12 -24h-76zM151 260q0 -79 39.5 -120t96.5 -41q58 0 98 41t40 120t-40 120t-98 41q-57 0 -96.5 -41t-39.5 -120z" />
    <glyph glyph-name="g.ss01" horiz-adv-x="548" 
d="M267 -200q-100 0 -169 40t-69 123q0 52 27 85t68 46q-39 2 -65.5 23.5t-26.5 58.5q0 30 18.5 51t49.5 27q-33 42 -33 102q0 79 54 124.5t142 45.5t141 -45q32 40 101 39v-93q-32 0 -56 -13q9 -26 9 -58q0 -79 -53.5 -124t-141.5 -45q-56 0 -98 18q-31 0 -31 -28
q0 -21 22.5 -28t68.5 -7h41q65 0 117.5 -14t91 -54t38.5 -101q0 -47 -21 -81.5t-57.5 -54t-78 -28.5t-89.5 -9zM151 -28q0 -36 30.5 -59t88.5 -23q59 0 89 22.5t30 59.5t-30 59.5t-89 22.5t-89 -22.5t-30 -59.5zM174 356q0 -32 21.5 -55.5t67.5 -23.5t67.5 23.5t21.5 55.5
q0 33 -21.5 56t-67.5 23t-67.5 -23t-21.5 -56z" />
    <glyph glyph-name="i.ss01" horiz-adv-x="235" 
d="M54 0v520h128v-520h-128zM54 608v101h128v-101h-128z" />
    <glyph glyph-name="l.ss01" horiz-adv-x="260" 
d="M233 -1q-96 -11 -137.5 17t-41.5 114v577h128v-578q0 -37 51 -36v-94z" />
    <glyph glyph-name="a.ss02" horiz-adv-x="601" 
d="M258 -10q-93 0 -161 68.5t-68 201.5t68 201.5t161 68.5q56 0 98.5 -23.5t62.5 -62.5v76h128v-520h-128v76q-20 -39 -62.5 -62.5t-98.5 -23.5zM151 260q0 -79 39.5 -120t96.5 -41q58 0 98 41t40 120t-40 120t-98 41q-57 0 -96.5 -41t-39.5 -120z" />
    <glyph glyph-name="aacute.ss02" horiz-adv-x="601" 
d="M258 -10q-93 0 -161 68.5t-68 201.5t68 201.5t161 68.5q56 0 98.5 -23.5t62.5 -62.5v76h128v-520h-128v76q-20 -39 -62.5 -62.5t-98.5 -23.5zM151 260q0 -79 39.5 -120t96.5 -41q58 0 98 41t40 120t-40 120t-98 41q-57 0 -96.5 -41t-39.5 -120zM245 581l104 137h112
l-104 -137h-112z" />
    <glyph glyph-name="abreve.ss02" horiz-adv-x="601" 
d="M258 -10q-93 0 -161 68.5t-68 201.5t68 201.5t161 68.5q56 0 98.5 -23.5t62.5 -62.5v76h128v-520h-128v76q-20 -39 -62.5 -62.5t-98.5 -23.5zM149 718h85q2 -37 18.5 -54.5t52.5 -17.5t52.5 17.5t18.5 54.5h85q0 -68 -39.5 -107.5t-116.5 -39.5q-76 0 -116 39.5
t-40 107.5zM151 260q0 -79 39.5 -120t96.5 -41q58 0 98 41t40 120t-40 120t-98 41q-57 0 -96.5 -41t-39.5 -120z" />
    <glyph glyph-name="uni01CE.ss02" horiz-adv-x="601" 
d="M258 -10q-93 0 -161 68.5t-68 201.5t68 201.5t161 68.5q56 0 98.5 -23.5t62.5 -62.5v76h128v-520h-128v76q-20 -39 -62.5 -62.5t-98.5 -23.5zM112 717h115l72 -102l72 102h115l-98 -137h-178zM151 260q0 -79 39.5 -120t96.5 -41q58 0 98 41t40 120t-40 120t-98 41
q-57 0 -96.5 -41t-39.5 -120z" />
    <glyph glyph-name="acircumflex.ss02" horiz-adv-x="601" 
d="M258 -10q-93 0 -161 68.5t-68 201.5t68 201.5t161 68.5q56 0 98.5 -23.5t62.5 -62.5v76h128v-520h-128v76q-20 -39 -62.5 -62.5t-98.5 -23.5zM117 581l98 137h178l98 -137h-115l-72 102l-72 -102h-115zM151 260q0 -79 39.5 -120t96.5 -41q58 0 98 41t40 120t-40 120
t-98 41q-57 0 -96.5 -41t-39.5 -120z" />
    <glyph glyph-name="adieresis.ss02" horiz-adv-x="601" 
d="M258 -10q-93 0 -161 68.5t-68 201.5t68 201.5t161 68.5q56 0 98.5 -23.5t62.5 -62.5v76h128v-520h-128v76q-20 -39 -62.5 -62.5t-98.5 -23.5zM119 663q0 30 21.5 50.5t50.5 20.5t50.5 -20.5t21.5 -50.5q0 -29 -21.5 -49.5t-50.5 -20.5t-50.5 20.5t-21.5 49.5zM151 260
q0 -79 39.5 -120t96.5 -41q58 0 98 41t40 120t-40 120t-98 41q-57 0 -96.5 -41t-39.5 -120zM345 663q0 30 21.5 50.5t50.5 20.5t50.5 -20.5t21.5 -50.5q0 -29 -21.5 -49.5t-50.5 -20.5t-50.5 20.5t-21.5 49.5z" />
    <glyph glyph-name="agrave.ss02" horiz-adv-x="601" 
d="M258 -10q-93 0 -161 68.5t-68 201.5t68 201.5t161 68.5q56 0 98.5 -23.5t62.5 -62.5v76h128v-520h-128v76q-20 -39 -62.5 -62.5t-98.5 -23.5zM151 260q0 -79 39.5 -120t96.5 -41q58 0 98 41t40 120t-40 120t-98 41q-57 0 -96.5 -41t-39.5 -120zM159 718h112l104 -137
h-112z" />
    <glyph glyph-name="amacron.ss02" horiz-adv-x="601" 
d="M258 -10q-93 0 -161 68.5t-68 201.5t68 201.5t161 68.5q56 0 98.5 -23.5t62.5 -62.5v76h128v-520h-128v76q-20 -39 -62.5 -62.5t-98.5 -23.5zM146 643v75h319v-75h-319zM151 260q0 -79 39.5 -120t96.5 -41q58 0 98 41t40 120t-40 120t-98 41q-57 0 -96.5 -41t-39.5 -120z
" />
    <glyph glyph-name="aogonek.ss02" horiz-adv-x="601" 
d="M258 -10q-93 0 -161 68.5t-68 201.5t68 201.5t161 68.5q56 0 98.5 -23.5t62.5 -62.5v76h128v-520q-60 0 -92 -22t-32 -54q0 -27 22 -39t53 -3v-72q-18 -9 -47 -6.5t-56.5 11t-47.5 33.5t-20 61q0 44 26 73.5t66 41.5v52q-20 -39 -62.5 -62.5t-98.5 -23.5zM151 260
q0 -79 39.5 -120t96.5 -41q58 0 98 41t40 120t-40 120t-98 41q-57 0 -96.5 -41t-39.5 -120z" />
    <glyph glyph-name="aring.ss02" horiz-adv-x="601" 
d="M258 -10q-93 0 -161 68.5t-68 201.5t68 201.5t161 68.5q56 0 98.5 -23.5t62.5 -62.5v76h128v-520h-128v76q-20 -39 -62.5 -62.5t-98.5 -23.5zM151 260q0 -79 39.5 -120t96.5 -41q58 0 98 41t40 120t-40 120t-98 41q-57 0 -96.5 -41t-39.5 -120zM206 658q0 40 28.5 68
t70.5 28t70.5 -28t28.5 -68q0 -41 -28 -68.5t-71 -27.5q-42 0 -70.5 27.5t-28.5 68.5zM267 658q0 -17 11 -28t27 -11q17 0 28 11t11 28q0 16 -11 27t-28 11q-16 0 -27 -11t-11 -27z" />
    <glyph glyph-name="atilde.ss02" horiz-adv-x="601" 
d="M258 -10q-93 0 -161 68.5t-68 201.5t68 201.5t161 68.5q56 0 98.5 -23.5t62.5 -62.5v76h128v-520h-128v76q-20 -39 -62.5 -62.5t-98.5 -23.5zM136 619q0 52 25 81t71 29q25 0 46.5 -9t33 -20.5t25 -20.5t26.5 -9t24 9t12 24h76q0 -52 -25 -81t-71 -29q-25 0 -46.5 9
t-33 20.5t-25 20.5t-26.5 9t-24 -9t-12 -24h-76zM151 260q0 -79 39.5 -120t96.5 -41q58 0 98 41t40 120t-40 120t-98 41q-57 0 -96.5 -41t-39.5 -120z" />
    <glyph glyph-name="a.ss03" horiz-adv-x="548" 
d="M196 -10q-71 0 -119 35.5t-48 107.5t48 104t130 43l102 14q35 4 47 14.5t12 33.5v11q0 46 -23.5 64t-68.5 18q-96 0 -96 -74v-8h-121v20q0 157 222 157q113 0 164 -41.5t51 -129.5v-238q0 -23 7.5 -30t25.5 -8v-76q-14 -13 -53 -13q-44 0 -73 20t-29 63v15h-5
q-8 -32 -52 -67t-121 -35zM155 149q0 -29 21 -47t65 -18q60 0 93.5 31t33.5 64v65q-7 -12 -56 -20l-74 -10q-83 -14 -83 -65z" />
    <glyph glyph-name="g.ss03" horiz-adv-x="548" 
d="M267 -200q-100 0 -169 40t-69 123q0 52 27 85t68 46q-39 2 -65.5 23.5t-26.5 58.5q0 30 18.5 51t49.5 27q-33 42 -33 102q0 79 54 124.5t142 45.5t141 -45q32 40 101 39v-93q-32 0 -56 -13q9 -26 9 -58q0 -79 -53.5 -124t-141.5 -45q-56 0 -98 18q-31 0 -31 -28
q0 -21 22.5 -28t68.5 -7h41q65 0 117.5 -14t91 -54t38.5 -101q0 -47 -21 -81.5t-57.5 -54t-78 -28.5t-89.5 -9zM151 -28q0 -36 30.5 -59t88.5 -23q59 0 89 22.5t30 59.5t-30 59.5t-89 22.5t-89 -22.5t-30 -59.5zM174 356q0 -32 21.5 -55.5t67.5 -23.5t67.5 23.5t21.5 55.5
q0 33 -21.5 56t-67.5 23t-67.5 -23t-21.5 -56z" />
    <glyph glyph-name="l.ss04" horiz-adv-x="260" 
d="M233 -1q-96 -11 -137.5 17t-41.5 114v577h128v-578q0 -37 51 -36v-94z" />
    <glyph glyph-name="f_t" horiz-adv-x="704" 
d="M19 421v99h73v44q0 152 161 152h72v-98h-41q-34 0 -49 -17t-15 -52v-29h225v133h128v-133h102v-100h-102v-254q0 -36 14.5 -53t53.5 -17q21 0 40 2v-96q-33 -9 -74 -9q-162 0 -162 153v274h-87v1h-138v-421h-128v421h-73z" />
    <glyph glyph-name="r_t" horiz-adv-x="669" 
d="M572 -7q-162 0 -162 153v274h-41q-83 0 -135 -43t-52 -135v-242h-128v520h128v-145h3q15 67 62.5 106t126.5 39h36v133h128v-133h102v-100h-102v-254q0 -36 14.5 -53t53.5 -17q21 0 40 2v-96q-33 -9 -74 -9z" />
    <glyph glyph-name="zero.dnom" horiz-adv-x="285" 
d="M143 -2q-49 0 -78.5 35t-29.5 91v13q0 56 29.5 91t78.5 35q48 0 77.5 -35t29.5 -91v-13q0 -56 -29.5 -91t-77.5 -35zM86 124q0 -35 15.5 -56.5t41.5 -21.5q25 0 40.5 21.5t15.5 56.5v13q0 35 -15.5 56.5t-40.5 21.5q-26 0 -41.5 -21.5t-15.5 -56.5v-13z" />
    <glyph glyph-name="one.dnom" horiz-adv-x="189" 
d="M96 196q-15 -26 -56 -19v48q18 -2 34 9.5t22 26.5h48v-261h-48v196z" />
    <glyph glyph-name="two.dnom" horiz-adv-x="262" 
d="M40 8q0 41 14.5 69t57.5 54q3 2 10 5.5t9.5 5l7.5 4.5t7.5 5t6 5t5 6t3.5 6.5t2.5 7.5t0.5 9q0 16 -11 25t-25 9q-16 0 -26.5 -10t-10.5 -29v-8h-51v8q0 38 22.5 61.5t65.5 23.5t66 -22.5t23 -57.5q0 -17 -5 -30t-20.5 -26t-23 -18t-32.5 -20q-39 -22 -39 -43v-3h120v-45
h-177v8z" />
    <glyph glyph-name="three.dnom" horiz-adv-x="274" 
d="M136 -4q-47 0 -71.5 23t-24.5 62h48q2 -44 49 -44t47 41q0 40 -53 40h-11v37h11q23 0 32.5 11t9.5 25q0 15 -9.5 24t-27.5 9t-29.5 -10.5t-11.5 -30.5h-46q0 39 24 60.5t64 21.5t62.5 -19.5t22.5 -49.5q0 -22 -13 -37t-31 -20q21 -2 38.5 -18t17.5 -46q0 -35 -26.5 -57
t-71.5 -22z" />
    <glyph glyph-name="four.dnom" horiz-adv-x="276" 
d="M157 0v66h-117v39l117 156h49v-156h30v-39h-30v-66h-49zM83 105h74v99z" />
    <glyph glyph-name="five.dnom" horiz-adv-x="254" 
d="M124 -5q-44 0 -69 24t-25 61h48q1 -19 15 -30.5t33 -11.5t34.5 13t15.5 39q0 25 -15.5 37t-34.5 12q-27 0 -43 -19h-47l21 141h141v-45h-105l-9 -55q18 18 52 18q38 0 63 -24.5t25 -66.5q0 -44 -27 -68.5t-73 -24.5z" />
    <glyph glyph-name="six.dnom" horiz-adv-x="282" 
d="M143 -5q-46 0 -74.5 34t-28.5 99q0 61 26.5 98.5t78.5 37.5q40 0 63.5 -22t23.5 -49h-45q-6 28 -42 28q-32 0 -44.5 -24.5t-11.5 -55.5q6 12 25 22t40 10q41 0 64.5 -21t23.5 -63q0 -47 -29 -70.5t-70 -23.5zM94 90q0 -24 14.5 -36.5t34.5 -12.5t33 13t13 36q0 22 -13 34
t-34 12q-19 0 -33.5 -12t-14.5 -34z" />
    <glyph glyph-name="seven.dnom" horiz-adv-x="230" 
d="M46 0l107 216h-133v45h180v-45l-103 -216h-51z" />
    <glyph glyph-name="eight.dnom" horiz-adv-x="240" 
d="M120 -2q-42 0 -68.5 20.5t-26.5 57.5q0 45 44 67q-29 18 -29 52q0 29 21 48.5t59 19.5q37 0 59 -20t22 -48q0 -34 -30 -52q44 -21 44 -67q0 -37 -26.5 -57.5t-68.5 -20.5zM71 78q0 -19 13.5 -30.5t35.5 -11.5t35.5 11.5t13.5 30.5t-13.5 31t-35.5 12t-35.5 -12t-13.5 -31
zM84 194q0 -14 10 -23.5t26 -9.5q17 0 27 9t10 24q0 32 -37 32q-36 0 -36 -32z" />
    <glyph glyph-name="nine.dnom" horiz-adv-x="282" 
d="M137 -5q-40 0 -63.5 22t-24.5 49h46q2 -11 12.5 -19.5t29.5 -8.5q56 0 56 80q-6 -12 -25 -22t-40 -10q-41 0 -64.5 21t-23.5 63q0 47 29 70.5t69 23.5q46 0 75 -34t29 -99q0 -60 -26.5 -98t-78.5 -38zM92 169q0 -22 13.5 -34t34.5 -12q19 0 33.5 12t14.5 34
q0 24 -14.5 36.5t-34.5 12.5t-33.5 -13t-13.5 -36z" />
    <glyph glyph-name="zero.numr" horiz-adv-x="285" 
d="M143 438q-49 0 -78.5 35t-29.5 91v13q0 56 29.5 91t78.5 35q48 0 77.5 -35t29.5 -91v-13q0 -56 -29.5 -91t-77.5 -35zM86 564q0 -35 15.5 -56.5t41.5 -21.5q25 0 40.5 21.5t15.5 56.5v13q0 35 -15.5 56.5t-40.5 21.5q-26 0 -41.5 -21.5t-15.5 -56.5v-13z" />
    <glyph glyph-name="one.numr" horiz-adv-x="189" 
d="M96 635q-15 -26 -56 -19v48q18 -2 34 9.5t22 26.5h48v-261h-48v196z" />
    <glyph glyph-name="two.numr" horiz-adv-x="262" 
d="M40 448q0 41 14.5 69t57.5 54q3 2 10 5.5t9.5 5l7.5 4.5t7.5 5t6 5t5 6t3.5 6.5t2.5 7.5t0.5 9q0 16 -11 25t-25 9q-16 0 -26.5 -10t-10.5 -29v-8h-51v8q0 38 22.5 61.5t65.5 23.5t66 -22.5t23 -57.5q0 -17 -5 -30t-20.5 -26t-23 -18t-32.5 -20q-39 -22 -39 -43v-3h120
v-45h-177v8z" />
    <glyph glyph-name="three.numr" horiz-adv-x="274" 
d="M136 436q-47 0 -71.5 23t-24.5 62h48q2 -44 49 -44t47 41q0 40 -53 40h-11v37h11q23 0 32.5 11t9.5 25q0 15 -9.5 24t-27.5 9t-29.5 -10.5t-11.5 -30.5h-46q0 39 24 60.5t64 21.5t62.5 -19.5t22.5 -49.5q0 -22 -13 -37t-31 -20q21 -2 38.5 -18t17.5 -46q0 -35 -26.5 -57
t-71.5 -22z" />
    <glyph glyph-name="four.numr" horiz-adv-x="276" 
d="M157 440v66h-117v39l117 156h49v-156h30v-39h-30v-66h-49zM83 545h74v99z" />
    <glyph glyph-name="five.numr" horiz-adv-x="254" 
d="M124 435q-44 0 -69 24t-25 61h48q1 -19 15 -30.5t33 -11.5t34.5 13t15.5 39q0 25 -15.5 37t-34.5 12q-27 0 -43 -19h-47l21 141h141v-45h-105l-9 -55q18 18 52 18q38 0 63 -24.5t25 -66.5q0 -44 -27 -68.5t-73 -24.5z" />
    <glyph glyph-name="six.numr" horiz-adv-x="282" 
d="M143 434q-46 0 -74.5 34t-28.5 99q0 61 26.5 98.5t78.5 37.5q40 0 63.5 -22t23.5 -49h-45q-6 28 -42 28q-32 0 -44.5 -24.5t-11.5 -55.5q6 12 25 22t40 10q41 0 64.5 -21t23.5 -63q0 -47 -29 -70.5t-70 -23.5zM94 529q0 -24 14.5 -36.5t34.5 -12.5t33 13t13 36
q0 22 -13 34t-34 12q-19 0 -33.5 -12t-14.5 -34z" />
    <glyph glyph-name="seven.numr" horiz-adv-x="230" 
d="M46 440l107 216h-133v45h180v-45l-103 -216h-51z" />
    <glyph glyph-name="eight.numr" horiz-adv-x="240" 
d="M120 438q-42 0 -68.5 20.5t-26.5 57.5q0 45 44 67q-29 18 -29 52q0 29 21 48.5t59 19.5q37 0 59 -20t22 -48q0 -34 -30 -52q44 -21 44 -67q0 -37 -26.5 -57.5t-68.5 -20.5zM71 518q0 -19 13.5 -30.5t35.5 -11.5t35.5 11.5t13.5 30.5t-13.5 31t-35.5 12t-35.5 -12
t-13.5 -31zM84 634q0 -14 10 -23.5t26 -9.5q17 0 27 9t10 24q0 32 -37 32q-36 0 -36 -32z" />
    <glyph glyph-name="nine.numr" horiz-adv-x="282" 
d="M137 435q-40 0 -63.5 22t-24.5 49h46q2 -11 12.5 -19.5t29.5 -8.5q56 0 56 80q-6 -12 -25 -22t-40 -10q-41 0 -64.5 21t-23.5 63q0 47 29 70.5t69 23.5q46 0 75 -34t29 -99q0 -60 -26.5 -98t-78.5 -38zM92 609q0 -22 13.5 -34t34.5 -12q19 0 33.5 12t14.5 34
q0 24 -14.5 36.5t-34.5 12.5t-33.5 -13t-13.5 -36z" />
    <glyph glyph-name="period.ss01" horiz-adv-x="241" 
d="M50 0v148h141v-148h-141z" />
    <glyph glyph-name="uni03060301" horiz-adv-x="0" 
d="M161 571q-76 0 -116 39.5t-40 107.5h85q2 -37 18.5 -54.5t52.5 -17.5t52.5 17.5t18.5 54.5h85q0 -68 -39.5 -107.5t-116.5 -39.5zM95 749l104 137h112l-104 -137h-112z" />
    <glyph glyph-name="uni03060300" horiz-adv-x="0" 
d="M161 571q-76 0 -116 39.5t-40 107.5h85q2 -37 18.5 -54.5t52.5 -17.5t52.5 17.5t18.5 54.5h85q0 -68 -39.5 -107.5t-116.5 -39.5zM5 886h112l104 -137h-112z" />
    <glyph glyph-name="uni03060309" horiz-adv-x="0" 
d="M161 571q-76 0 -116 39.5t-40 107.5h85q2 -37 18.5 -54.5t52.5 -17.5t52.5 17.5t18.5 54.5h85q0 -68 -39.5 -107.5t-116.5 -39.5zM26 798q0 51 30 75.5t71 24.5q44 0 74.5 -26t30.5 -74q0 -42 -25 -67.5t-63 -30.5l-32 53q48 1 48 40q0 17 -9.5 27t-24.5 10
q-31 0 -34 -32h-66z" />
    <glyph glyph-name="uni03060303" horiz-adv-x="0" 
d="M161 571q-76 0 -116 39.5t-40 107.5h85q2 -37 18.5 -54.5t52.5 -17.5t52.5 17.5t18.5 54.5h85q0 -68 -39.5 -107.5t-116.5 -39.5zM-9 787q0 52 25.5 81t71.5 29q25 0 46.5 -9t33 -20.5t25 -20.5t26.5 -9t24 9t12 24h76q0 -52 -25 -81t-71 -29q-25 0 -46.5 9t-33 20.5
t-25 20.5t-26.5 9t-24 -9t-12 -24h-77z" />
    <glyph glyph-name="uni03020301" horiz-adv-x="0" 
d="M0 581l98 137h178l98 -137h-115l-72 102l-72 -102h-115zM330 680l104 137h112l-104 -137h-112z" />
    <glyph glyph-name="uni03020300" horiz-adv-x="0" 
d="M358 680l-92 137h112l91 -137h-111zM0 581l98 137h178l98 -137h-115l-72 102l-72 -102h-115z" />
    <glyph glyph-name="uni03020309" horiz-adv-x="0" 
d="M0 581l98 137h178l98 -137h-115l-72 102l-72 -102h-115zM236 800q0 51 30 75.5t71 24.5q44 0 74.5 -26t30.5 -74q0 -42 -25 -67.5t-63 -30.5l-32 53q48 1 48 40q0 17 -9.5 27t-24.5 10q-31 0 -34 -32h-66z" />
    <glyph glyph-name="uni03020303" horiz-adv-x="0" 
d="M0 581l98 137h178l98 -137h-115l-72 102l-72 -102h-115zM17 782q0 52 25 81t71 29q32 0 56.5 -15t42 -29.5t32.5 -14.5q13 0 24 9t12 24h76q0 -52 -25 -81t-71 -29q-32 0 -56.5 15t-42 29.5t-32.5 14.5q-13 0 -24 -9t-12 -24h-76z" />
    </font>
</defs>
</svg>
