<?xml version="1.0" standalone="no"?>
<!DOCTYPE svg PUBLIC "-//W3C//DTD SVG 1.1//EN" "http://www.w3.org/Graphics/SVG/1.1/DTD/svg11.dtd" >
<svg xmlns="http://www.w3.org/2000/svg" xmlns:xlink="http://www.w3.org/1999/xlink" version="1.1">
<metadata>
Created by FontForge 20190801 at Wed Mar 30 20:57:51 2022
 By www-data
Copyright (c) 2022 by Connary Fagen. All rights reserved.
</metadata>
<defs>
<font id="articulatecfbold" horiz-adv-x="601" >
  <font-face 
    font-family="articulatecfbold"
    font-weight="700"
    font-stretch="normal"
    units-per-em="1000"
    panose-1="0 0 0 0 0 0 0 0 0 0"
    ascent="800"
    descent="-200"
    x-height="520"
    cap-height="700"
    bbox="-176 -336 1063 1088"
    underline-thickness="50"
    underline-position="-125"
    unicode-range="U+0020-A78C"
  />
<missing-glyph horiz-adv-x="714" 
d="M52 0v700h610v-700h-610zM104 52h506v596h-506v-596zM141 90l188 263l-185 257h58l154 -218l154 218h58l-185 -257l188 -263h-58l-157 225l-157 -225h-58z" />
    <glyph glyph-name=".notdef" horiz-adv-x="714" 
d="M52 0v700h610v-700h-610zM104 52h506v596h-506v-596zM141 90l188 263l-185 257h58l154 -218l154 218h58l-185 -257l188 -263h-58l-157 225l-157 -225h-58z" />
    <glyph glyph-name=".null" horiz-adv-x="0" 
 />
    <glyph glyph-name="nonmarkingreturn" horiz-adv-x="333" 
 />
    <glyph glyph-name="space" unicode=" " horiz-adv-x="230" 
 />
    <glyph glyph-name="exclam" unicode="!" horiz-adv-x="281" 
d="M85 243l-19 457h148l-18 -457h-111zM52 77q0 36 26 61.5t62 25.5q37 0 63 -25.5t26 -61.5q0 -37 -26 -62t-63 -25q-36 0 -62 25.5t-26 61.5z" />
    <glyph glyph-name="quotedbl" unicode="&#x22;" horiz-adv-x="456" 
d="M276 406v294h140v-294h-140zM40 406v294h140v-294h-140z" />
    <glyph glyph-name="numbersign" unicode="#" horiz-adv-x="598" 
d="M329 0l17 171h-130l-17 -171h-88l17 171h-86v90h95l18 178h-86v90h95l17 171h88l-17 -171h130l17 171h88l-17 -171h86v-90h-95l-18 -178h86v-90h-95l-17 -171h-88zM225 261h130l18 178h-130z" />
    <glyph glyph-name="dollar" unicode="$" horiz-adv-x="629" 
d="M288 -8q-118 6 -184.5 67.5t-66.5 169.5h150q5 -101 101 -113v184l-35 8q-196 41 -196 196q0 93 62 145.5t169 57.5v83h60v-83q106 -6 166.5 -61t60.5 -153h-149q1 38 -21 60.5t-57 28.5v-167l25 -5q117 -27 168 -75.5t51 -128.5q0 -102 -67 -155.5t-177 -58.5v-82h-60
v82zM207 506q0 -59 81 -80v157q-41 -4 -61 -25.5t-20 -51.5zM348 116q92 10 92 87q0 36 -23 56t-69 31v-174z" />
    <glyph glyph-name="percent" unicode="%" horiz-adv-x="747" 
d="M127 109l-60 83l552 401l60 -82zM37 551q0 76 42 118t106 42t106 -42t42 -118q0 -80 -41.5 -121.5t-106.5 -41.5t-106.5 42t-41.5 121zM140 551q0 -36 13.5 -51.5t31.5 -15.5q45 0 45 67q0 35 -13.5 49.5t-31.5 14.5t-31.5 -15t-13.5 -49zM414 154q0 77 42 119t106 42
t106 -42.5t42 -118.5q0 -80 -42 -121.5t-106 -41.5t-106 41.5t-42 121.5zM517 154q0 -66 45 -66q18 0 31.5 15t13.5 51q0 34 -13.5 49t-31.5 15t-31.5 -14.5t-13.5 -49.5z" />
    <glyph glyph-name="ampersand" unicode="&#x26;" horiz-adv-x="724" 
d="M298 -10q-114 0 -187.5 58t-73.5 151q0 69 37.5 114.5t102.5 82.5q-66 83 -66 151q0 67 50 114.5t146 47.5q94 0 143 -46.5t49 -116.5q0 -115 -132 -180l119 -130q27 60 27 137h129q0 -143 -63 -238l123 -135h-162l-45 49q-87 -59 -197 -59zM189 212q0 -43 34 -73t89 -30
q52 0 98 31l-158 172q-63 -40 -63 -100zM238 548q0 -33 52 -95q81 44 81 93q0 28 -19 45t-48 17q-30 0 -48 -17t-18 -43z" />
    <glyph glyph-name="quotesingle" unicode="'" horiz-adv-x="220" 
d="M40 406v294h140v-294h-140z" />
    <glyph glyph-name="parenleft" unicode="(" horiz-adv-x="337" 
d="M151 -130q-106 189 -106 450q0 248 106 425h141q-101 -183 -101 -425q0 -256 101 -450h-141z" />
    <glyph glyph-name="parenright" unicode=")" horiz-adv-x="337" 
d="M45 -130q101 194 101 450q0 242 -101 425h141q106 -177 106 -425q0 -261 -106 -450h-141z" />
    <glyph glyph-name="asterisk" unicode="*" horiz-adv-x="532" 
d="M188 302l-84 56l82 113l-129 33l25 97l135 -37l-3 136h104l-3 -136l135 37l25 -97l-131 -33l82 -113l-84 -56l-76 113z" />
    <glyph glyph-name="plus" unicode="+" horiz-adv-x="605" 
d="M235 36v183h-183v126h183v182h134v-182h184v-126h-184v-183h-134z" />
    <glyph glyph-name="comma" unicode="," horiz-adv-x="260" 
d="M63 -70q42 1 60 16t18 47q-49 1 -76.5 26t-27.5 62t24.5 60t62.5 23q44 0 71.5 -32.5t27.5 -96.5q0 -77 -40.5 -120.5t-108.5 -43.5h-11v59z" />
    <glyph glyph-name="hyphen" unicode="-" horiz-adv-x="388" 
d="M40 221v110h308v-110h-308z" />
    <glyph glyph-name="period" unicode="." horiz-adv-x="251" 
d="M125 -10q-36 0 -62 25.5t-26 61.5t26 61.5t62 25.5q37 0 63 -25.5t26 -61.5q0 -37 -26 -62t-63 -25z" />
    <glyph glyph-name="slash" unicode="/" horiz-adv-x="479" 
d="M30 0l273 700h146l-272 -700h-147z" />
    <glyph glyph-name="zero" unicode="0" horiz-adv-x="636" 
d="M318 -10q-54 0 -102 19.5t-89 60t-65.5 112.5t-24.5 168q0 95 24.5 167t65.5 112.5t89 60t102 19.5t102.5 -19.5t89.5 -60t65 -112.5t24 -167q0 -96 -24 -168t-65 -112.5t-89 -60t-103 -19.5zM176 350q0 -67 12.5 -117.5t45.5 -85.5t84 -35t84 35t45.5 85.5t12.5 117.5
q0 66 -12.5 116.5t-45.5 85.5t-84 35t-84 -35t-45.5 -85.5t-12.5 -116.5z" />
    <glyph glyph-name="one" unicode="1" horiz-adv-x="407" 
d="M189 522q-49 -52 -152 -52v120q121 14 152 110h146v-700h-146v522z" />
    <glyph glyph-name="two" unicode="2" horiz-adv-x="579" 
d="M40 33q0 101 39 170t145 131q10 6 37.5 21.5t37 21t29 18.5t27 21.5t18 21.5t14 27t3.5 30q1 48 -28 69t-70 21q-44 0 -72.5 -26.5t-28.5 -81.5v-14h-141v20q0 100 60.5 163t183.5 63q116 0 179 -56t63 -149q0 -28 -7 -54t-15.5 -44.5t-27 -39t-30 -31t-37.5 -27.5
t-36 -22.5t-38 -21.5q-76 -44 -107 -75.5t-31 -64.5v-3h327v-121h-494v33z" />
    <glyph glyph-name="three" unicode="3" horiz-adv-x="597" 
d="M291 -10q-131 0 -195.5 66.5t-63.5 181.5h138q1 -65 36.5 -95t89.5 -30q50 0 85.5 25t35.5 74q0 44 -32 71t-100 27h-41v105h35q115 0 115 85q0 42 -27.5 63t-69.5 21q-44 0 -74.5 -26.5t-31.5 -85.5h-136q0 112 63 174.5t182 62.5q108 0 172 -50t64 -134
q0 -64 -34.5 -103t-79.5 -50q49 -5 96 -47t47 -122q0 -94 -74.5 -153.5t-199.5 -59.5z" />
    <glyph glyph-name="four" unicode="4" horiz-adv-x="593" 
d="M335 0v164h-303v117l303 419h146v-419h80v-117h-80v-164h-146zM159 281h176v243z" />
    <glyph glyph-name="five" unicode="5" horiz-adv-x="595" 
d="M301 -10q-123 0 -192 64.5t-67 169.5h132q2 -58 39.5 -87t83.5 -29q49 0 87.5 31t38.5 102q0 72 -38 101.5t-86 29.5q-37 0 -68 -17t-44 -46h-135l59 391h391v-116h-291l-23 -155q4 6 17 17t50 24.5t82 13.5q101 0 166 -66t65 -177q0 -119 -72.5 -185t-194.5 -66z" />
    <glyph glyph-name="six" unicode="6" horiz-adv-x="608" 
d="M312 -10q-118 0 -194 87t-76 274q0 164 68.5 261t209.5 97q115 0 175.5 -62t58.5 -140h-128q-13 86 -109 86q-43 0 -72.5 -20.5t-43 -53.5t-18.5 -63t-5 -61q70 70 162 70q41 0 79.5 -12.5t73.5 -38.5t56.5 -73.5t21.5 -109.5q0 -67 -24.5 -116t-65 -75t-83 -38
t-86.5 -12zM192 232q0 -62 36.5 -93t83.5 -31t83.5 31t36.5 93t-37 92t-84 30q-46 0 -82.5 -30t-36.5 -92z" />
    <glyph glyph-name="seven" unicode="7" horiz-adv-x="512" 
d="M112 0q21 271 227 580h-309v120h447v-120q-208 -311 -228 -580h-137z" />
    <glyph glyph-name="eight" unicode="8" horiz-adv-x="576" 
d="M288 -10q-112 0 -184 56t-72 155q0 131 123 183q-86 47 -86 146q0 78 58.5 128.5t160.5 50.5t160.5 -50.5t58.5 -128.5q0 -99 -86 -146q123 -52 123 -183q0 -99 -72 -155t-184 -56zM171 218q0 -45 30.5 -75.5t86.5 -30.5t86.5 30.5t30.5 75.5q0 44 -31 75t-86 31t-86 -31
t-31 -75zM197 517q0 -35 23.5 -59t67.5 -24t67.5 24t23.5 59q0 36 -24 58t-67 22t-67 -22t-24 -58z" />
    <glyph glyph-name="nine" unicode="9" horiz-adv-x="608" 
d="M296 708q118 0 194 -87t76 -274q0 -164 -68.5 -261t-209.5 -97q-115 0 -175.5 62t-58.5 140h128q13 -86 109 -86q43 0 72.5 20.5t43 53.5t18.5 63t5 61q-70 -70 -162 -70q-41 0 -79.5 12.5t-73.5 38.5t-56.5 73.5t-21.5 109.5q0 67 24.5 116t65 75t83 38t86.5 12z
M176 466q0 -62 37 -92t84 -30q46 0 82.5 30t36.5 92t-36.5 93t-83.5 31t-83.5 -31t-36.5 -93z" />
    <glyph glyph-name="colon" unicode=":" horiz-adv-x="251" 
d="M125 -10q-36 0 -62 25.5t-26 61.5t26 61.5t62 25.5q37 0 63 -25.5t26 -61.5q0 -37 -26 -62t-63 -25zM37 433q0 36 26 61.5t62 25.5q37 0 63 -25.5t26 -61.5q0 -37 -26 -62t-63 -25q-36 0 -62 25.5t-26 61.5z" />
    <glyph glyph-name="semicolon" unicode=";" horiz-adv-x="260" 
d="M125 346q-36 0 -62 25.5t-26 61.5t26 61.5t62 25.5q37 0 63 -25.5t26 -61.5q0 -37 -26 -62t-63 -25zM37 81q0 37 24.5 60t62.5 23q44 0 71.5 -32.5t27.5 -96.5q0 -77 -40.5 -120.5t-108.5 -43.5h-11v59q42 1 60 16t18 47q-49 1 -76.5 26t-27.5 62z" />
    <glyph glyph-name="less" unicode="&#x3c;" horiz-adv-x="507" 
d="M462 0l-417 179v125l417 179v-136l-284 -105l284 -107v-135z" />
    <glyph glyph-name="equal" unicode="=" horiz-adv-x="437" 
d="M52 141v110h334v-110h-334zM52 301v110h334v-110h-334z" />
    <glyph glyph-name="greater" unicode="&#x3e;" horiz-adv-x="507" 
d="M45 0v135l284 107l-284 105v136l417 -179v-125z" />
    <glyph glyph-name="question" unicode="?" horiz-adv-x="566" 
d="M221 254q0 47 16 82t38.5 55t45 36.5t38.5 35.5t16 42q0 31 -20 54t-65 23q-99 0 -99 -117h-146q-2 124 67 183t178 59q103 0 167 -53t64 -149q0 -41 -15 -70.5t-36 -47t-42 -33.5t-36 -41t-15 -59v-26h-156v26zM207 77q0 36 26 61.5t62 25.5q37 0 63 -25.5t26 -61.5
q0 -37 -26 -62t-63 -25q-36 0 -62 25.5t-26 61.5z" />
    <glyph glyph-name="at" unicode="@" horiz-adv-x="787" 
d="M404 -10q-156 0 -261.5 96.5t-105.5 262.5q0 165 105 262.5t259 97.5q152 0 250.5 -92.5t98.5 -242.5q0 -98 -41.5 -146.5t-104.5 -48.5q-48 0 -77 24.5t-36 54.5q-5 -29 -37.5 -55t-78.5 -26q-59 0 -103.5 43.5t-44.5 122.5q0 80 43 125t103 45q51 0 79.5 -30t30.5 -71
l11 91h65v-167q0 -86 46 -86q32 0 47.5 35.5t15.5 87.5q0 116 -72 186.5t-196 70.5q-123 0 -202 -75t-79 -205q0 -131 81 -206t212 -75q65 0 111 16v-78q-58 -17 -119 -17zM310 344q0 -35 18.5 -63t57.5 -28t58.5 27.5t19.5 63.5t-19.5 64.5t-58.5 28.5t-57.5 -29t-18.5 -64
z" />
    <glyph glyph-name="A" unicode="A" horiz-adv-x="733" 
d="M17 0l253 700h193l253 -700h-157l-45 131h-295l-45 -131h-157zM257 242h219l-105 305h-9z" />
    <glyph glyph-name="B" unicode="B" horiz-adv-x="638" 
d="M52 0v700h284q114 0 170.5 -46.5t56.5 -128.5q0 -108 -101 -140q149 -40 149 -180q0 -91 -65.5 -148t-197.5 -57h-296zM202 126h141q59 0 86 27t27 69q0 44 -27 71.5t-86 27.5h-141v-195zM202 416h128q36 0 59.5 20t23.5 61q0 77 -83 77h-128v-158z" />
    <glyph glyph-name="C" unicode="C" horiz-adv-x="688" 
d="M366 -10q-152 0 -240.5 95.5t-88.5 264.5q0 168 89 263.5t242 95.5q121 0 200.5 -63.5t89.5 -188.5h-146q-28 123 -149 123q-87 0 -130 -63.5t-43 -166.5q0 -104 42.5 -167.5t130.5 -63.5q121 0 149 124h146q-10 -126 -89.5 -189.5t-202.5 -63.5z" />
    <glyph glyph-name="D" unicode="D" horiz-adv-x="685" 
d="M52 0v700h265q163 0 247 -90t84 -260t-84 -260t-247 -90h-265zM202 130h100q106 0 149.5 51.5t43.5 168.5t-43.5 168.5t-149.5 51.5h-100v-440z" />
    <glyph glyph-name="E" unicode="E" horiz-adv-x="567" 
d="M52 0v700h478v-130h-328v-157h298v-117h-298v-166h338v-130h-488z" />
    <glyph glyph-name="F" unicode="F" horiz-adv-x="545" 
d="M52 0v700h463v-130h-313v-164h259v-121h-259v-285h-150z" />
    <glyph glyph-name="G" unicode="G" horiz-adv-x="712" 
d="M364 -10q-157 0 -242 94.5t-85 262.5q0 171 87.5 266.5t236.5 95.5q117 0 199 -58.5t97 -172.5h-148q-26 102 -148 102q-89 0 -130.5 -62t-41.5 -166q0 -105 42.5 -169t132.5 -64q65 0 111 35t46 111h-135v120h284v-73q0 -157 -80.5 -239.5t-225.5 -82.5z" />
    <glyph glyph-name="H" unicode="H" horiz-adv-x="678" 
d="M476 0v288h-274v-288h-150v700h150v-288h274v288h150v-700h-150z" />
    <glyph glyph-name="I" unicode="I" horiz-adv-x="254" 
d="M52 0v700h150v-700h-150z" />
    <glyph glyph-name="J" unicode="J" horiz-adv-x="675" 
d="M337 -10q-131 0 -208 70t-77 206h151q0 -72 35.5 -109t99.5 -37q135 0 135 157v423h150v-435q0 -135 -77.5 -205t-208.5 -70z" />
    <glyph glyph-name="K" unicode="K" horiz-adv-x="701" 
d="M52 0v700h150v-329l279 329h176l-268 -312l295 -388h-172l-215 281l-95 -111v-170h-150z" />
    <glyph glyph-name="L" unicode="L" horiz-adv-x="551" 
d="M52 0v700h150v-570h322v-130h-472z" />
    <glyph glyph-name="M" unicode="M" horiz-adv-x="849" 
d="M52 0v700h189l183 -496l184 496h189v-700h-150v441h-5l-162 -441h-112l-161 441h-5v-441h-150z" />
    <glyph glyph-name="N" unicode="N" horiz-adv-x="695" 
d="M52 0v700h156l282 -460h3v460h150v-700h-162l-276 451h-3v-451h-150z" />
    <glyph glyph-name="O" unicode="O" horiz-adv-x="742" 
d="M371 -10q-151 0 -242.5 99.5t-91.5 260.5q0 162 91.5 260.5t242.5 98.5t242.5 -98.5t91.5 -260.5q0 -161 -91.5 -260.5t-242.5 -99.5zM191 350q0 -106 47.5 -168.5t132.5 -62.5t132.5 62.5t47.5 168.5t-47.5 168t-132.5 62t-132.5 -62t-47.5 -168z" />
    <glyph glyph-name="P" unicode="P" horiz-adv-x="629" 
d="M52 0v700h283q134 0 200.5 -63t66.5 -171q0 -107 -66.5 -170t-200.5 -63h-133v-233h-150zM202 363h128q60 0 89 27.5t29 75.5q0 104 -118 104h-128v-207z" />
    <glyph glyph-name="Q" unicode="Q" horiz-adv-x="742" 
d="M612 -23l-61 61q-77 -48 -180 -48q-151 0 -242.5 99.5t-91.5 260.5q0 162 91.5 260.5t242.5 98.5t242.5 -98.5t91.5 -260.5q0 -132 -64 -226l61 -61zM191 350q0 -106 47.5 -168.5t132.5 -62.5q44 0 82 19l-95 96l90 86l84 -85q19 48 19 115q0 106 -47.5 168t-132.5 62
t-132.5 -62t-47.5 -168z" />
    <glyph glyph-name="R" unicode="R" horiz-adv-x="636" 
d="M52 0v700h283q134 0 200.5 -63t66.5 -171q0 -163 -140 -214l147 -252h-148l-133 233h-126v-233h-150zM202 363h128q60 0 89 27.5t29 75.5q0 104 -118 104h-128v-207z" />
    <glyph glyph-name="S" unicode="S" horiz-adv-x="651" 
d="M329 -10q-137 0 -214.5 62.5t-77.5 176.5h155q2 -51 35.5 -83t102.5 -32q59 0 92 24t33 67q0 35 -23.5 54t-73.5 29l-98 20q-204 39 -204 196q0 99 73 152t197 53q126 0 197.5 -55t71.5 -161h-154q1 45 -31.5 68.5t-86.5 23.5q-57 0 -83.5 -23.5t-26.5 -57.5
q0 -59 83 -76l90 -18q122 -25 175 -74t53 -130q0 -108 -78.5 -162t-206.5 -54z" />
    <glyph glyph-name="T" unicode="T" horiz-adv-x="600" 
d="M225 0v567h-203v133h556v-133h-203v-567h-150z" />
    <glyph glyph-name="U" unicode="U" horiz-adv-x="681" 
d="M341 -10q-134 0 -211.5 70t-77.5 206v434h151v-423q0 -77 36 -117t102 -40q65 0 101 40t36 117v423h151v-434q0 -136 -78 -206t-210 -70z" />
    <glyph glyph-name="V" unicode="V" horiz-adv-x="743" 
d="M275 0l-253 700h157l188 -547h9l188 547h157l-253 -700h-193z" />
    <glyph glyph-name="W" unicode="W" horiz-adv-x="1014" 
d="M204 0l-182 700h154l112 -489h7l135 489h154l135 -489h7l112 489h154l-182 -700h-156l-147 511l-147 -511h-156z" />
    <glyph glyph-name="X" unicode="X" horiz-adv-x="678" 
d="M493 0l-154 233l-154 -233h-168l238 361l-224 339h168l140 -212l140 212h168l-224 -339l238 -361h-168z" />
    <glyph glyph-name="Y" unicode="Y" horiz-adv-x="705" 
d="M275 0v257l-253 443h170l160 -298l161 298h170l-253 -443v-257h-155z" />
    <glyph glyph-name="Z" unicode="Z" horiz-adv-x="621" 
d="M40 0v130l371 440h-363v130h529v-130l-372 -440h376v-130h-541z" />
    <glyph glyph-name="bracketleft" unicode="[" horiz-adv-x="324" 
d="M52 -130v875h220v-125h-74v-625h74v-125h-220z" />
    <glyph glyph-name="backslash" unicode="\" horiz-adv-x="479" 
d="M449 0h-147l-272 700h146z" />
    <glyph glyph-name="bracketright" unicode="]" horiz-adv-x="324" 
d="M272 -130h-220v125h74v625h-74v125h220v-875z" />
    <glyph glyph-name="asciicircum" unicode="^" horiz-adv-x="502" 
d="M45 465l162 235h90l160 -235h-130l-76 116l-76 -116h-130z" />
    <glyph glyph-name="underscore" unicode="_" horiz-adv-x="590" 
d="M45 -125v125h500v-125h-500z" />
    <glyph glyph-name="grave" unicode="`" horiz-adv-x="232" 
d="M105 580l-105 140h126l106 -140h-127z" />
    <glyph glyph-name="a" unicode="a" horiz-adv-x="557" 
d="M194 -10q-71 0 -119 36.5t-48 111.5q0 41 15 70t44 45t57 24t68 14l88 13q37 5 50 14t13 30v7q0 70 -81 70q-89 0 -89 -69v-10h-137v24q0 160 230 160q116 0 168 -41.5t52 -127.5v-361h-139v92h-6q-5 -14 -15 -28.5t-28.5 -32.5t-50.5 -29.5t-72 -11.5zM173 150
q0 -56 71 -56q50 0 84 27.5t34 59.5v58q-8 -12 -56 -20l-73 -13q-60 -9 -60 -56z" />
    <glyph glyph-name="b" unicode="b" horiz-adv-x="606" 
d="M351 -10q-55 0 -96.5 24.5t-56.5 60.5v-75h-146v700h146v-255q15 36 56.5 60.5t96.5 24.5q92 0 160 -68.5t68 -201.5t-68 -201.5t-160 -68.5zM192 260q0 -72 36 -110.5t88 -38.5q53 0 89 38.5t36 110.5t-36 110.5t-89 38.5q-52 0 -88 -38.5t-36 -110.5z" />
    <glyph glyph-name="c" unicode="c" horiz-adv-x="557" 
d="M289 -10q-50 0 -95 15t-83.5 46t-61 84.5t-22.5 123.5t22.5 124t60.5 85t83.5 46.5t95.5 15.5q39 0 74 -9t71.5 -30.5t61 -65.5t31.5 -106h-132q-18 89 -107 89q-60 0 -91.5 -41t-31.5 -108t31.5 -107t91.5 -40q88 0 107 91h132q-6 -62 -30.5 -106.5t-61 -66.5t-72 -31
t-74.5 -9z" />
    <glyph glyph-name="d" unicode="d" horiz-adv-x="606" 
d="M255 -10q-92 0 -160 68.5t-68 201.5t68 201.5t160 68.5q55 0 96.5 -24.5t56.5 -60.5v255h146v-700h-146v75q-15 -36 -56.5 -60.5t-96.5 -24.5zM165 260q0 -72 36 -110.5t89 -38.5q52 0 88 38.5t36 110.5t-36 110.5t-88 38.5q-53 0 -89 -38.5t-36 -110.5z" />
    <glyph glyph-name="e" unicode="e" horiz-adv-x="562" 
d="M289 -10q-52 0 -97 15t-83 46t-60 85t-22 125q0 137 74 203t187 66q110 0 178.5 -64t68.5 -203q0 -23 -3 -40h-366q11 -122 125 -122q88 0 108 69h129q-19 -87 -82.5 -133.5t-156.5 -46.5zM166 309h231q-2 49 -29.5 79.5t-83.5 30.5q-103 0 -118 -110z" />
    <glyph glyph-name="f" unicode="f" horiz-adv-x="365" 
d="M91 554q0 162 171 162h78v-111h-43q-60 0 -60 -66v-19h100v-112h-100v-408h-146v408h-74v112h74v34z" />
    <glyph glyph-name="g" unicode="g" horiz-adv-x="598" 
d="M279 -209q-31 0 -60 3.5t-63.5 15.5t-59 30.5t-41.5 52t-17 77.5h129q2 -34 34 -50t74 -16q55 0 90 28.5t35 86.5v65h-2q-20 -31 -60 -51t-91 -20q-41 0 -79 14.5t-70 43.5t-51.5 81t-19.5 120q0 130 65.5 194t154.5 64q51 0 91 -20t60 -51h2v61h146v-501q0 -68 -26 -116
t-69.5 -71t-84.5 -32t-87 -9zM165 272q0 -67 34.5 -102t87.5 -35q51 0 85.5 35t34.5 102q0 66 -34.5 101.5t-85.5 35.5q-53 0 -87.5 -35t-34.5 -102z" />
    <glyph glyph-name="h" unicode="h" 
d="M403 295q0 114 -96 114q-49 0 -79 -28.5t-30 -85.5v-295h-146v700h146v-289h6q8 45 50.5 82t115.5 37q79 0 129 -51.5t50 -148.5v-330h-146v295z" />
    <glyph glyph-name="i" unicode="i" horiz-adv-x="250" 
d="M52 0v520h146v-520h-146zM45 661q0 34 24 57.5t56 23.5t56 -23.5t24 -57.5q0 -33 -24 -56.5t-56 -23.5t-56 23.5t-24 56.5z" />
    <glyph glyph-name="j" unicode="j" horiz-adv-x="262" 
d="M39 -195q-56 0 -85 3v114h51q59 0 59 68v530h146v-552q0 -163 -171 -163zM57 661q0 34 24 57.5t56 23.5t56 -23.5t24 -57.5q0 -33 -24 -56.5t-56 -23.5t-56 23.5t-24 56.5z" />
    <glyph glyph-name="k" unicode="k" horiz-adv-x="584" 
d="M52 0v700h146v-394l191 214h161l-210 -221l237 -299h-161l-166 205l-52 -55v-150h-146z" />
    <glyph glyph-name="l" unicode="l" horiz-adv-x="250" 
d="M52 0v700h146v-700h-146z" />
    <glyph glyph-name="m" unicode="m" horiz-adv-x="902" 
d="M704 295q0 114 -86 114q-42 0 -68 -29t-26 -85v-295h-146v295q0 114 -86 114q-42 0 -68 -29t-26 -85v-295h-146v520h146v-109h6q7 43 48 81t104 38q56 0 97.5 -30.5t59.5 -88.5q9 43 53.5 81t111.5 38q77 0 124.5 -51t47.5 -149v-330h-146v295z" />
    <glyph glyph-name="n" unicode="n" 
d="M403 295q0 114 -96 114q-49 0 -79 -28.5t-30 -85.5v-295h-146v520h146v-109h6q8 45 50.5 82t115.5 37q79 0 129 -51.5t50 -148.5v-330h-146v295z" />
    <glyph glyph-name="o" unicode="o" horiz-adv-x="576" 
d="M288 -10q-108 0 -184.5 68.5t-76.5 201.5t76.5 201.5t184.5 68.5t184.5 -68.5t76.5 -201.5t-76.5 -201.5t-184.5 -68.5zM164 260q0 -74 34 -111.5t90 -37.5t90 37.5t34 111.5t-34 111.5t-90 37.5t-90 -37.5t-34 -111.5z" />
    <glyph glyph-name="p" unicode="p" horiz-adv-x="606" 
d="M52 -190v710h146v-75q15 36 56.5 60.5t96.5 24.5q92 0 160 -68.5t68 -201.5t-68 -201.5t-160 -68.5q-55 0 -96.5 24.5t-56.5 60.5v-265h-146zM192 260q0 -72 36 -110.5t88 -38.5q53 0 89 38.5t36 110.5t-36 110.5t-89 38.5q-52 0 -88 -38.5t-36 -110.5z" />
    <glyph glyph-name="q" unicode="q" horiz-adv-x="606" 
d="M554 -190h-146v265q-15 -36 -56.5 -60.5t-96.5 -24.5q-92 0 -160 68.5t-68 201.5t68 201.5t160 68.5q55 0 96.5 -24.5t56.5 -60.5v75h146v-710zM165 260q0 -72 36 -110.5t89 -38.5q52 0 88 38.5t36 110.5t-36 110.5t-88 38.5q-53 0 -89 -38.5t-36 -110.5z" />
    <glyph glyph-name="r" unicode="r" horiz-adv-x="409" 
d="M52 0v520h146v-126h4q14 60 52 96t98 36q21 0 40 -5v-123q-24 3 -41 3q-65 0 -109 -41.5t-44 -129.5v-230h-146z" />
    <glyph glyph-name="s" unicode="s" horiz-adv-x="502" 
d="M247 -10q-106 0 -165 46t-60 135h131q7 -72 95 -72q82 0 82 54q0 36 -50 46l-96 20q-148 34 -148 152q0 75 58.5 117t154.5 42q103 0 157.5 -47.5t56.5 -132.5h-122q-8 71 -90 71q-73 0 -73 -46q0 -39 54 -50l98 -21q150 -33 150 -148q0 -83 -65.5 -124.5t-167.5 -41.5z
" />
    <glyph glyph-name="t" unicode="t" horiz-adv-x="380" 
d="M278 -7q-173 0 -173 163v251h-88v113h88v134h146v-134h103v-113h-103v-230q0 -33 14 -50t52 -17q20 0 41 2v-109q-38 -10 -80 -10z" />
    <glyph glyph-name="u" unicode="u" 
d="M198 225q0 -114 96 -114q49 0 79 28.5t30 85.5v295h146v-520h-146v109h-6q-8 -45 -50.5 -82t-115.5 -37q-79 0 -129 51.5t-50 148.5v330h146v-295z" />
    <glyph glyph-name="v" unicode="v" horiz-adv-x="596" 
d="M206 0l-189 520h149l130 -380h5l130 380h148l-189 -520h-184z" />
    <glyph glyph-name="w" unicode="w" horiz-adv-x="828" 
d="M156 0l-139 520h138l89 -379h4l103 379h126l103 -379h4l89 379h138l-139 -520h-163l-95 326l-94 -326h-164z" />
    <glyph glyph-name="x" unicode="x" horiz-adv-x="580" 
d="M27 0l180 263l-169 257h157l95 -152l95 152h157l-169 -257l180 -263h-157l-106 158l-106 -158h-157z" />
    <glyph glyph-name="y" unicode="y" horiz-adv-x="579" 
d="M69 -77q48 -6 79.5 2.5t42 20.5t18.5 30q14 34 -1 71l-191 473h150l121 -336l124 336h150l-213 -524q-49 -122 -109 -165t-171 -31v123z" />
    <glyph glyph-name="z" unicode="z" horiz-adv-x="510" 
d="M40 0v122l255 276h-245v122h420v-122l-256 -276h256v-122h-430z" />
    <glyph glyph-name="braceleft" unicode="{" horiz-adv-x="351" 
d="M203 -130q-45 0 -79 24.5t-34 88.5v252l-45 71l45 73v253q0 64 34.5 88.5t78.5 24.5h103v-125h-35q-35 0 -35 -30v-216l-56 -68l56 -66v-215q0 -30 35 -30h35v-125h-103z" />
    <glyph glyph-name="bar" unicode="|" horiz-adv-x="275" 
d="M75 -190v990h125v-990h-125z" />
    <glyph glyph-name="braceright" unicode="}" horiz-adv-x="351" 
d="M148 -130h-103v125h35q35 0 35 30v215l56 66l-56 68v216q0 30 -35 30h-35v125h103q44 0 78.5 -24.5t34.5 -88.5v-253l45 -73l-45 -71v-252q0 -64 -34 -88.5t-79 -24.5z" />
    <glyph glyph-name="asciitilde" unicode="~" horiz-adv-x="592" 
d="M412 190q-34 0 -67 15.5t-54.5 33.5t-48.5 33.5t-50 15.5t-38 -13t-15 -35h-87q-3 59 33 98t95 39q34 0 67 -15.5t54.5 -33.5t48.5 -33.5t50 -15.5t38 13t15 35h87q3 -59 -33.5 -98t-94.5 -39z" />
    <glyph glyph-name="uni00A0" unicode="&#xa0;" horiz-adv-x="230" 
 />
    <glyph glyph-name="exclamdown" unicode="&#xa1;" horiz-adv-x="281" 
d="M85 277h111l18 -457h-148zM52 443q0 36 26 61.5t62 25.5q37 0 63 -25t26 -62q0 -36 -26 -61.5t-63 -25.5q-36 0 -62 25.5t-26 61.5z" />
    <glyph glyph-name="cent" unicode="&#xa2;" horiz-adv-x="557" 
d="M258 -40v106q-99 10 -165 75.5t-66 187.5t66.5 188t164.5 76v107h51v-107q37 -2 69.5 -12.5t65 -32t55 -62.5t28.5 -98h-132q-16 76 -86 86v-288q70 11 86 88h132q-5 -57 -27 -98.5t-54.5 -64t-66 -33t-70.5 -12.5v-106h-51zM165 329q0 -57 23.5 -94.5t69.5 -46.5v284
q-46 -9 -69.5 -47.5t-23.5 -95.5z" />
    <glyph glyph-name="sterling" unicode="&#xa3;" horiz-adv-x="578" 
d="M43 76q95 89 95 168q0 23 -6 44h-90v78h51q-40 70 -40 131q0 95 69.5 152.5t172.5 57.5q101 0 171 -55.5t70 -152.5v-19h-138v15q0 32 -24 59.5t-78 27.5q-53 0 -77 -27t-24 -64q0 -16 5.5 -34t11 -28.5t18.5 -32.5t17 -30h111v-78h-82q1 -6 1 -19q0 -82 -96 -155
q50 17 109 11.5t106.5 -14t133.5 11.5v-123q-60 -13 -120 -9.5t-104 14.5t-100 9.5t-109 -24.5z" />
    <glyph glyph-name="currency" unicode="&#xa4;" 
d="M298 252q-66 0 -119 34l-38 -38l-92 92l44 44q-19 44 -19 92q0 49 21 96l-46 46l92 92l42 -42q52 32 115 32q65 0 118 -33l43 43l93 -92l-50 -50q20 -43 20 -92q0 -48 -18 -88l48 -48l-93 -92l-40 40q-55 -36 -121 -36zM193 476q0 -35 24.5 -70t80.5 -35t81 35t25 70
q0 34 -25 69.5t-81 35.5t-80.5 -35.5t-24.5 -69.5z" />
    <glyph glyph-name="yen" unicode="&#xa5;" horiz-adv-x="705" 
d="M158 190v72h114l-250 438h170l160 -298l161 298h170l-250 -438h117v-72h-120v-37h120v-72h-120v-81h-155v81h-117v72h117v37h-117z" />
    <glyph glyph-name="brokenbar" unicode="&#xa6;" horiz-adv-x="275" 
d="M75 480v320h125v-320h-125zM75 -190v320h125v-320h-125z" />
    <glyph glyph-name="section" unicode="&#xa7;" horiz-adv-x="694" 
d="M343 -236q-130 0 -207 59.5t-86 172.5h163q15 -96 131 -96q60 0 93 19t33 54q0 38 -23.5 57t-75.5 31l-90 20q-49 12 -83 25.5t-65.5 36t-47 58t-15.5 83.5q0 69 48 117q-38 43 -38 111q0 91 73 143.5t194 52.5q117 0 191 -52.5t86 -156.5h-163q-10 73 -114 73
q-53 0 -78 -18.5t-25 -45.5q0 -52 70 -69l106 -25q120 -27 172 -77t52 -140q0 -63 -44 -114q34 -45 34 -111q0 -105 -82 -156.5t-209 -51.5zM234 280q0 -25 15 -42t55 -27l91 -21q40 -9 75 -30q10 21 10 39q0 39 -19.5 56t-74.5 31l-77 19q-40 11 -57 22q-18 -20 -18 -47z
" />
    <glyph glyph-name="dieresis" unicode="&#xa8;" horiz-adv-x="400" 
d="M320 581q-33 0 -56.5 23t-23.5 56t23.5 55.5t56.5 22.5q32 0 56 -23t24 -55q0 -33 -24 -56t-56 -23zM0 660q0 32 24 55t56 23q33 0 56.5 -22.5t23.5 -55.5t-23.5 -56t-56.5 -23q-32 0 -56 23t-24 56z" />
    <glyph glyph-name="copyright" unicode="&#xa9;" horiz-adv-x="788" 
d="M394 -7q-150 0 -253.5 101.5t-103.5 255.5q0 153 104 254.5t253 101.5t253 -101.5t104 -254.5q0 -154 -103.5 -255.5t-253.5 -101.5zM121 350q0 -120 79 -198t194 -78t194 78t79 198q0 119 -79 197t-194 78t-194 -78t-79 -197zM204 350q0 90 56.5 143.5t137.5 53.5
q59 0 108 -31.5t65 -111.5h-89q-6 29 -29.5 44t-55.5 15q-44 0 -72.5 -29t-28.5 -84t28.5 -84.5t72.5 -29.5q32 0 55.5 15.5t31.5 45.5h87q-10 -55 -41 -89.5t-63 -45t-69 -10.5q-81 0 -137.5 54t-56.5 144z" />
    <glyph glyph-name="ordfeminine" unicode="&#xaa;" horiz-adv-x="386" 
d="M136 374q-46 0 -77.5 24t-31.5 75q0 90 119 99l96 6q1 36 -12.5 50t-43.5 14q-59 0 -59 -43h-84q1 117 145 117q83 0 114.5 -39t31.5 -124v-177h-78l-5 57q-14 -26 -45.5 -42.5t-69.5 -16.5zM126 484q0 -33 44 -33q29 0 48 13.5t24 34.5v24l-75 -5q-41 -3 -41 -34z" />
    <glyph glyph-name="guillemotleft" unicode="&#xab;" horiz-adv-x="463" 
d="M423 98l-173 140v120l173 140v-132l-84 -68l84 -68v-132zM40 238v120l173 140v-132l-84 -68l84 -68v-132z" />
    <glyph glyph-name="logicalnot" unicode="&#xac;" horiz-adv-x="537" 
d="M339 100v100h-287v112h433v-212h-146z" />
    <glyph glyph-name="uni00AD" unicode="&#xad;" horiz-adv-x="388" 
d="M40 221v110h308v-110h-308z" />
    <glyph glyph-name="registered" unicode="&#xae;" horiz-adv-x="788" 
d="M394 -7q-150 0 -253.5 101.5t-103.5 255.5q0 153 104 254.5t253 101.5t253 -101.5t104 -254.5q0 -154 -103.5 -255.5t-253.5 -101.5zM121 350q0 -120 79 -198t194 -78t194 78t79 198q0 119 -79 197t-194 78t-194 -78t-79 -197zM248 181v339h184q64 0 98.5 -31.5
t33.5 -85.5q-3 -81 -74 -104l79 -118h-94l-72 108h-65v-108h-90zM338 360h85q55 0 55 45q0 42 -55 42h-85v-87z" />
    <glyph glyph-name="macron" unicode="&#xaf;" horiz-adv-x="328" 
d="M0 635v85h328v-85h-328z" />
    <glyph glyph-name="degree" unicode="&#xb0;" horiz-adv-x="362" 
d="M181 421q-65 0 -107 42.5t-42 104.5q0 63 42 105.5t107 42.5t107 -42.5t42 -105.5q0 -62 -42 -104.5t-107 -42.5zM130 568q0 -20 13.5 -35.5t37.5 -15.5q25 0 38 15.5t13 35.5t-13 35.5t-38 15.5q-24 0 -37.5 -15.5t-13.5 -35.5z" />
    <glyph glyph-name="plusminus" unicode="&#xb1;" horiz-adv-x="605" 
d="M235 196v183h-183v126h183v182h134v-182h184v-126h-184v-183h-134zM131 0v110h342v-110h-342z" />
    <glyph glyph-name="uni00B2" unicode="&#xb2;" horiz-adv-x="266" 
d="M40 447q0 44 14 71.5t58 53.5q4 2 13 7t12.5 7t9.5 6.5t8.5 8.5t4.5 9.5t2 12.5q0 15 -10 23t-22 8q-13 0 -23.5 -9t-10.5 -27v-8h-56v8q0 39 22.5 63t67.5 24q44 0 67.5 -23t23.5 -59q0 -9 -2 -17t-4.5 -14.5t-8.5 -13.5t-10 -10.5t-13.5 -10.5t-13.5 -9.5t-15.5 -10
t-15.5 -9.5q-34 -18 -34 -35v-3h117v-50h-181v7z" />
    <glyph glyph-name="uni00B3" unicode="&#xb3;" horiz-adv-x="276" 
d="M136 436q-47 0 -71.5 23.5t-24.5 61.5h54q2 -40 43 -40q44 0 44 38q0 37 -50 37h-11v41h11q39 0 39 33q0 13 -9 21.5t-25 8.5q-15 0 -25.5 -9.5t-10.5 -27.5h-51q0 39 24 60.5t65 21.5q40 0 63 -19t23 -50q0 -22 -13 -37.5t-31 -19.5q20 -1 38 -17t18 -47
q0 -35 -27.5 -57t-72.5 -22z" />
    <glyph glyph-name="acute" unicode="&#xb4;" horiz-adv-x="232" 
d="M0 580l105 140h127l-106 -140h-126z" />
    <glyph glyph-name="uni00B5" unicode="&#xb5;" 
d="M52 -190v710h146v-295q0 -114 96 -114q47 0 78 29t31 85v295h146v-520h-146v81q-12 -40 -47 -65.5t-81 -25.5q-52 0 -77 26v-206h-146z" />
    <glyph glyph-name="paragraph" unicode="&#xb6;" horiz-adv-x="697" 
d="M303 -220v511h-47q-107 0 -168 61t-61 143q0 84 61 144.5t168 60.5h389v-920h-118v834h-94v-834h-130z" />
    <glyph glyph-name="periodcentered" unicode="&#xb7;" horiz-adv-x="261" 
d="M130 191q-36 0 -62 25.5t-26 61.5t26 61.5t62 25.5q37 0 63 -25.5t26 -61.5q0 -37 -26 -62t-63 -25z" />
    <glyph glyph-name="cedilla" unicode="&#xb8;" horiz-adv-x="204" 
d="M37 -180q29 -2 48 7.5t19 28.5q0 22 -22 29t-43 -7l-39 48l67 74h96l-53 -52h7q38 0 62.5 -26.5t24.5 -67.5q0 -57 -48 -81.5t-119 -24.5v72z" />
    <glyph glyph-name="uni00B9" unicode="&#xb9;" horiz-adv-x="196" 
d="M97 629q-16 -28 -57 -18v53q18 -2 34.5 9.5t22.5 26.5h54v-261h-54v190z" />
    <glyph glyph-name="ordmasculine" unicode="&#xba;" horiz-adv-x="396" 
d="M198 374q-71 0 -121 47t-50 126q0 78 49.5 123.5t121.5 45.5t121.5 -45.5t49.5 -123.5q0 -79 -50 -126t-121 -47zM119 547q0 -36 22 -59.5t57 -23.5q36 0 57.5 23t21.5 60q0 35 -21.5 57t-57.5 22t-57.5 -22t-21.5 -57z" />
    <glyph glyph-name="guillemotright" unicode="&#xbb;" horiz-adv-x="465" 
d="M47 98v132l84 68l-84 68v132l173 -140v-120zM257 98v132l84 68l-84 68v132l173 -140v-120z" />
    <glyph glyph-name="onequarter" unicode="&#xbc;" horiz-adv-x="606" 
d="M97 629q-16 -28 -57 -18v53q18 -2 34.5 9.5t22.5 26.5h54v-261h-54v190zM36 0l436 700h73l-436 -700h-73zM360 66v43l117 152h54v-152h30v-43h-30v-66h-54v66h-117zM407 109h70v90z" />
    <glyph glyph-name="onehalf" unicode="&#xbd;" horiz-adv-x="594" 
d="M94 629q-16 -28 -57 -18v53q18 -2 34.5 9.5t22.5 26.5h54v-261h-54v190zM41 0l436 700h73l-436 -700h-73zM368 0v7q0 44 14 71.5t58 53.5q4 2 13 7t12.5 7t9.5 6.5t8.5 8.5t4.5 9.5t2 12.5q0 15 -10 23t-22 8q-13 0 -23.5 -9t-10.5 -27v-8h-56v8q0 39 22.5 63t67.5 24
q44 0 67.5 -23t23.5 -59q0 -9 -2 -17t-4.5 -14.5t-8.5 -13.5t-10 -10.5t-13.5 -10.5t-13.5 -9.5t-15.5 -10t-15.5 -9.5q-34 -18 -34 -35v-3h117v-50h-181z" />
    <glyph glyph-name="threequarters" unicode="&#xbe;" horiz-adv-x="607" 
d="M136 436q-47 0 -71.5 23.5t-24.5 61.5h54q2 -40 43 -40q44 0 44 38q0 37 -50 37h-11v41h11q39 0 39 33q0 13 -9 21.5t-25 8.5q-15 0 -25.5 -9.5t-10.5 -27.5h-51q0 39 24 60.5t65 21.5q40 0 63 -19t23 -50q0 -22 -13 -37.5t-31 -19.5q20 -1 38 -17t18 -47
q0 -35 -27.5 -57t-72.5 -22zM33 0l436 700h73l-436 -700h-73zM381 66v43l117 152h54v-152h30v-43h-30v-66h-54v66h-117zM428 109h70v90z" />
    <glyph glyph-name="questiondown" unicode="&#xbf;" horiz-adv-x="566" 
d="M345 266q0 -47 -16 -82t-38.5 -55t-45 -36.5t-38.5 -35.5t-16 -42q0 -31 20 -54t65 -23q99 0 99 117h146q2 -124 -67 -183t-178 -59q-103 0 -167 53t-64 149q0 41 15 70.5t36 47t42 33.5t36 41t15 59v26h156v-26zM182 443q0 37 26 62t63 25q36 0 62 -25.5t26 -61.5
t-26 -61.5t-62 -25.5q-37 0 -63 25.5t-26 61.5z" />
    <glyph glyph-name="Agrave" unicode="&#xc0;" horiz-adv-x="733" 
d="M17 0l253 700h193l253 -700h-157l-45 131h-295l-45 -131h-157zM214 900h126l106 -140h-127zM257 242h219l-105 305h-9z" />
    <glyph glyph-name="Aacute" unicode="&#xc1;" horiz-adv-x="733" 
d="M17 0l253 700h193l253 -700h-157l-45 131h-295l-45 -131h-157zM257 242h219l-105 305h-9zM299 760l105 140h127l-106 -140h-126z" />
    <glyph glyph-name="Acircumflex" unicode="&#xc2;" horiz-adv-x="733" 
d="M17 0l253 700h193l253 -700h-157l-45 131h-295l-45 -131h-157zM167 760l97 140h204l97 -140h-131l-68 102l-68 -102h-131zM257 242h219l-105 305h-9z" />
    <glyph glyph-name="Atilde" unicode="&#xc3;" horiz-adv-x="733" 
d="M17 0l253 700h193l253 -700h-157l-45 131h-295l-45 -131h-157zM193 795q0 55 26 85.5t74 30.5q26 0 47 -8.5t32.5 -19t24.5 -19t25 -8.5q11 0 22 6.5t11 21.5h86q0 -55 -26 -85t-74 -30q-26 0 -47 8.5t-32.5 19t-24.5 19t-25 8.5q-11 0 -22 -6.5t-11 -22.5h-86zM257 242
h219l-105 305h-9z" />
    <glyph glyph-name="Adieresis" unicode="&#xc4;" horiz-adv-x="733" 
d="M17 0l253 700h193l253 -700h-157l-45 131h-295l-45 -131h-157zM166 840q0 32 24 55t56 23q33 0 56.5 -22.5t23.5 -55.5t-23.5 -56t-56.5 -23q-32 0 -56 23t-24 56zM257 242h219l-105 305h-9zM406 840q0 33 23.5 55.5t56.5 22.5q32 0 56 -23t24 -55q0 -33 -24 -56t-56 -23
q-33 0 -56.5 23t-23.5 56z" />
    <glyph glyph-name="Aring" unicode="&#xc5;" horiz-adv-x="733" 
d="M17 0l253 700h193l253 -700h-157l-45 131h-295l-45 -131h-157zM257 242h219l-105 305h-9zM263 838q0 42 30 71t73 29q44 0 74 -29t30 -71t-30 -71t-74 -29q-43 0 -73 29t-30 71zM331 838q0 -16 10 -25.5t25 -9.5t25.5 10t10.5 25q0 16 -10.5 26t-25.5 10t-25 -10t-10 -26
z" />
    <glyph glyph-name="AE" unicode="&#xc6;" horiz-adv-x="1004" 
d="M17 0l449 700h501v-130h-328v-157h298v-117h-298v-166h338v-130h-488v129h-232l-82 -129h-158zM330 242h159v250z" />
    <glyph glyph-name="Ccedilla" unicode="&#xc7;" horiz-adv-x="688" 
d="M298 -180q29 -2 48 7.5t19 28.5q0 22 -22 29t-43 -7l-39 48l60 66q-133 14 -208.5 108t-75.5 250q0 168 89 263.5t242 95.5q121 0 200.5 -63.5t89.5 -188.5h-146q-28 123 -149 123q-87 0 -130 -63.5t-43 -166.5q0 -104 42.5 -167.5t130.5 -63.5q121 0 149 124h146
q-9 -112 -74 -174.5t-167 -75.5l-46 -45h7q38 0 62.5 -26.5t24.5 -67.5q0 -57 -48 -81.5t-119 -24.5v72z" />
    <glyph glyph-name="Egrave" unicode="&#xc8;" horiz-adv-x="567" 
d="M52 0v700h478v-130h-328v-157h298v-117h-298v-166h338v-130h-488zM149 900h126l106 -140h-127z" />
    <glyph glyph-name="Eacute" unicode="&#xc9;" horiz-adv-x="567" 
d="M52 0v700h478v-130h-328v-157h298v-117h-298v-166h338v-130h-488zM235 760l105 140h127l-106 -140h-126z" />
    <glyph glyph-name="Ecircumflex" unicode="&#xca;" horiz-adv-x="567" 
d="M52 0v700h478v-130h-328v-157h298v-117h-298v-166h338v-130h-488zM103 760l97 140h204l97 -140h-131l-68 102l-68 -102h-131z" />
    <glyph glyph-name="Edieresis" unicode="&#xcb;" horiz-adv-x="567" 
d="M52 0v700h478v-130h-328v-157h298v-117h-298v-166h338v-130h-488zM101 840q0 32 24 55t56 23q33 0 56.5 -22.5t23.5 -55.5t-23.5 -56t-56.5 -23q-32 0 -56 23t-24 56zM341 840q0 33 23.5 55.5t56.5 22.5q32 0 56 -23t24 -55q0 -33 -24 -56t-56 -23q-33 0 -56.5 23
t-23.5 56z" />
    <glyph glyph-name="Igrave" unicode="&#xcc;" horiz-adv-x="254" 
d="M52 0v700h150v-700h-150zM-28 900h126l106 -140h-127z" />
    <glyph glyph-name="Iacute" unicode="&#xcd;" horiz-adv-x="254" 
d="M52 0v700h150v-700h-150zM58 760l105 140h127l-106 -140h-126z" />
    <glyph glyph-name="Icircumflex" unicode="&#xce;" horiz-adv-x="254" 
d="M52 0v700h150v-700h-150zM-74 760l97 140h204l97 -140h-131l-68 102l-68 -102h-131z" />
    <glyph glyph-name="Idieresis" unicode="&#xcf;" horiz-adv-x="254" 
d="M52 0v700h150v-700h-150zM-76 840q0 32 24 55t56 23q33 0 56.5 -22.5t23.5 -55.5t-23.5 -56t-56.5 -23q-32 0 -56 23t-24 56zM164 840q0 33 23.5 55.5t56.5 22.5q32 0 56 -23t24 -55q0 -33 -24 -56t-56 -23q-33 0 -56.5 23t-23.5 56z" />
    <glyph glyph-name="Eth" unicode="&#xd0;" horiz-adv-x="719" 
d="M86 0v289h-66v110h66v301h265q163 0 247 -90t84 -260t-84 -260t-247 -90h-265zM236 130h100q106 0 149.5 51.5t43.5 168.5t-43.5 168.5t-149.5 51.5h-100v-171h92v-110h-92v-159z" />
    <glyph glyph-name="Ntilde" unicode="&#xd1;" horiz-adv-x="695" 
d="M52 0v700h156l282 -460h3v460h150v-700h-162l-276 451h-3v-451h-150zM174 795q0 55 26 85.5t74 30.5q26 0 47 -8.5t32.5 -19t24.5 -19t25 -8.5q11 0 22 6.5t11 21.5h86q0 -55 -26 -85t-74 -30q-26 0 -47 8.5t-32.5 19t-24.5 19t-25 8.5q-11 0 -22 -6.5t-11 -22.5h-86z
" />
    <glyph glyph-name="Ograve" unicode="&#xd2;" horiz-adv-x="742" 
d="M371 -10q-151 0 -242.5 99.5t-91.5 260.5q0 162 91.5 260.5t242.5 98.5t242.5 -98.5t91.5 -260.5q0 -161 -91.5 -260.5t-242.5 -99.5zM191 350q0 -106 47.5 -168.5t132.5 -62.5t132.5 62.5t47.5 168.5t-47.5 168t-132.5 62t-132.5 -62t-47.5 -168zM217 900h126l106 -140
h-127z" />
    <glyph glyph-name="Oacute" unicode="&#xd3;" horiz-adv-x="742" 
d="M371 -10q-151 0 -242.5 99.5t-91.5 260.5q0 162 91.5 260.5t242.5 98.5t242.5 -98.5t91.5 -260.5q0 -161 -91.5 -260.5t-242.5 -99.5zM191 350q0 -106 47.5 -168.5t132.5 -62.5t132.5 62.5t47.5 168.5t-47.5 168t-132.5 62t-132.5 -62t-47.5 -168zM303 760l105 140h127
l-106 -140h-126z" />
    <glyph glyph-name="Ocircumflex" unicode="&#xd4;" horiz-adv-x="742" 
d="M371 -10q-151 0 -242.5 99.5t-91.5 260.5q0 162 91.5 260.5t242.5 98.5t242.5 -98.5t91.5 -260.5q0 -161 -91.5 -260.5t-242.5 -99.5zM171 760l97 140h204l97 -140h-131l-68 102l-68 -102h-131zM191 350q0 -106 47.5 -168.5t132.5 -62.5t132.5 62.5t47.5 168.5t-47.5 168
t-132.5 62t-132.5 -62t-47.5 -168z" />
    <glyph glyph-name="Otilde" unicode="&#xd5;" horiz-adv-x="742" 
d="M371 -10q-151 0 -242.5 99.5t-91.5 260.5q0 162 91.5 260.5t242.5 98.5t242.5 -98.5t91.5 -260.5q0 -161 -91.5 -260.5t-242.5 -99.5zM191 350q0 -106 47.5 -168.5t132.5 -62.5t132.5 62.5t47.5 168.5t-47.5 168t-132.5 62t-132.5 -62t-47.5 -168zM197 795q0 55 26 85.5
t74 30.5q26 0 47 -8.5t32.5 -19t24.5 -19t25 -8.5q11 0 22 6.5t11 21.5h86q0 -55 -26 -85t-74 -30q-26 0 -47 8.5t-32.5 19t-24.5 19t-25 8.5q-11 0 -22 -6.5t-11 -22.5h-86z" />
    <glyph glyph-name="Odieresis" unicode="&#xd6;" horiz-adv-x="742" 
d="M371 -10q-151 0 -242.5 99.5t-91.5 260.5q0 162 91.5 260.5t242.5 98.5t242.5 -98.5t91.5 -260.5q0 -161 -91.5 -260.5t-242.5 -99.5zM169 840q0 32 24 55t56 23q33 0 56.5 -22.5t23.5 -55.5t-23.5 -56t-56.5 -23q-32 0 -56 23t-24 56zM191 350q0 -106 47.5 -168.5
t132.5 -62.5t132.5 62.5t47.5 168.5t-47.5 168t-132.5 62t-132.5 -62t-47.5 -168zM409 840q0 33 23.5 55.5t56.5 22.5q32 0 56 -23t24 -55q0 -33 -24 -56t-56 -23q-33 0 -56.5 23t-23.5 56z" />
    <glyph glyph-name="multiply" unicode="&#xd7;" horiz-adv-x="545" 
d="M140 29l-90 88l134 134l-134 132l90 88l132 -132l133 132l90 -88l-133 -132l133 -134l-90 -88l-133 132z" />
    <glyph glyph-name="Oslash" unicode="&#xd8;" horiz-adv-x="742" 
d="M99 -50l59 111q-121 101 -121 289q0 162 91.5 260.5t242.5 98.5q62 0 121 -19l29 55h122l-57 -108q119 -100 119 -287q0 -161 -91.5 -260.5t-242.5 -99.5q-62 0 -119 19l-31 -59h-122zM191 350q0 -96 38 -155l200 376q-27 9 -58 9q-85 0 -132.5 -62t-47.5 -168zM315 127
q27 -8 56 -8q85 0 132.5 62.5t47.5 168.5q0 93 -37 153z" />
    <glyph glyph-name="Ugrave" unicode="&#xd9;" horiz-adv-x="681" 
d="M341 -10q-134 0 -211.5 70t-77.5 206v434h151v-423q0 -77 36 -117t102 -40q65 0 101 40t36 117v423h151v-434q0 -136 -78 -206t-210 -70zM175 900h126l106 -140h-127z" />
    <glyph glyph-name="Uacute" unicode="&#xda;" horiz-adv-x="681" 
d="M341 -10q-134 0 -211.5 70t-77.5 206v434h151v-423q0 -77 36 -117t102 -40q65 0 101 40t36 117v423h151v-434q0 -136 -78 -206t-210 -70zM261 760l105 140h127l-106 -140h-126z" />
    <glyph glyph-name="Ucircumflex" unicode="&#xdb;" horiz-adv-x="681" 
d="M341 -10q-134 0 -211.5 70t-77.5 206v434h151v-423q0 -77 36 -117t102 -40q65 0 101 40t36 117v423h151v-434q0 -136 -78 -206t-210 -70zM129 760l97 140h204l97 -140h-131l-68 102l-68 -102h-131z" />
    <glyph glyph-name="Udieresis" unicode="&#xdc;" horiz-adv-x="681" 
d="M341 -10q-134 0 -211.5 70t-77.5 206v434h151v-423q0 -77 36 -117t102 -40q65 0 101 40t36 117v423h151v-434q0 -136 -78 -206t-210 -70zM139 840q0 32 24 55t56 23q33 0 56.5 -22.5t23.5 -55.5t-23.5 -56t-56.5 -23q-32 0 -56 23t-24 56zM379 840q0 33 23.5 55.5
t56.5 22.5q32 0 56 -23t24 -55q0 -33 -24 -56t-56 -23q-33 0 -56.5 23t-23.5 56z" />
    <glyph glyph-name="Yacute" unicode="&#xdd;" horiz-adv-x="705" 
d="M275 0v257l-253 443h170l160 -298l161 298h170l-253 -443v-257h-155zM284 760l105 140h127l-106 -140h-126z" />
    <glyph glyph-name="Thorn" unicode="&#xde;" horiz-adv-x="629" 
d="M52 0v700h150v-116h133q134 0 200.5 -63t66.5 -170q0 -108 -66.5 -171t-200.5 -63h-133v-117h-150zM202 248h128q118 0 118 103q0 48 -29 75.5t-89 27.5h-128v-206z" />
    <glyph glyph-name="germandbls" unicode="&#xdf;" horiz-adv-x="620" 
d="M52 473q0 236 250 236q112 0 179 -44t67 -135q0 -64 -32 -101t-70 -38q60 -6 103.5 -52t43.5 -130q0 -98 -68 -153.5t-207 -55.5h-37v125h37q129 0 129 100q0 99 -145 99h-21v110h21q100 0 100 75t-98 75q-106 0 -106 -111v-473h-146v473z" />
    <glyph glyph-name="agrave" unicode="&#xe0;" horiz-adv-x="565" 
d="M194 -10q-71 0 -119 36.5t-48 111.5q0 41 15 70t44 45t57 24t68 14l88 13q37 5 50 14t13 30v7q0 70 -81 70q-89 0 -89 -69v-10h-137v24q0 160 230 160q116 0 168 -41.5t52 -127.5v-361h-139v92h-6q-5 -14 -15 -28.5t-28.5 -32.5t-50.5 -29.5t-72 -11.5zM120 720h126
l106 -140h-127zM173 150q0 -56 71 -56q50 0 84 27.5t34 59.5v58q-8 -12 -56 -20l-73 -13q-60 -9 -60 -56z" />
    <glyph glyph-name="aacute" unicode="&#xe1;" horiz-adv-x="565" 
d="M194 -10q-71 0 -119 36.5t-48 111.5q0 41 15 70t44 45t57 24t68 14l88 13q37 5 50 14t13 30v7q0 70 -81 70q-89 0 -89 -69v-10h-137v24q0 160 230 160q116 0 168 -41.5t52 -127.5v-361h-139v92h-6q-5 -14 -15 -28.5t-28.5 -32.5t-50.5 -29.5t-72 -11.5zM173 150
q0 -56 71 -56q50 0 84 27.5t34 59.5v58q-8 -12 -56 -20l-73 -13q-60 -9 -60 -56zM205 580l105 140h127l-106 -140h-126z" />
    <glyph glyph-name="acircumflex" unicode="&#xe2;" horiz-adv-x="565" 
d="M194 -10q-71 0 -119 36.5t-48 111.5q0 41 15 70t44 45t57 24t68 14l88 13q37 5 50 14t13 30v7q0 70 -81 70q-89 0 -89 -69v-10h-137v24q0 160 230 160q116 0 168 -41.5t52 -127.5v-361h-139v92h-6q-5 -14 -15 -28.5t-28.5 -32.5t-50.5 -29.5t-72 -11.5zM73 580l97 140
h204l97 -140h-131l-68 102l-68 -102h-131zM173 150q0 -56 71 -56q50 0 84 27.5t34 59.5v58q-8 -12 -56 -20l-73 -13q-60 -9 -60 -56z" />
    <glyph glyph-name="atilde" unicode="&#xe3;" horiz-adv-x="565" 
d="M194 -10q-71 0 -119 36.5t-48 111.5q0 41 15 70t44 45t57 24t68 14l88 13q37 5 50 14t13 30v7q0 70 -81 70q-89 0 -89 -69v-10h-137v24q0 160 230 160q116 0 168 -41.5t52 -127.5v-361h-139v92h-6q-5 -14 -15 -28.5t-28.5 -32.5t-50.5 -29.5t-72 -11.5zM99 615
q0 55 26 85.5t74 30.5q26 0 47 -8.5t32.5 -19t24.5 -19t25 -8.5q11 0 22 6.5t11 21.5h86q0 -55 -26 -85t-74 -30q-26 0 -47 8.5t-32.5 19t-24.5 19t-25 8.5q-11 0 -22 -6.5t-11 -22.5h-86zM173 150q0 -56 71 -56q50 0 84 27.5t34 59.5v58q-8 -12 -56 -20l-73 -13
q-60 -9 -60 -56z" />
    <glyph glyph-name="adieresis" unicode="&#xe4;" horiz-adv-x="565" 
d="M194 -10q-71 0 -119 36.5t-48 111.5q0 41 15 70t44 45t57 24t68 14l88 13q37 5 50 14t13 30v7q0 70 -81 70q-89 0 -89 -69v-10h-137v24q0 160 230 160q116 0 168 -41.5t52 -127.5v-361h-139v92h-6q-5 -14 -15 -28.5t-28.5 -32.5t-50.5 -29.5t-72 -11.5zM72 660
q0 32 24 55t56 23q33 0 56.5 -22.5t23.5 -55.5t-23.5 -56t-56.5 -23q-32 0 -56 23t-24 56zM173 150q0 -56 71 -56q50 0 84 27.5t34 59.5v58q-8 -12 -56 -20l-73 -13q-60 -9 -60 -56zM312 660q0 33 23.5 55.5t56.5 22.5q32 0 56 -23t24 -55q0 -33 -24 -56t-56 -23
q-33 0 -56.5 23t-23.5 56z" />
    <glyph glyph-name="aring" unicode="&#xe5;" horiz-adv-x="565" 
d="M194 -10q-71 0 -119 36.5t-48 111.5q0 41 15 70t44 45t57 24t68 14l88 13q37 5 50 14t13 30v7q0 70 -81 70q-89 0 -89 -69v-10h-137v24q0 160 230 160q116 0 168 -41.5t52 -127.5v-361h-139v92h-6q-5 -14 -15 -28.5t-28.5 -32.5t-50.5 -29.5t-72 -11.5zM169 658
q0 42 30 71t73 29q44 0 74 -29t30 -71t-30 -71t-74 -29q-43 0 -73 29t-30 71zM173 150q0 -56 71 -56q50 0 84 27.5t34 59.5v58q-8 -12 -56 -20l-73 -13q-60 -9 -60 -56zM237 658q0 -16 10 -25.5t25 -9.5t25.5 10t10.5 25q0 16 -10.5 26t-25.5 10t-25 -10t-10 -26z" />
    <glyph glyph-name="ae" unicode="&#xe6;" horiz-adv-x="896" 
d="M212 -10q-81 0 -133 38t-52 119q0 85 55 120t138 35h140v51q0 67 -84 67t-84 -67v-11h-132v27q0 78 56 119.5t164 41.5q61 0 101 -16.5t65 -57.5q57 74 176 74q109 0 178 -66.5t69 -206.5q0 -22 -3 -43h-366q2 -55 36 -84t88 -29q87 0 110 67h128q-18 -86 -82 -132
t-157 -46q-64 0 -117 26t-78 78q-26 -42 -81.5 -73t-134.5 -31zM173 157q0 -26 18.5 -43.5t60.5 -17.5q53 0 80.5 28.5t27.5 67.5v26h-104q-39 0 -61 -16t-22 -45zM502 320h228q-2 43 -29.5 71t-81.5 28q-97 0 -117 -99z" />
    <glyph glyph-name="ccedilla" unicode="&#xe7;" horiz-adv-x="557" 
d="M213 -180q29 -2 48 7.5t19 28.5q0 22 -22 29t-43 -7l-39 48l62 68q-91 15 -151 81t-60 184q0 70 22.5 124t60.5 85t83.5 46.5t95.5 15.5q39 0 74 -9t71.5 -30.5t61 -65.5t31.5 -106h-132q-18 89 -107 89q-60 0 -91.5 -41t-31.5 -108t31.5 -107t91.5 -40q88 0 107 91h132
q-10 -102 -65 -151t-130 -59l-46 -45h7q38 0 62.5 -26.5t24.5 -67.5q0 -57 -48 -81.5t-119 -24.5v72z" />
    <glyph glyph-name="egrave" unicode="&#xe8;" horiz-adv-x="562" 
d="M289 -10q-52 0 -97 15t-83 46t-60 85t-22 125q0 137 74 203t187 66q110 0 178.5 -64t68.5 -203q0 -23 -3 -40h-366q11 -122 125 -122q88 0 108 69h129q-19 -87 -82.5 -133.5t-156.5 -46.5zM127 720h126l106 -140h-127zM166 309h231q-2 49 -29.5 79.5t-83.5 30.5
q-103 0 -118 -110z" />
    <glyph glyph-name="eacute" unicode="&#xe9;" horiz-adv-x="562" 
d="M289 -10q-52 0 -97 15t-83 46t-60 85t-22 125q0 137 74 203t187 66q110 0 178.5 -64t68.5 -203q0 -23 -3 -40h-366q11 -122 125 -122q88 0 108 69h129q-19 -87 -82.5 -133.5t-156.5 -46.5zM166 309h231q-2 49 -29.5 79.5t-83.5 30.5q-103 0 -118 -110zM213 580l105 140
h127l-106 -140h-126z" />
    <glyph glyph-name="ecircumflex" unicode="&#xea;" horiz-adv-x="562" 
d="M289 -10q-52 0 -97 15t-83 46t-60 85t-22 125q0 137 74 203t187 66q110 0 178.5 -64t68.5 -203q0 -23 -3 -40h-366q11 -122 125 -122q88 0 108 69h129q-19 -87 -82.5 -133.5t-156.5 -46.5zM81 580l97 140h204l97 -140h-131l-68 102l-68 -102h-131zM166 309h231
q-2 49 -29.5 79.5t-83.5 30.5q-103 0 -118 -110z" />
    <glyph glyph-name="edieresis" unicode="&#xeb;" horiz-adv-x="562" 
d="M289 -10q-52 0 -97 15t-83 46t-60 85t-22 125q0 137 74 203t187 66q110 0 178.5 -64t68.5 -203q0 -23 -3 -40h-366q11 -122 125 -122q88 0 108 69h129q-19 -87 -82.5 -133.5t-156.5 -46.5zM79 660q0 32 24 55t56 23q33 0 56.5 -22.5t23.5 -55.5t-23.5 -56t-56.5 -23
q-32 0 -56 23t-24 56zM166 309h231q-2 49 -29.5 79.5t-83.5 30.5q-103 0 -118 -110zM319 660q0 33 23.5 55.5t56.5 22.5q32 0 56 -23t24 -55q0 -33 -24 -56t-56 -23q-33 0 -56.5 23t-23.5 56z" />
    <glyph glyph-name="igrave" unicode="&#xec;" horiz-adv-x="236" 
d="M45 0v520h146v-520h-146zM-36 720h126l106 -140h-127z" />
    <glyph glyph-name="iacute" unicode="&#xed;" horiz-adv-x="236" 
d="M45 0v520h146v-520h-146zM50 580l105 140h127l-106 -140h-126z" />
    <glyph glyph-name="icircumflex" unicode="&#xee;" horiz-adv-x="236" 
d="M45 0v520h146v-520h-146zM-82 580l97 140h204l97 -140h-131l-68 102l-68 -102h-131z" />
    <glyph glyph-name="idieresis" unicode="&#xef;" horiz-adv-x="236" 
d="M45 0v520h146v-520h-146zM-84 660q0 32 24 55t56 23q33 0 56.5 -22.5t23.5 -55.5t-23.5 -56t-56.5 -23q-32 0 -56 23t-24 56zM156 660q0 33 23.5 55.5t56.5 22.5q32 0 56 -23t24 -55q0 -33 -24 -56t-56 -23q-33 0 -56.5 23t-23.5 56z" />
    <glyph glyph-name="eth" unicode="&#xf0;" horiz-adv-x="593" 
d="M283 -10q-107 0 -181.5 69t-74.5 201q0 123 66.5 191.5t166.5 68.5q59 0 99 -28q-25 51 -54 94h-130v65h78q-36 38 -48 49h147l39 -49h139v-65h-91q60 -85 81 -150.5t21 -160.5q0 -142 -74.5 -213.5t-183.5 -71.5zM171 260q0 -74 32.5 -109.5t80.5 -35.5t80 35.5
t32 109.5q0 71 -31.5 103t-80.5 32q-48 0 -80.5 -32.5t-32.5 -102.5z" />
    <glyph glyph-name="ntilde" unicode="&#xf1;" 
d="M403 295q0 114 -96 114q-49 0 -79 -28.5t-30 -85.5v-295h-146v520h146v-109h6q8 45 50.5 82t115.5 37q79 0 129 -51.5t50 -148.5v-330h-146v295zM127 615q0 55 26 85.5t74 30.5q26 0 47 -8.5t32.5 -19t24.5 -19t25 -8.5q11 0 22 6.5t11 21.5h86q0 -55 -26 -85t-74 -30
q-26 0 -47 8.5t-32.5 19t-24.5 19t-25 8.5q-11 0 -22 -6.5t-11 -22.5h-86z" />
    <glyph glyph-name="ograve" unicode="&#xf2;" horiz-adv-x="576" 
d="M288 -10q-108 0 -184.5 68.5t-76.5 201.5t76.5 201.5t184.5 68.5t184.5 -68.5t76.5 -201.5t-76.5 -201.5t-184.5 -68.5zM134 720h126l106 -140h-127zM164 260q0 -74 34 -111.5t90 -37.5t90 37.5t34 111.5t-34 111.5t-90 37.5t-90 -37.5t-34 -111.5z" />
    <glyph glyph-name="oacute" unicode="&#xf3;" horiz-adv-x="576" 
d="M288 -10q-108 0 -184.5 68.5t-76.5 201.5t76.5 201.5t184.5 68.5t184.5 -68.5t76.5 -201.5t-76.5 -201.5t-184.5 -68.5zM164 260q0 -74 34 -111.5t90 -37.5t90 37.5t34 111.5t-34 111.5t-90 37.5t-90 -37.5t-34 -111.5zM220 580l105 140h127l-106 -140h-126z" />
    <glyph glyph-name="ocircumflex" unicode="&#xf4;" horiz-adv-x="576" 
d="M288 -10q-108 0 -184.5 68.5t-76.5 201.5t76.5 201.5t184.5 68.5t184.5 -68.5t76.5 -201.5t-76.5 -201.5t-184.5 -68.5zM88 580l97 140h204l97 -140h-131l-68 102l-68 -102h-131zM164 260q0 -74 34 -111.5t90 -37.5t90 37.5t34 111.5t-34 111.5t-90 37.5t-90 -37.5
t-34 -111.5z" />
    <glyph glyph-name="otilde" unicode="&#xf5;" horiz-adv-x="576" 
d="M288 -10q-108 0 -184.5 68.5t-76.5 201.5t76.5 201.5t184.5 68.5t184.5 -68.5t76.5 -201.5t-76.5 -201.5t-184.5 -68.5zM114 615q0 55 26 85.5t74 30.5q26 0 47 -8.5t32.5 -19t24.5 -19t25 -8.5q11 0 22 6.5t11 21.5h86q0 -55 -26 -85t-74 -30q-26 0 -47 8.5t-32.5 19
t-24.5 19t-25 8.5q-11 0 -22 -6.5t-11 -22.5h-86zM164 260q0 -74 34 -111.5t90 -37.5t90 37.5t34 111.5t-34 111.5t-90 37.5t-90 -37.5t-34 -111.5z" />
    <glyph glyph-name="odieresis" unicode="&#xf6;" horiz-adv-x="576" 
d="M288 -10q-108 0 -184.5 68.5t-76.5 201.5t76.5 201.5t184.5 68.5t184.5 -68.5t76.5 -201.5t-76.5 -201.5t-184.5 -68.5zM86 660q0 32 24 55t56 23q33 0 56.5 -22.5t23.5 -55.5t-23.5 -56t-56.5 -23q-32 0 -56 23t-24 56zM164 260q0 -74 34 -111.5t90 -37.5t90 37.5
t34 111.5t-34 111.5t-90 37.5t-90 -37.5t-34 -111.5zM326 660q0 33 23.5 55.5t56.5 22.5q32 0 56 -23t24 -55q0 -33 -24 -56t-56 -23q-33 0 -56.5 23t-23.5 56z" />
    <glyph glyph-name="divide" unicode="&#xf7;" horiz-adv-x="437" 
d="M220 384q-27 0 -45 18.5t-18 44.5t18 44t45 18q26 0 44 -18t18 -44t-18 -44.5t-44 -18.5zM52 221v110h334v-110h-334zM157 107q0 26 18 43.5t45 17.5q26 0 44 -18t18 -43q0 -27 -18 -45.5t-44 -18.5q-27 0 -45 18.5t-18 45.5z" />
    <glyph glyph-name="oslash" unicode="&#xf8;" horiz-adv-x="576" 
d="M81 -50l45 90q-99 72 -99 220q0 133 76.5 201.5t184.5 68.5q38 0 75 -9l28 57h105l-48 -97q101 -71 101 -221q0 -133 -76.5 -201.5t-184.5 -68.5q-41 0 -77 10l-25 -50h-105zM164 260q0 -59 23 -96l120 244q-6 1 -19 1q-56 0 -90 -37.5t-34 -111.5zM266 113q14 -2 22 -2
q56 0 90 37.5t34 111.5q0 61 -24 98z" />
    <glyph glyph-name="ugrave" unicode="&#xf9;" 
d="M198 225q0 -114 96 -114q49 0 79 28.5t30 85.5v295h146v-520h-146v109h-6q-8 -45 -50.5 -82t-115.5 -37q-79 0 -129 51.5t-50 148.5v330h146v-295zM145 720h126l106 -140h-127z" />
    <glyph glyph-name="uacute" unicode="&#xfa;" 
d="M198 225q0 -114 96 -114q49 0 79 28.5t30 85.5v295h146v-520h-146v109h-6q-8 -45 -50.5 -82t-115.5 -37q-79 0 -129 51.5t-50 148.5v330h146v-295zM230 580l105 140h127l-106 -140h-126z" />
    <glyph glyph-name="ucircumflex" unicode="&#xfb;" 
d="M198 225q0 -114 96 -114q49 0 79 28.5t30 85.5v295h146v-520h-146v109h-6q-8 -45 -50.5 -82t-115.5 -37q-79 0 -129 51.5t-50 148.5v330h146v-295zM98 580l97 140h204l97 -140h-131l-68 102l-68 -102h-131z" />
    <glyph glyph-name="udieresis" unicode="&#xfc;" 
d="M198 225q0 -114 96 -114q49 0 79 28.5t30 85.5v295h146v-520h-146v109h-6q-8 -45 -50.5 -82t-115.5 -37q-79 0 -129 51.5t-50 148.5v330h146v-295zM97 660q0 32 24 55t56 23q33 0 56.5 -22.5t23.5 -55.5t-23.5 -56t-56.5 -23q-32 0 -56 23t-24 56zM337 660
q0 33 23.5 55.5t56.5 22.5q32 0 56 -23t24 -55q0 -33 -24 -56t-56 -23q-33 0 -56.5 23t-23.5 56z" />
    <glyph glyph-name="yacute" unicode="&#xfd;" horiz-adv-x="579" 
d="M69 -77q48 -6 79.5 2.5t42 20.5t18.5 30q14 34 -1 71l-191 473h150l121 -336l124 336h150l-213 -524q-49 -122 -109 -165t-171 -31v123zM221 580l105 140h127l-106 -140h-126z" />
    <glyph glyph-name="thorn" unicode="&#xfe;" horiz-adv-x="606" 
d="M52 -190v890h146v-252q16 36 57.5 59t95.5 23q92 0 160 -68.5t68 -201.5t-68 -201.5t-160 -68.5q-54 0 -95.5 23t-57.5 59v-262h-146zM192 260q0 -72 36 -110.5t88 -38.5q53 0 89 38.5t36 110.5t-36 110.5t-89 38.5q-52 0 -88 -38.5t-36 -110.5z" />
    <glyph glyph-name="ydieresis" unicode="&#xff;" horiz-adv-x="579" 
d="M69 -77q48 -6 79.5 2.5t42 20.5t18.5 30q14 34 -1 71l-191 473h150l121 -336l124 336h150l-213 -524q-49 -122 -109 -165t-171 -31v123zM87 660q0 32 24 55t56 23q33 0 56.5 -22.5t23.5 -55.5t-23.5 -56t-56.5 -23q-32 0 -56 23t-24 56zM327 660q0 33 23.5 55.5
t56.5 22.5q32 0 56 -23t24 -55q0 -33 -24 -56t-56 -23q-33 0 -56.5 23t-23.5 56z" />
    <glyph glyph-name="Amacron" unicode="&#x100;" horiz-adv-x="733" 
d="M17 0l253 700h193l253 -700h-157l-45 131h-295l-45 -131h-157zM203 815v85h328v-85h-328zM257 242h219l-105 305h-9z" />
    <glyph glyph-name="amacron" unicode="&#x101;" horiz-adv-x="565" 
d="M194 -10q-71 0 -119 36.5t-48 111.5q0 41 15 70t44 45t57 24t68 14l88 13q37 5 50 14t13 30v7q0 70 -81 70q-89 0 -89 -69v-10h-137v24q0 160 230 160q116 0 168 -41.5t52 -127.5v-361h-139v92h-6q-5 -14 -15 -28.5t-28.5 -32.5t-50.5 -29.5t-72 -11.5zM109 635v85h328
v-85h-328zM173 150q0 -56 71 -56q50 0 84 27.5t34 59.5v58q-8 -12 -56 -20l-73 -13q-60 -9 -60 -56z" />
    <glyph glyph-name="Abreve" unicode="&#x102;" horiz-adv-x="733" 
d="M17 0l253 700h193l253 -700h-157l-45 131h-295l-45 -131h-157zM205 900h96q1 -37 17 -53.5t49 -16.5t49 16.5t17 53.5h96q0 -72 -42 -113t-120 -41t-120 41t-42 113zM257 242h219l-105 305h-9z" />
    <glyph glyph-name="abreve" unicode="&#x103;" horiz-adv-x="565" 
d="M194 -10q-71 0 -119 36.5t-48 111.5q0 41 15 70t44 45t57 24t68 14l88 13q37 5 50 14t13 30v7q0 70 -81 70q-89 0 -89 -69v-10h-137v24q0 160 230 160q116 0 168 -41.5t52 -127.5v-361h-139v92h-6q-5 -14 -15 -28.5t-28.5 -32.5t-50.5 -29.5t-72 -11.5zM111 720h96
q1 -37 17 -53.5t49 -16.5t49 16.5t17 53.5h96q0 -72 -42 -113t-120 -41t-120 41t-42 113zM173 150q0 -56 71 -56q50 0 84 27.5t34 59.5v58q-8 -12 -56 -20l-73 -13q-60 -9 -60 -56z" />
    <glyph glyph-name="Aogonek" unicode="&#x104;" horiz-adv-x="733" 
d="M17 0l253 700h193l253 -700q-61 0 -94 -22t-33 -52q0 -26 21 -36.5t51 -0.5v-81q-18 -8 -47 -8t-59 9t-52 35t-22 65q0 73 72 109l-39 113h-295l-45 -131h-157zM257 242h219l-105 305h-9z" />
    <glyph glyph-name="aogonek" unicode="&#x105;" horiz-adv-x="565" 
d="M194 -10q-71 0 -119 36.5t-48 111.5q0 41 15 70t44 45t57 24t68 14l88 13q37 5 50 14t13 30v7q0 70 -81 70q-89 0 -89 -69v-10h-137v24q0 160 230 160q116 0 168 -41.5t52 -127.5v-358l8 -3q-61 0 -94 -22t-33 -52q0 -26 21 -36.5t51 -0.5v-81q-18 -8 -47 -8t-59 9
t-52 35t-22 65q0 42 25 72t63 43v68h-6q-5 -14 -15 -28.5t-28.5 -32.5t-50.5 -29.5t-72 -11.5zM173 150q0 -56 71 -56q50 0 84 27.5t34 59.5v58q-8 -12 -56 -20l-73 -13q-60 -9 -60 -56z" />
    <glyph glyph-name="Cacute" unicode="&#x106;" horiz-adv-x="688" 
d="M366 -10q-152 0 -240.5 95.5t-88.5 264.5q0 168 89 263.5t242 95.5q121 0 200.5 -63.5t89.5 -188.5h-146q-28 123 -149 123q-87 0 -130 -63.5t-43 -166.5q0 -104 42.5 -167.5t130.5 -63.5q121 0 149 124h146q-10 -126 -89.5 -189.5t-202.5 -63.5zM304 760l105 140h127
l-106 -140h-126z" />
    <glyph glyph-name="cacute" unicode="&#x107;" horiz-adv-x="557" 
d="M289 -10q-50 0 -95 15t-83.5 46t-61 84.5t-22.5 123.5t22.5 124t60.5 85t83.5 46.5t95.5 15.5q39 0 74 -9t71.5 -30.5t61 -65.5t31.5 -106h-132q-18 89 -107 89q-60 0 -91.5 -41t-31.5 -108t31.5 -107t91.5 -40q88 0 107 91h132q-6 -62 -30.5 -106.5t-61 -66.5t-72 -31
t-74.5 -9zM212 580l105 140h127l-106 -140h-126z" />
    <glyph glyph-name="Ccircumflex" unicode="&#x108;" horiz-adv-x="688" 
d="M366 -10q-152 0 -240.5 95.5t-88.5 264.5q0 168 89 263.5t242 95.5q121 0 200.5 -63.5t89.5 -188.5h-146q-28 123 -149 123q-87 0 -130 -63.5t-43 -166.5q0 -104 42.5 -167.5t130.5 -63.5q121 0 149 124h146q-10 -126 -89.5 -189.5t-202.5 -63.5zM174 760l97 140h204
l97 -140h-131l-68 102l-68 -102h-131z" />
    <glyph glyph-name="ccircumflex" unicode="&#x109;" horiz-adv-x="557" 
d="M289 -10q-50 0 -95 15t-83.5 46t-61 84.5t-22.5 123.5t22.5 124t60.5 85t83.5 46.5t95.5 15.5q39 0 74 -9t71.5 -30.5t61 -65.5t31.5 -106h-132q-18 89 -107 89q-60 0 -91.5 -41t-31.5 -108t31.5 -107t91.5 -40q88 0 107 91h132q-6 -62 -30.5 -106.5t-61 -66.5t-72 -31
t-74.5 -9zM82 580l97 140h204l97 -140h-131l-68 102l-68 -102h-131z" />
    <glyph glyph-name="Cdotaccent" unicode="&#x10a;" horiz-adv-x="688" 
d="M366 -10q-152 0 -240.5 95.5t-88.5 264.5q0 168 89 263.5t242 95.5q121 0 200.5 -63.5t89.5 -188.5h-146q-28 123 -149 123q-87 0 -130 -63.5t-43 -166.5q0 -104 42.5 -167.5t130.5 -63.5q121 0 149 124h146q-10 -126 -89.5 -189.5t-202.5 -63.5zM294 840q0 32 24 55
t56 23q33 0 56.5 -22.5t23.5 -55.5t-23.5 -56t-56.5 -23q-32 0 -56 23t-24 56z" />
    <glyph glyph-name="cdotaccent" unicode="&#x10b;" horiz-adv-x="557" 
d="M289 -10q-50 0 -95 15t-83.5 46t-61 84.5t-22.5 123.5t22.5 124t60.5 85t83.5 46.5t95.5 15.5q39 0 74 -9t71.5 -30.5t61 -65.5t31.5 -106h-132q-18 89 -107 89q-60 0 -91.5 -41t-31.5 -108t31.5 -107t91.5 -40q88 0 107 91h132q-6 -62 -30.5 -106.5t-61 -66.5t-72 -31
t-74.5 -9zM202 660q0 32 24 55t56 23q33 0 56.5 -22.5t23.5 -55.5t-23.5 -56t-56.5 -23q-32 0 -56 23t-24 56z" />
    <glyph glyph-name="Ccaron" unicode="&#x10c;" horiz-adv-x="688" 
d="M366 -10q-152 0 -240.5 95.5t-88.5 264.5q0 168 89 263.5t242 95.5q121 0 200.5 -63.5t89.5 -188.5h-146q-28 123 -149 123q-87 0 -130 -63.5t-43 -166.5q0 -104 42.5 -167.5t130.5 -63.5q121 0 149 124h146q-10 -126 -89.5 -189.5t-202.5 -63.5zM167 898h131l68 -102
l68 102h131l-97 -140h-204z" />
    <glyph glyph-name="ccaron" unicode="&#x10d;" horiz-adv-x="557" 
d="M289 -10q-50 0 -95 15t-83.5 46t-61 84.5t-22.5 123.5t22.5 124t60.5 85t83.5 46.5t95.5 15.5q39 0 74 -9t71.5 -30.5t61 -65.5t31.5 -106h-132q-18 89 -107 89q-60 0 -91.5 -41t-31.5 -108t31.5 -107t91.5 -40q88 0 107 91h132q-6 -62 -30.5 -106.5t-61 -66.5t-72 -31
t-74.5 -9zM75 718h131l68 -102l68 102h131l-97 -140h-204z" />
    <glyph glyph-name="Dcaron" unicode="&#x10e;" horiz-adv-x="685" 
d="M52 0v700h265q163 0 247 -90t84 -260t-84 -260t-247 -90h-265zM129 898h131l68 -102l68 102h131l-97 -140h-204zM202 130h100q106 0 149.5 51.5t43.5 168.5t-43.5 168.5t-149.5 51.5h-100v-440z" />
    <glyph glyph-name="dcaron" unicode="&#x10f;" horiz-adv-x="663" 
d="M255 -10q-92 0 -160 68.5t-68 201.5t68 201.5t160 68.5q55 0 96.5 -24.5t56.5 -60.5v255h146v-700h-146v75q-15 -36 -56.5 -60.5t-96.5 -24.5zM165 260q0 -72 36 -110.5t89 -38.5q52 0 88 38.5t36 110.5t-36 110.5t-88 38.5q-53 0 -89 -38.5t-36 -110.5zM583 560l105 140
h127l-106 -140h-126z" />
    <glyph glyph-name="Dcroat" unicode="&#x110;" horiz-adv-x="719" 
d="M86 0v289h-66v110h66v301h265q163 0 247 -90t84 -260t-84 -260t-247 -90h-265zM236 130h100q106 0 149.5 51.5t43.5 168.5t-43.5 168.5t-149.5 51.5h-100v-171h92v-110h-92v-159z" />
    <glyph glyph-name="dcroat" unicode="&#x111;" horiz-adv-x="634" 
d="M260 586v65h148v49h146v-49h61v-65h-61v-586h-146v75q-15 -36 -56.5 -60.5t-96.5 -24.5q-92 0 -160 68.5t-68 201.5t68 201.5t160 68.5q55 0 96.5 -24.5t56.5 -60.5v141h-148zM165 260q0 -72 36 -110.5t89 -38.5q52 0 88 38.5t36 110.5t-36 110.5t-88 38.5
q-53 0 -89 -38.5t-36 -110.5z" />
    <glyph glyph-name="Emacron" unicode="&#x112;" horiz-adv-x="567" 
d="M52 0v700h478v-130h-328v-157h298v-117h-298v-166h338v-130h-488zM139 815v85h328v-85h-328z" />
    <glyph glyph-name="emacron" unicode="&#x113;" horiz-adv-x="562" 
d="M289 -10q-52 0 -97 15t-83 46t-60 85t-22 125q0 137 74 203t187 66q110 0 178.5 -64t68.5 -203q0 -23 -3 -40h-366q11 -122 125 -122q88 0 108 69h129q-19 -87 -82.5 -133.5t-156.5 -46.5zM117 635v85h328v-85h-328zM166 309h231q-2 49 -29.5 79.5t-83.5 30.5
q-103 0 -118 -110z" />
    <glyph glyph-name="Edotaccent" unicode="&#x116;" horiz-adv-x="567" 
d="M52 0v700h478v-130h-328v-157h298v-117h-298v-166h338v-130h-488zM224 840q0 32 24 55t56 23q33 0 56.5 -22.5t23.5 -55.5t-23.5 -56t-56.5 -23q-32 0 -56 23t-24 56z" />
    <glyph glyph-name="edotaccent" unicode="&#x117;" horiz-adv-x="562" 
d="M289 -10q-52 0 -97 15t-83 46t-60 85t-22 125q0 137 74 203t187 66q110 0 178.5 -64t68.5 -203q0 -23 -3 -40h-366q11 -122 125 -122q88 0 108 69h129q-19 -87 -82.5 -133.5t-156.5 -46.5zM166 309h231q-2 49 -29.5 79.5t-83.5 30.5q-103 0 -118 -110zM202 660
q0 32 24 55t56 23q33 0 56.5 -22.5t23.5 -55.5t-23.5 -56t-56.5 -23q-32 0 -56 23t-24 56z" />
    <glyph glyph-name="Eogonek" unicode="&#x118;" horiz-adv-x="567" 
d="M52 0v700h478v-130h-328v-157h298v-117h-298v-166h338v-130q-61 0 -94 -22t-33 -52q0 -26 21 -36.5t51 -0.5v-81q-18 -8 -47 -8t-59 9t-52 35t-22 65q0 55 44 91h-297z" />
    <glyph glyph-name="eogonek" unicode="&#x119;" horiz-adv-x="562" 
d="M357 -192q-17 -8 -46 -8t-59 9t-52 35t-22 65q0 53 40 88q-85 19 -138 84.5t-53 179.5q0 137 74 203t187 66q110 0 178.5 -64t68.5 -203q0 -23 -3 -40h-366q11 -122 125 -122q88 0 108 69h129q-15 -69 -59 -113t-109 -59l3 -3q-38 -8 -57.5 -27t-19.5 -42q0 -26 21 -36.5
t50 -0.5v-81zM166 309h231q-2 49 -29.5 79.5t-83.5 30.5q-103 0 -118 -110z" />
    <glyph glyph-name="Ecaron" unicode="&#x11a;" horiz-adv-x="567" 
d="M52 0v700h478v-130h-328v-157h298v-117h-298v-166h338v-130h-488zM98 898h131l68 -102l68 102h131l-97 -140h-204z" />
    <glyph glyph-name="ecaron" unicode="&#x11b;" horiz-adv-x="562" 
d="M289 -10q-52 0 -97 15t-83 46t-60 85t-22 125q0 137 74 203t187 66q110 0 178.5 -64t68.5 -203q0 -23 -3 -40h-366q11 -122 125 -122q88 0 108 69h129q-19 -87 -82.5 -133.5t-156.5 -46.5zM76 718h131l68 -102l68 102h131l-97 -140h-204zM166 309h231q-2 49 -29.5 79.5
t-83.5 30.5q-103 0 -118 -110z" />
    <glyph glyph-name="Gcircumflex" unicode="&#x11c;" horiz-adv-x="712" 
d="M364 -10q-157 0 -242 94.5t-85 262.5q0 171 87.5 266.5t236.5 95.5q117 0 199 -58.5t97 -172.5h-148q-26 102 -148 102q-89 0 -130.5 -62t-41.5 -166q0 -105 42.5 -169t132.5 -64q65 0 111 35t46 111h-135v120h284v-73q0 -157 -80.5 -239.5t-225.5 -82.5zM162 760l97 140
h204l97 -140h-131l-68 102l-68 -102h-131z" />
    <glyph glyph-name="gcircumflex" unicode="&#x11d;" horiz-adv-x="598" 
d="M279 -209q-31 0 -60 3.5t-63.5 15.5t-59 30.5t-41.5 52t-17 77.5h129q2 -34 34 -50t74 -16q55 0 90 28.5t35 86.5v65h-2q-20 -31 -60 -51t-91 -20q-41 0 -79 14.5t-70 43.5t-51.5 81t-19.5 120q0 130 65.5 194t154.5 64q51 0 91 -20t60 -51h2v61h146v-501q0 -68 -26 -116
t-69.5 -71t-84.5 -32t-87 -9zM90 580l97 140h204l97 -140h-131l-68 102l-68 -102h-131zM165 272q0 -67 34.5 -102t87.5 -35q51 0 85.5 35t34.5 102q0 66 -34.5 101.5t-85.5 35.5q-53 0 -87.5 -35t-34.5 -102z" />
    <glyph glyph-name="Gbreve" unicode="&#x11e;" horiz-adv-x="712" 
d="M364 -10q-157 0 -242 94.5t-85 262.5q0 171 87.5 266.5t236.5 95.5q117 0 199 -58.5t97 -172.5h-148q-26 102 -148 102q-89 0 -130.5 -62t-41.5 -166q0 -105 42.5 -169t132.5 -64q65 0 111 35t46 111h-135v120h284v-73q0 -157 -80.5 -239.5t-225.5 -82.5zM198 900h96
q1 -37 17 -53.5t49 -16.5t49 16.5t17 53.5h96q0 -72 -42 -113t-120 -41t-120 41t-42 113z" />
    <glyph glyph-name="gbreve" unicode="&#x11f;" horiz-adv-x="598" 
d="M279 -209q-31 0 -60 3.5t-63.5 15.5t-59 30.5t-41.5 52t-17 77.5h129q2 -34 34 -50t74 -16q55 0 90 28.5t35 86.5v65h-2q-20 -31 -60 -51t-91 -20q-41 0 -79 14.5t-70 43.5t-51.5 81t-19.5 120q0 130 65.5 194t154.5 64q51 0 91 -20t60 -51h2v61h146v-501q0 -68 -26 -116
t-69.5 -71t-84.5 -32t-87 -9zM126 720h96q1 -37 17 -53.5t49 -16.5t49 16.5t17 53.5h96q0 -72 -42 -113t-120 -41t-120 41t-42 113zM165 272q0 -67 34.5 -102t87.5 -35q51 0 85.5 35t34.5 102q0 66 -34.5 101.5t-85.5 35.5q-53 0 -87.5 -35t-34.5 -102z" />
    <glyph glyph-name="Gdotaccent" unicode="&#x120;" horiz-adv-x="712" 
d="M364 -10q-157 0 -242 94.5t-85 262.5q0 171 87.5 266.5t236.5 95.5q117 0 199 -58.5t97 -172.5h-148q-26 102 -148 102q-89 0 -130.5 -62t-41.5 -166q0 -105 42.5 -169t132.5 -64q65 0 111 35t46 111h-135v120h284v-73q0 -157 -80.5 -239.5t-225.5 -82.5zM282 840
q0 32 24 55t56 23q33 0 56.5 -22.5t23.5 -55.5t-23.5 -56t-56.5 -23q-32 0 -56 23t-24 56z" />
    <glyph glyph-name="gdotaccent" unicode="&#x121;" horiz-adv-x="598" 
d="M279 -209q-31 0 -60 3.5t-63.5 15.5t-59 30.5t-41.5 52t-17 77.5h129q2 -34 34 -50t74 -16q55 0 90 28.5t35 86.5v65h-2q-20 -31 -60 -51t-91 -20q-41 0 -79 14.5t-70 43.5t-51.5 81t-19.5 120q0 130 65.5 194t154.5 64q51 0 91 -20t60 -51h2v61h146v-501q0 -68 -26 -116
t-69.5 -71t-84.5 -32t-87 -9zM165 272q0 -67 34.5 -102t87.5 -35q51 0 85.5 35t34.5 102q0 66 -34.5 101.5t-85.5 35.5q-53 0 -87.5 -35t-34.5 -102zM210 660q0 32 24 55t56 23q33 0 56.5 -22.5t23.5 -55.5t-23.5 -56t-56.5 -23q-32 0 -56 23t-24 56z" />
    <glyph glyph-name="uni0122" unicode="&#x122;" horiz-adv-x="712" 
d="M364 -10q-157 0 -242 94.5t-85 262.5q0 171 87.5 266.5t236.5 95.5q117 0 199 -58.5t97 -172.5h-148q-26 102 -148 102q-89 0 -130.5 -62t-41.5 -166q0 -105 42.5 -169t132.5 -64q65 0 111 35t46 111h-135v120h284v-73q0 -157 -80.5 -239.5t-225.5 -82.5zM278 -117
q0 37 24.5 60t62.5 23q44 0 71.5 -32.5t27.5 -96.5q0 -77 -40.5 -120.5t-108.5 -43.5h-11v59q42 1 60 16t18 47q-49 1 -76.5 26t-27.5 62z" />
    <glyph glyph-name="uni0123" unicode="&#x123;" horiz-adv-x="598" 
d="M279 -209q-31 0 -60 3.5t-63.5 15.5t-59 30.5t-41.5 52t-17 77.5h129q2 -34 34 -50t74 -16q55 0 90 28.5t35 86.5v65h-2q-20 -31 -60 -51t-91 -20q-41 0 -79 14.5t-70 43.5t-51.5 81t-19.5 120q0 130 65.5 194t154.5 64q51 0 91 -20t60 -51h2v61h146v-501q0 -68 -26 -116
t-69.5 -71t-84.5 -32t-87 -9zM165 272q0 -67 34.5 -102t87.5 -35q51 0 85.5 35t34.5 102q0 66 -34.5 101.5t-85.5 35.5q-53 0 -87.5 -35t-34.5 -102zM177 697q0 77 40.5 120.5t108.5 43.5h11v-59q-42 -1 -60 -16t-18 -47q49 -1 76.5 -26t27.5 -62t-24.5 -60t-62.5 -23
q-44 0 -71.5 32.5t-27.5 96.5z" />
    <glyph glyph-name="Hcircumflex" unicode="&#x124;" horiz-adv-x="678" 
d="M476 0v288h-274v-288h-150v700h150v-288h274v288h150v-700h-150zM141 760l97 140h204l97 -140h-131l-68 102l-68 -102h-131z" />
    <glyph glyph-name="hcircumflex" unicode="&#x125;" 
d="M403 295q0 114 -96 114q-49 0 -79 -28.5t-30 -85.5v-295h-146v700h146v-289h6q8 45 50.5 82t115.5 37q79 0 129 -51.5t50 -148.5v-330h-146v295zM-74 760l97 140h204l97 -140h-131l-68 102l-68 -102h-131z" />
    <glyph glyph-name="Hbar" unicode="&#x126;" horiz-adv-x="678" 
d="M476 0v288h-274v-288h-150v700h150v-108h274v108h150v-700h-150zM202 412h274v56h-274v-56z" />
    <glyph glyph-name="hbar" unicode="&#x127;" horiz-adv-x="600" 
d="M-13 586v65h65v49h146v-49h144v-65h-144v-175h6q8 45 50.5 82t115.5 37q79 0 129 -51.5t50 -148.5v-330h-146v295q0 114 -96 114q-49 0 -79 -28.5t-30 -85.5v-295h-146v586h-65z" />
    <glyph glyph-name="Itilde" unicode="&#x128;" horiz-adv-x="254" 
d="M52 0v700h150v-700h-150zM-48 795q0 55 26 85.5t74 30.5q26 0 47 -8.5t32.5 -19t24.5 -19t25 -8.5q11 0 22 6.5t11 21.5h86q0 -55 -26 -85t-74 -30q-26 0 -47 8.5t-32.5 19t-24.5 19t-25 8.5q-11 0 -22 -6.5t-11 -22.5h-86z" />
    <glyph glyph-name="itilde" unicode="&#x129;" horiz-adv-x="236" 
d="M45 0v520h146v-520h-146zM-56 615q0 55 26 85.5t74 30.5q26 0 47 -8.5t32.5 -19t24.5 -19t25 -8.5q11 0 22 6.5t11 21.5h86q0 -55 -26 -85t-74 -30q-26 0 -47 8.5t-32.5 19t-24.5 19t-25 8.5q-11 0 -22 -6.5t-11 -22.5h-86z" />
    <glyph glyph-name="Imacron" unicode="&#x12a;" horiz-adv-x="254" 
d="M52 0v700h150v-700h-150zM-38 815v85h328v-85h-328z" />
    <glyph glyph-name="imacron" unicode="&#x12b;" horiz-adv-x="236" 
d="M45 0v520h146v-520h-146zM-46 635v85h328v-85h-328z" />
    <glyph glyph-name="Iogonek" unicode="&#x12e;" horiz-adv-x="254" 
d="M147 -192q-18 -8 -47 -8t-59 9t-52 35t-22 65q0 42 24 71t61 43v677h150v-700q-61 0 -94 -22t-33 -52q0 -26 21 -36.5t51 -0.5v-81z" />
    <glyph glyph-name="iogonek" unicode="&#x12f;" horiz-adv-x="236" 
d="M119 581q-32 0 -56 23t-24 56q0 32 24 55t56 23q33 0 56.5 -22.5t23.5 -55.5t-23.5 -56t-56.5 -23zM-44 -91q0 43 25 72.5t64 43.5v495h146v-520q-61 0 -94 -22t-33 -52q0 -26 21 -36.5t51 -0.5v-81q-18 -8 -47 -8t-59 9t-52 35t-22 65z" />
    <glyph glyph-name="Idotaccent" unicode="&#x130;" horiz-adv-x="254" 
d="M52 0v700h150v-700h-150zM47 840q0 32 24 55t56 23q33 0 56.5 -22.5t23.5 -55.5t-23.5 -56t-56.5 -23q-32 0 -56 23t-24 56z" />
    <glyph glyph-name="dotlessi" unicode="&#x131;" horiz-adv-x="236" 
d="M45 0v520h146v-520h-146z" />
    <glyph glyph-name="IJ" unicode="&#x132;" horiz-adv-x="929" 
d="M52 0v700h150v-700h-150zM306 266h151q0 -72 35.5 -109t99.5 -37q135 0 135 157v423h150v-435q0 -135 -77.5 -205t-208.5 -70t-208 70t-77 206z" />
    <glyph glyph-name="ij" unicode="&#x133;" horiz-adv-x="502" 
d="M52 0v520h146v-520h-146zM45 661q0 34 24 57.5t56 23.5t56 -23.5t24 -57.5q0 -33 -24 -56.5t-56 -23.5t-56 23.5t-24 56.5zM194 -192v114h51q59 0 59 68v530h146v-552q0 -163 -171 -163q-56 0 -85 3zM297 661q0 34 24 57.5t56 23.5t56 -23.5t24 -57.5q0 -33 -24 -56.5
t-56 -23.5t-56 23.5t-24 56.5z" />
    <glyph glyph-name="Jcircumflex" unicode="&#x134;" horiz-adv-x="675" 
d="M337 -10q-131 0 -208 70t-77 206h151q0 -72 35.5 -109t99.5 -37q135 0 135 157v423h150v-435q0 -135 -77.5 -205t-208.5 -70zM354 760l97 140h204l97 -140h-131l-68 102l-68 -102h-131z" />
    <glyph glyph-name="jcircumflex" unicode="&#x135;" horiz-adv-x="255" 
d="M39 -195q-56 0 -85 3v114h51q59 0 59 68v530h146v-552q0 -163 -171 -163zM-63 580l97 140h204l97 -140h-131l-68 102l-68 -102h-131z" />
    <glyph glyph-name="uni0136" unicode="&#x136;" horiz-adv-x="701" 
d="M52 0v700h150v-329l279 329h176l-268 -312l295 -388h-172l-215 281l-95 -111v-170h-150zM258 -117q0 37 24.5 60t62.5 23q44 0 71.5 -32.5t27.5 -96.5q0 -77 -40.5 -120.5t-108.5 -43.5h-11v59q42 1 60 16t18 47q-49 1 -76.5 26t-27.5 62z" />
    <glyph glyph-name="uni0137" unicode="&#x137;" horiz-adv-x="584" 
d="M52 0v700h146v-394l191 214h161l-210 -221l237 -299h-161l-166 205l-52 -55v-150h-146zM214 -117q0 37 24.5 60t62.5 23q44 0 71.5 -32.5t27.5 -96.5q0 -77 -40.5 -120.5t-108.5 -43.5h-11v59q42 1 60 16t18 47q-49 1 -76.5 26t-27.5 62z" />
    <glyph glyph-name="Lacute" unicode="&#x139;" horiz-adv-x="551" 
d="M52 0v700h150v-570h322v-130h-472zM56 760l105 140h127l-106 -140h-126z" />
    <glyph glyph-name="lacute" unicode="&#x13a;" horiz-adv-x="250" 
d="M52 0v700h146v-700h-146zM57 760l105 140h127l-106 -140h-126z" />
    <glyph glyph-name="uni013B" unicode="&#x13b;" horiz-adv-x="551" 
d="M52 0v700h150v-570h322v-130h-472zM194 -122q0 37 24.5 60t62.5 23q44 0 71.5 -32.5t27.5 -96.5q0 -77 -40.5 -120.5t-108.5 -43.5h-11v59q42 1 60 16t18 47q-49 1 -76.5 26t-27.5 62z" />
    <glyph glyph-name="uni013C" unicode="&#x13c;" horiz-adv-x="250" 
d="M52 0v700h146v-700h-146zM34 -117q0 37 24.5 60t62.5 23q44 0 71.5 -32.5t27.5 -96.5q0 -77 -40.5 -120.5t-108.5 -43.5h-11v59q42 1 60 16t18 47q-49 1 -76.5 26t-27.5 62z" />
    <glyph glyph-name="Lcaron" unicode="&#x13d;" horiz-adv-x="551" 
d="M52 0v700h150v-570h322v-130h-472zM292 625q0 37 24.5 60t62.5 23q44 0 71.5 -32.5t27.5 -96.5q0 -77 -40.5 -120.5t-108.5 -43.5h-11v59q42 1 60 16t18 47q-49 1 -76.5 26t-27.5 62z" />
    <glyph glyph-name="lcaron" unicode="&#x13e;" horiz-adv-x="330" 
d="M241 406l41 294h118l-42 -294h-117zM52 0v700h146v-700h-146z" />
    <glyph glyph-name="Lslash" unicode="&#x141;" horiz-adv-x="571" 
d="M12 130v146l60 64v360h150v-201l77 82h1v-145l-78 -83v-223h322v-130h-472v194z" />
    <glyph glyph-name="lslash" unicode="&#x142;" horiz-adv-x="265" 
d="M5 148v132l55 62v358h146v-192l53 60h1v-131l-54 -61v-376h-146v210z" />
    <glyph glyph-name="Nacute" unicode="&#x143;" horiz-adv-x="695" 
d="M52 0v700h156l282 -460h3v460h150v-700h-162l-276 451h-3v-451h-150zM280 760l105 140h127l-106 -140h-126z" />
    <glyph glyph-name="nacute" unicode="&#x144;" 
d="M403 295q0 114 -96 114q-49 0 -79 -28.5t-30 -85.5v-295h-146v520h146v-109h6q8 45 50.5 82t115.5 37q79 0 129 -51.5t50 -148.5v-330h-146v295zM233 580l105 140h127l-106 -140h-126z" />
    <glyph glyph-name="uni0145" unicode="&#x145;" horiz-adv-x="695" 
d="M52 0v700h156l282 -460h3v460h150v-700h-162l-276 451h-3v-451h-150zM257 -117q0 37 24.5 60t62.5 23q44 0 71.5 -32.5t27.5 -96.5q0 -77 -40.5 -120.5t-108.5 -43.5h-11v59q42 1 60 16t18 47q-49 1 -76.5 26t-27.5 62z" />
    <glyph glyph-name="uni0146" unicode="&#x146;" 
d="M403 295q0 114 -96 114q-49 0 -79 -28.5t-30 -85.5v-295h-146v520h146v-109h6q8 45 50.5 82t115.5 37q79 0 129 -51.5t50 -148.5v-330h-146v295zM210 -117q0 37 24.5 60t62.5 23q44 0 71.5 -32.5t27.5 -96.5q0 -77 -40.5 -120.5t-108.5 -43.5h-11v59q42 1 60 16t18 47
q-49 1 -76.5 26t-27.5 62z" />
    <glyph glyph-name="Ncaron" unicode="&#x147;" horiz-adv-x="695" 
d="M52 0v700h156l282 -460h3v460h150v-700h-162l-276 451h-3v-451h-150zM143 898h131l68 -102l68 102h131l-97 -140h-204z" />
    <glyph glyph-name="ncaron" unicode="&#x148;" 
d="M403 295q0 114 -96 114q-49 0 -79 -28.5t-30 -85.5v-295h-146v520h146v-109h6q8 45 50.5 82t115.5 37q79 0 129 -51.5t50 -148.5v-330h-146v295zM96 718h131l68 -102l68 102h131l-97 -140h-204z" />
    <glyph glyph-name="Eng" unicode="&#x14a;" horiz-adv-x="695" 
d="M361 -220q-79 0 -130 27v135q67 -32 124 -32q103 0 130 92l-280 444h-3v-446h-150v700h152l286 -456h3v456h150v-644q0 -135 -77 -205.5t-205 -70.5z" />
    <glyph glyph-name="eng" unicode="&#x14b;" 
d="M387 -220q-65 0 -107 18v118q43 -12 67 -12q56 0 56 63v328q0 114 -96 114q-49 0 -79 -28.5t-30 -85.5v-295h-146v520h146v-81q19 39 65 65t106 26q81 0 130.5 -51t49.5 -149v-387q0 -82 -43 -122.5t-119 -40.5z" />
    <glyph glyph-name="Omacron" unicode="&#x14c;" horiz-adv-x="742" 
d="M371 -10q-151 0 -242.5 99.5t-91.5 260.5q0 162 91.5 260.5t242.5 98.5t242.5 -98.5t91.5 -260.5q0 -161 -91.5 -260.5t-242.5 -99.5zM191 350q0 -106 47.5 -168.5t132.5 -62.5t132.5 62.5t47.5 168.5t-47.5 168t-132.5 62t-132.5 -62t-47.5 -168zM207 815v85h328v-85
h-328z" />
    <glyph glyph-name="omacron" unicode="&#x14d;" horiz-adv-x="576" 
d="M288 -10q-108 0 -184.5 68.5t-76.5 201.5t76.5 201.5t184.5 68.5t184.5 -68.5t76.5 -201.5t-76.5 -201.5t-184.5 -68.5zM124 635v85h328v-85h-328zM164 260q0 -74 34 -111.5t90 -37.5t90 37.5t34 111.5t-34 111.5t-90 37.5t-90 -37.5t-34 -111.5z" />
    <glyph glyph-name="Ohungarumlaut" unicode="&#x150;" horiz-adv-x="742" 
d="M371 -10q-151 0 -242.5 99.5t-91.5 260.5q0 162 91.5 260.5t242.5 98.5t242.5 -98.5t91.5 -260.5q0 -161 -91.5 -260.5t-242.5 -99.5zM191 350q0 -106 47.5 -168.5t132.5 -62.5t132.5 62.5t47.5 168.5t-47.5 168t-132.5 62t-132.5 -62t-47.5 -168zM199 760l105 140h127
l-106 -140h-126zM381 760l105 140h127l-106 -140h-126z" />
    <glyph glyph-name="ohungarumlaut" unicode="&#x151;" horiz-adv-x="576" 
d="M288 -10q-108 0 -184.5 68.5t-76.5 201.5t76.5 201.5t184.5 68.5t184.5 -68.5t76.5 -201.5t-76.5 -201.5t-184.5 -68.5zM116 580l105 140h127l-106 -140h-126zM164 260q0 -74 34 -111.5t90 -37.5t90 37.5t34 111.5t-34 111.5t-90 37.5t-90 -37.5t-34 -111.5zM298 580
l105 140h127l-106 -140h-126z" />
    <glyph glyph-name="OE" unicode="&#x152;" horiz-adv-x="1068" 
d="M371 -10q-151 0 -242.5 99.5t-91.5 260.5q0 162 91.5 260.5t242.5 98.5q104 0 182 -49v40h478v-130h-328v-157h298v-117h-298v-166h338v-130h-488v39q-78 -49 -182 -49zM191 350q0 -106 47.5 -168.5t132.5 -62.5t132.5 62.5t47.5 168.5t-47.5 168t-132.5 62t-132.5 -62
t-47.5 -168z" />
    <glyph glyph-name="oe" unicode="&#x153;" horiz-adv-x="949" 
d="M288 -10q-108 0 -184.5 68.5t-76.5 201.5t76.5 201.5t184.5 68.5q117 0 191 -75q71 75 196 75q110 0 178.5 -64t68.5 -203q0 -23 -3 -40h-366q11 -122 125 -122q88 0 108 69h129q-19 -87 -82.5 -133.5t-156.5 -46.5q-126 0 -196 76q-73 -76 -192 -76zM164 260
q0 -74 34 -111.5t90 -37.5t90 37.5t34 111.5t-34 111.5t-90 37.5t-90 -37.5t-34 -111.5zM553 309h231q-2 49 -29 79.5t-84 30.5q-103 0 -118 -110z" />
    <glyph glyph-name="Racute" unicode="&#x154;" horiz-adv-x="661" 
d="M465 0q-10 21 -10 83v67q0 103 -110 103h-143v-253h-150v700h293q130 0 193.5 -57t63.5 -149q0 -122 -111 -172q66 -22 89.5 -64t23.5 -108v-67q0 -64 10 -83h-149zM202 374h138q52 0 81 25.5t29 73.5q0 96 -110 96h-138v-195zM213 760l105 140h127l-106 -140h-126z" />
    <glyph glyph-name="racute" unicode="&#x155;" horiz-adv-x="409" 
d="M52 0v520h146v-126h4q14 60 52 96t98 36q21 0 40 -5v-123q-24 3 -41 3q-65 0 -109 -41.5t-44 -129.5v-230h-146zM155 580l105 140h127l-106 -140h-126z" />
    <glyph glyph-name="uni0156" unicode="&#x156;" horiz-adv-x="661" 
d="M465 0q-10 21 -10 83v67q0 103 -110 103h-143v-253h-150v700h293q130 0 193.5 -57t63.5 -149q0 -122 -111 -172q66 -22 89.5 -64t23.5 -108v-67q0 -64 10 -83h-149zM190 -117q0 37 24.5 60t62.5 23q44 0 71.5 -32.5t27.5 -96.5q0 -77 -40.5 -120.5t-108.5 -43.5h-11v59
q42 1 60 16t18 47q-49 1 -76.5 26t-27.5 62zM202 374h138q52 0 81 25.5t29 73.5q0 96 -110 96h-138v-195z" />
    <glyph glyph-name="uni0157" unicode="&#x157;" horiz-adv-x="409" 
d="M52 0v520h146v-126h4q14 60 52 96t98 36q21 0 40 -5v-123q-24 3 -41 3q-65 0 -109 -41.5t-44 -129.5v-230h-146zM35 -117q0 37 24.5 60t62.5 23q44 0 71.5 -32.5t27.5 -96.5q0 -77 -40.5 -120.5t-108.5 -43.5h-11v59q42 1 60 16t18 47q-49 1 -76.5 26t-27.5 62z" />
    <glyph glyph-name="Rcaron" unicode="&#x158;" horiz-adv-x="661" 
d="M465 0q-10 21 -10 83v67q0 103 -110 103h-143v-253h-150v700h293q130 0 193.5 -57t63.5 -149q0 -122 -111 -172q66 -22 89.5 -64t23.5 -108v-67q0 -64 10 -83h-149zM76 898h131l68 -102l68 102h131l-97 -140h-204zM202 374h138q52 0 81 25.5t29 73.5q0 96 -110 96h-138
v-195z" />
    <glyph glyph-name="rcaron" unicode="&#x159;" horiz-adv-x="409" 
d="M52 0v520h146v-126h4q14 60 52 96t98 36q21 0 40 -5v-123q-24 3 -41 3q-65 0 -109 -41.5t-44 -129.5v-230h-146zM18 718h131l68 -102l68 102h131l-97 -140h-204z" />
    <glyph glyph-name="Sacute" unicode="&#x15a;" horiz-adv-x="651" 
d="M329 -10q-137 0 -214.5 62.5t-77.5 176.5h155q2 -51 35.5 -83t102.5 -32q59 0 92 24t33 67q0 35 -23.5 54t-73.5 29l-98 20q-204 39 -204 196q0 99 73 152t197 53q126 0 197.5 -55t71.5 -161h-154q1 45 -31.5 68.5t-86.5 23.5q-57 0 -83.5 -23.5t-26.5 -57.5
q0 -59 83 -76l90 -18q122 -25 175 -74t53 -130q0 -108 -78.5 -162t-206.5 -54zM250 760l105 140h127l-106 -140h-126z" />
    <glyph glyph-name="sacute" unicode="&#x15b;" horiz-adv-x="502" 
d="M247 -10q-106 0 -165 46t-60 135h131q7 -72 95 -72q82 0 82 54q0 36 -50 46l-96 20q-148 34 -148 152q0 75 58.5 117t154.5 42q103 0 157.5 -47.5t56.5 -132.5h-122q-8 71 -90 71q-73 0 -73 -46q0 -39 54 -50l98 -21q150 -33 150 -148q0 -83 -65.5 -124.5t-167.5 -41.5z
M181 580l105 140h127l-106 -140h-126z" />
    <glyph glyph-name="Scircumflex" unicode="&#x15c;" horiz-adv-x="651" 
d="M329 -10q-137 0 -214.5 62.5t-77.5 176.5h155q2 -51 35.5 -83t102.5 -32q59 0 92 24t33 67q0 35 -23.5 54t-73.5 29l-98 20q-204 39 -204 196q0 99 73 152t197 53q126 0 197.5 -55t71.5 -161h-154q1 45 -31.5 68.5t-86.5 23.5q-57 0 -83.5 -23.5t-26.5 -57.5
q0 -59 83 -76l90 -18q122 -25 175 -74t53 -130q0 -108 -78.5 -162t-206.5 -54zM121 760l97 140h204l97 -140h-131l-68 102l-68 -102h-131z" />
    <glyph glyph-name="scircumflex" unicode="&#x15d;" horiz-adv-x="502" 
d="M247 -10q-106 0 -165 46t-60 135h131q7 -72 95 -72q82 0 82 54q0 36 -50 46l-96 20q-148 34 -148 152q0 75 58.5 117t154.5 42q103 0 157.5 -47.5t56.5 -132.5h-122q-8 71 -90 71q-73 0 -73 -46q0 -39 54 -50l98 -21q150 -33 150 -148q0 -83 -65.5 -124.5t-167.5 -41.5z
M51 580l97 140h204l97 -140h-131l-68 102l-68 -102h-131z" />
    <glyph glyph-name="Scedilla" unicode="&#x15e;" horiz-adv-x="651" 
d="M241 -180q29 -2 48 7.5t19 28.5q0 22 -22 29t-43 -7l-39 48l61 68q-108 14 -168 74.5t-60 160.5h155q2 -51 35.5 -83t102.5 -32q59 0 92 24t33 67q0 35 -23.5 54t-73.5 29l-98 20q-204 39 -204 196q0 99 73 152t197 53q126 0 197.5 -55t71.5 -161h-154q1 45 -31.5 68.5
t-86.5 23.5q-57 0 -83.5 -23.5t-26.5 -57.5q0 -59 83 -76l90 -18q122 -25 175 -74t53 -130q0 -102 -70 -155.5t-186 -59.5l-44 -43h7q38 0 62.5 -26.5t24.5 -67.5q0 -57 -48 -81.5t-119 -24.5v72z" />
    <glyph glyph-name="scedilla" unicode="&#x15f;" horiz-adv-x="502" 
d="M174 -180q29 -2 48 7.5t19 28.5q0 22 -22 29t-43 -7l-39 48l61 67q-84 10 -129.5 55t-46.5 123h131q7 -72 95 -72q82 0 82 54q0 36 -50 46l-96 20q-148 34 -148 152q0 75 58.5 117t154.5 42q103 0 157.5 -47.5t56.5 -132.5h-122q-8 71 -90 71q-73 0 -73 -46q0 -39 54 -50
l98 -21q150 -33 150 -148q0 -73 -51.5 -114t-136.5 -50l-45 -44h7q38 0 62.5 -26.5t24.5 -67.5q0 -57 -48 -81.5t-119 -24.5v72z" />
    <glyph glyph-name="Scaron" unicode="&#x160;" horiz-adv-x="651" 
d="M329 -10q-137 0 -214.5 62.5t-77.5 176.5h155q2 -51 35.5 -83t102.5 -32q59 0 92 24t33 67q0 35 -23.5 54t-73.5 29l-98 20q-204 39 -204 196q0 99 73 152t197 53q126 0 197.5 -55t71.5 -161h-154q1 45 -31.5 68.5t-86.5 23.5q-57 0 -83.5 -23.5t-26.5 -57.5
q0 -59 83 -76l90 -18q122 -25 175 -74t53 -130q0 -108 -78.5 -162t-206.5 -54zM114 898h131l68 -102l68 102h131l-97 -140h-204z" />
    <glyph glyph-name="scaron" unicode="&#x161;" horiz-adv-x="502" 
d="M247 -10q-106 0 -165 46t-60 135h131q7 -72 95 -72q82 0 82 54q0 36 -50 46l-96 20q-148 34 -148 152q0 75 58.5 117t154.5 42q103 0 157.5 -47.5t56.5 -132.5h-122q-8 71 -90 71q-73 0 -73 -46q0 -39 54 -50l98 -21q150 -33 150 -148q0 -83 -65.5 -124.5t-167.5 -41.5z
M44 718h131l68 -102l68 102h131l-97 -140h-204z" />
    <glyph glyph-name="uni0162" unicode="&#x162;" horiz-adv-x="600" 
d="M225 0v567h-203v133h556v-133h-203v-567h-54l-53 -52h7q38 0 62.5 -26.5t24.5 -67.5q0 -57 -48 -81.5t-119 -24.5v72q29 -2 48 7.5t19 28.5q0 22 -22 29t-43 -7l-39 48z" />
    <glyph glyph-name="uni0163" unicode="&#x163;" horiz-adv-x="380" 
d="M17 407v113h88v134h146v-134h103v-113h-103v-230q0 -33 14 -50t52 -17q20 0 41 2v-109q-33 -8 -57 -9l-47 -46h7q38 0 62.5 -26.5t24.5 -67.5q0 -57 -48 -81.5t-119 -24.5v72q29 -2 48 7.5t19 28.5q0 22 -22 29t-43 -7l-39 48l67 74h4q-110 28 -110 156v251h-88z" />
    <glyph glyph-name="Tcaron" unicode="&#x164;" horiz-adv-x="600" 
d="M225 0v567h-203v133h556v-133h-203v-567h-150zM95 898h131l68 -102l68 102h131l-97 -140h-204z" />
    <glyph glyph-name="tcaron" unicode="&#x165;" horiz-adv-x="378" 
d="M278 -7q-173 0 -173 163v251h-88v113h88v134h146v-134h103v-113h-103v-230q0 -33 14 -50t52 -17q20 0 41 2v-109q-38 -10 -80 -10zM274 577l105 140h127l-106 -140h-126z" />
    <glyph glyph-name="Tbar" unicode="&#x166;" horiz-adv-x="600" 
d="M84 379v99h141v89h-203v133h556v-133h-203v-89h140v-99h-140v-379h-150v379h-141z" />
    <glyph glyph-name="tbar" unicode="&#x167;" horiz-adv-x="380" 
d="M17 246v113h88v48h-88v113h88v134h146v-134h103v-113h-103v-48h103v-113h-103v-69q0 -33 14 -50t52 -17q20 0 41 2v-109q-38 -10 -80 -10q-173 0 -173 163v90h-88z" />
    <glyph glyph-name="Utilde" unicode="&#x168;" horiz-adv-x="681" 
d="M341 -10q-134 0 -211.5 70t-77.5 206v434h151v-423q0 -77 36 -117t102 -40q65 0 101 40t36 117v423h151v-434q0 -136 -78 -206t-210 -70zM155 795q0 55 26 85.5t74 30.5q26 0 47 -8.5t32.5 -19t24.5 -19t25 -8.5q11 0 22 6.5t11 21.5h86q0 -55 -26 -85t-74 -30
q-26 0 -47 8.5t-32.5 19t-24.5 19t-25 8.5q-11 0 -22 -6.5t-11 -22.5h-86z" />
    <glyph glyph-name="utilde" unicode="&#x169;" 
d="M198 225q0 -114 96 -114q49 0 79 28.5t30 85.5v295h146v-520h-146v109h-6q-8 -45 -50.5 -82t-115.5 -37q-79 0 -129 51.5t-50 148.5v330h146v-295zM124 615q0 55 26 85.5t74 30.5q26 0 47 -8.5t32.5 -19t24.5 -19t25 -8.5q11 0 22 6.5t11 21.5h86q0 -55 -26 -85t-74 -30
q-26 0 -47 8.5t-32.5 19t-24.5 19t-25 8.5q-11 0 -22 -6.5t-11 -22.5h-86z" />
    <glyph glyph-name="Umacron" unicode="&#x16a;" horiz-adv-x="681" 
d="M341 -10q-134 0 -211.5 70t-77.5 206v434h151v-423q0 -77 36 -117t102 -40q65 0 101 40t36 117v423h151v-434q0 -136 -78 -206t-210 -70zM165 815v85h328v-85h-328z" />
    <glyph glyph-name="umacron" unicode="&#x16b;" 
d="M198 225q0 -114 96 -114q49 0 79 28.5t30 85.5v295h146v-520h-146v109h-6q-8 -45 -50.5 -82t-115.5 -37q-79 0 -129 51.5t-50 148.5v330h146v-295zM134 635v85h328v-85h-328z" />
    <glyph glyph-name="Ubreve" unicode="&#x16c;" horiz-adv-x="681" 
d="M341 -10q-134 0 -211.5 70t-77.5 206v434h151v-423q0 -77 36 -117t102 -40q65 0 101 40t36 117v423h151v-434q0 -136 -78 -206t-210 -70zM178 900h96q1 -37 17 -53.5t49 -16.5t49 16.5t17 53.5h96q0 -72 -42 -113t-120 -41t-120 41t-42 113z" />
    <glyph glyph-name="ubreve" unicode="&#x16d;" 
d="M198 225q0 -114 96 -114q49 0 79 28.5t30 85.5v295h146v-520h-146v109h-6q-8 -45 -50.5 -82t-115.5 -37q-79 0 -129 51.5t-50 148.5v330h146v-295zM136 720h96q1 -37 17 -53.5t49 -16.5t49 16.5t17 53.5h96q0 -72 -42 -113t-120 -41t-120 41t-42 113z" />
    <glyph glyph-name="Uring" unicode="&#x16e;" horiz-adv-x="681" 
d="M341 -10q-134 0 -211.5 70t-77.5 206v434h151v-423q0 -77 36 -117t102 -40q65 0 101 40t36 117v423h151v-434q0 -136 -78 -206t-210 -70zM225 838q0 42 30 71t73 29q44 0 74 -29t30 -71t-30 -71t-74 -29q-43 0 -73 29t-30 71zM293 838q0 -16 10 -25.5t25 -9.5t25.5 10
t10.5 25q0 16 -10.5 26t-25.5 10t-25 -10t-10 -26z" />
    <glyph glyph-name="uring" unicode="&#x16f;" 
d="M198 225q0 -114 96 -114q49 0 79 28.5t30 85.5v295h146v-520h-146v109h-6q-8 -45 -50.5 -82t-115.5 -37q-79 0 -129 51.5t-50 148.5v330h146v-295zM194 658q0 42 30 71t73 29q44 0 74 -29t30 -71t-30 -71t-74 -29q-43 0 -73 29t-30 71zM262 658q0 -16 10 -25.5t25 -9.5
t25.5 10t10.5 25q0 16 -10.5 26t-25.5 10t-25 -10t-10 -26z" />
    <glyph glyph-name="Uhungarumlaut" unicode="&#x170;" horiz-adv-x="681" 
d="M341 -10q-134 0 -211.5 70t-77.5 206v434h151v-423q0 -77 36 -117t102 -40q65 0 101 40t36 117v423h151v-434q0 -136 -78 -206t-210 -70zM168 760l105 140h127l-106 -140h-126zM350 760l105 140h127l-106 -140h-126z" />
    <glyph glyph-name="uhungarumlaut" unicode="&#x171;" 
d="M198 225q0 -114 96 -114q49 0 79 28.5t30 85.5v295h146v-520h-146v109h-6q-8 -45 -50.5 -82t-115.5 -37q-79 0 -129 51.5t-50 148.5v330h146v-295zM126 580l105 140h127l-106 -140h-126zM308 580l105 140h127l-106 -140h-126z" />
    <glyph glyph-name="Uogonek" unicode="&#x172;" horiz-adv-x="681" 
d="M404 -192q-17 -8 -46 -8t-59 9t-52 35t-22 65q0 53 40 88q-100 18 -156.5 86t-56.5 183v434h151v-423q0 -77 36 -117t102 -40q65 0 101 40t36 117v423h151v-434q0 -117 -58.5 -185.5t-160.5 -85.5q-38 -8 -57.5 -27t-19.5 -42q0 -26 21 -36.5t50 -0.5v-81z" />
    <glyph glyph-name="uogonek" unicode="&#x173;" 
d="M198 225q0 -114 96 -114q49 0 79 28.5t30 85.5v295h146v-520q-61 0 -94 -22t-33 -52q0 -26 21 -36.5t51 -0.5v-81q-18 -8 -47 -8t-59 9t-52 35t-22 65q0 43 25 72.5t64 43.5v84h-6q-8 -45 -50.5 -82t-115.5 -37q-79 0 -129 51.5t-50 148.5v330h146v-295z" />
    <glyph glyph-name="Wcircumflex" unicode="&#x174;" horiz-adv-x="1014" 
d="M204 0l-182 700h154l112 -489h7l135 489h154l135 -489h7l112 489h154l-182 -700h-156l-147 511l-147 -511h-156zM307 760l97 140h204l97 -140h-131l-68 102l-68 -102h-131z" />
    <glyph glyph-name="wcircumflex" unicode="&#x175;" horiz-adv-x="828" 
d="M156 0l-139 520h138l89 -379h4l103 379h126l103 -379h4l89 379h138l-139 -520h-163l-95 326l-94 -326h-164zM213 580l97 140h204l97 -140h-131l-68 102l-68 -102h-131z" />
    <glyph glyph-name="Ycircumflex" unicode="&#x176;" horiz-adv-x="705" 
d="M275 0v257l-253 443h170l160 -298l161 298h170l-253 -443v-257h-155zM152 760l97 140h204l97 -140h-131l-68 102l-68 -102h-131z" />
    <glyph glyph-name="ycircumflex" unicode="&#x177;" horiz-adv-x="579" 
d="M69 -77q48 -6 79.5 2.5t42 20.5t18.5 30q14 34 -1 71l-191 473h150l121 -336l124 336h150l-213 -524q-49 -122 -109 -165t-171 -31v123zM89 580l97 140h204l97 -140h-131l-68 102l-68 -102h-131z" />
    <glyph glyph-name="Ydieresis" unicode="&#x178;" horiz-adv-x="705" 
d="M275 0v257l-253 443h170l160 -298l161 298h170l-253 -443v-257h-155zM151 840q0 32 24 55t56 23q33 0 56.5 -22.5t23.5 -55.5t-23.5 -56t-56.5 -23q-32 0 -56 23t-24 56zM391 840q0 33 23.5 55.5t56.5 22.5q32 0 56 -23t24 -55q0 -33 -24 -56t-56 -23q-33 0 -56.5 23
t-23.5 56z" />
    <glyph glyph-name="Zacute" unicode="&#x179;" horiz-adv-x="621" 
d="M40 0v130l371 440h-363v130h529v-130l-372 -440h376v-130h-541zM252 760l105 140h127l-106 -140h-126z" />
    <glyph glyph-name="zacute" unicode="&#x17a;" horiz-adv-x="510" 
d="M40 0v122l255 276h-245v122h420v-122l-256 -276h256v-122h-430zM180 580l105 140h127l-106 -140h-126z" />
    <glyph glyph-name="Zdotaccent" unicode="&#x17b;" horiz-adv-x="621" 
d="M40 0v130l371 440h-363v130h529v-130l-372 -440h376v-130h-541zM242 840q0 32 24 55t56 23q33 0 56.5 -22.5t23.5 -55.5t-23.5 -56t-56.5 -23q-32 0 -56 23t-24 56z" />
    <glyph glyph-name="zdotaccent" unicode="&#x17c;" horiz-adv-x="510" 
d="M40 0v122l255 276h-245v122h420v-122l-256 -276h256v-122h-430zM170 660q0 32 24 55t56 23q33 0 56.5 -22.5t23.5 -55.5t-23.5 -56t-56.5 -23q-32 0 -56 23t-24 56z" />
    <glyph glyph-name="Zcaron" unicode="&#x17d;" horiz-adv-x="621" 
d="M40 0v130l371 440h-363v130h529v-130l-372 -440h376v-130h-541zM115 898h131l68 -102l68 102h131l-97 -140h-204z" />
    <glyph glyph-name="zcaron" unicode="&#x17e;" horiz-adv-x="510" 
d="M40 0v122l255 276h-245v122h420v-122l-256 -276h256v-122h-430zM43 718h131l68 -102l68 102h131l-97 -140h-204z" />
    <glyph glyph-name="uni018F" unicode="&#x18f;" horiz-adv-x="707" 
d="M344 -10q-145 0 -226 82.5t-81 239.5v73h478q-12 195 -169 195q-121 0 -147 -102h-149q15 114 97 172.5t199 58.5q148 0 236 -96t88 -266q0 -168 -85 -262.5t-241 -94.5zM187 265q0 -76 46 -111t111 -35q132 0 164 146h-321z" />
    <glyph glyph-name="florin" unicode="&#x192;" horiz-adv-x="314" 
d="M17 -65q39 0 51 23.5t12 70.5v268h-68v125h68v89q0 91 46 138t163 47v-125q-35 0 -49 -24t-14 -70v-55h63v-125h-63v-303q0 -97 -47 -140.5t-162 -43.5v125z" />
    <glyph glyph-name="Ohorn" unicode="&#x1a0;" horiz-adv-x="742" 
d="M371 -10q-151 0 -242.5 99.5t-91.5 260.5q0 162 91.5 260.5t242.5 98.5h221v79h124v-190h-92q81 -97 81 -248q0 -161 -91.5 -260.5t-242.5 -99.5zM191 350q0 -106 47.5 -168.5t132.5 -62.5t132.5 62.5t47.5 168.5t-47.5 168t-132.5 62t-132.5 -62t-47.5 -168z" />
    <glyph glyph-name="ohorn" unicode="&#x1a1;" horiz-adv-x="576" 
d="M288 -10q-108 0 -184.5 68.5t-76.5 201.5t76.5 201.5t184.5 68.5h156v78h117v-190h-53q41 -65 41 -158q0 -133 -76.5 -201.5t-184.5 -68.5zM164 260q0 -74 34 -111.5t90 -37.5t90 37.5t34 111.5t-34 111.5t-90 37.5t-90 -37.5t-34 -111.5z" />
    <glyph glyph-name="Uhorn" unicode="&#x1af;" horiz-adv-x="681" 
d="M341 -10q-134 0 -211.5 70t-77.5 206v434h151v-423q0 -77 36 -117t102 -40q65 0 101 40t36 117v423h142v88h123v-199h-114v-323q0 -136 -78 -206t-210 -70z" />
    <glyph glyph-name="uhorn" unicode="&#x1b0;" 
d="M198 225q0 -114 96 -114q49 0 79 28.5t30 85.5v295h142v88h123v-199h-119v-409h-146v109h-6q-8 -45 -50.5 -82t-115.5 -37q-79 0 -129 51.5t-50 148.5v330h146v-295z" />
    <glyph glyph-name="uni01CD" unicode="&#x1cd;" horiz-adv-x="733" 
d="M17 0l253 700h193l253 -700h-157l-45 131h-295l-45 -131h-157zM162 898h131l68 -102l68 102h131l-97 -140h-204zM257 242h219l-105 305h-9z" />
    <glyph glyph-name="uni01CE" unicode="&#x1ce;" horiz-adv-x="565" 
d="M194 -10q-71 0 -119 36.5t-48 111.5q0 41 15 70t44 45t57 24t68 14l88 13q37 5 50 14t13 30v7q0 70 -81 70q-89 0 -89 -69v-10h-137v24q0 160 230 160q116 0 168 -41.5t52 -127.5v-361h-139v92h-6q-5 -14 -15 -28.5t-28.5 -32.5t-50.5 -29.5t-72 -11.5zM84 718h131
l68 -102l68 102h131l-97 -140h-204zM173 150q0 -56 71 -56q50 0 84 27.5t34 59.5v58q-8 -12 -56 -20l-73 -13q-60 -9 -60 -56z" />
    <glyph glyph-name="uni01CF" unicode="&#x1cf;" horiz-adv-x="254" 
d="M52 0v700h150v-700h-150zM-79 898h131l68 -102l68 102h131l-97 -140h-204z" />
    <glyph glyph-name="uni01D0" unicode="&#x1d0;" horiz-adv-x="236" 
d="M45 0v520h146v-520h-146zM-87 718h131l68 -102l68 102h131l-97 -140h-204z" />
    <glyph glyph-name="uni01D1" unicode="&#x1d1;" horiz-adv-x="742" 
d="M371 -10q-151 0 -242.5 99.5t-91.5 260.5q0 162 91.5 260.5t242.5 98.5t242.5 -98.5t91.5 -260.5q0 -161 -91.5 -260.5t-242.5 -99.5zM166 898h131l68 -102l68 102h131l-97 -140h-204zM191 350q0 -106 47.5 -168.5t132.5 -62.5t132.5 62.5t47.5 168.5t-47.5 168
t-132.5 62t-132.5 -62t-47.5 -168z" />
    <glyph glyph-name="uni01D2" unicode="&#x1d2;" horiz-adv-x="576" 
d="M288 -10q-108 0 -184.5 68.5t-76.5 201.5t76.5 201.5t184.5 68.5t184.5 -68.5t76.5 -201.5t-76.5 -201.5t-184.5 -68.5zM83 718h131l68 -102l68 102h131l-97 -140h-204zM164 260q0 -74 34 -111.5t90 -37.5t90 37.5t34 111.5t-34 111.5t-90 37.5t-90 -37.5t-34 -111.5z
" />
    <glyph glyph-name="uni01D3" unicode="&#x1d3;" horiz-adv-x="681" 
d="M341 -10q-134 0 -211.5 70t-77.5 206v434h151v-423q0 -77 36 -117t102 -40q65 0 101 40t36 117v423h151v-434q0 -136 -78 -206t-210 -70zM135 898h131l68 -102l68 102h131l-97 -140h-204z" />
    <glyph glyph-name="uni01D4" unicode="&#x1d4;" 
d="M198 225q0 -114 96 -114q49 0 79 28.5t30 85.5v295h146v-520h-146v109h-6q-8 -45 -50.5 -82t-115.5 -37q-79 0 -129 51.5t-50 148.5v330h146v-295zM93 718h131l68 -102l68 102h131l-97 -140h-204z" />
    <glyph glyph-name="uni01D5" unicode="&#x1d5;" horiz-adv-x="681" 
d="M341 -10q-134 0 -211.5 70t-77.5 206v434h151v-423q0 -77 36 -117t102 -40q65 0 101 40t36 117v423h151v-434q0 -136 -78 -206t-210 -70zM140 840q0 32 24 55t56 23q33 0 56.5 -22.5t23.5 -55.5t-23.5 -56t-56.5 -23q-32 0 -56 23t-24 56zM176 979v85h328v-85h-328z
M380 840q0 33 23.5 55.5t56.5 22.5q32 0 56 -23t24 -55q0 -33 -24 -56t-56 -23q-33 0 -56.5 23t-23.5 56z" />
    <glyph glyph-name="uni01D6" unicode="&#x1d6;" 
d="M198 225q0 -114 96 -114q49 0 79 28.5t30 85.5v295h146v-520h-146v109h-6q-8 -45 -50.5 -82t-115.5 -37q-79 0 -129 51.5t-50 148.5v330h146v-295zM98 660q0 32 24 55t56 23q33 0 56.5 -22.5t23.5 -55.5t-23.5 -56t-56.5 -23q-32 0 -56 23t-24 56zM134 800v85h328v-85
h-328zM338 660q0 33 23.5 55.5t56.5 22.5q32 0 56 -23t24 -55q0 -33 -24 -56t-56 -23q-33 0 -56.5 23t-23.5 56z" />
    <glyph glyph-name="uni01D7" unicode="&#x1d7;" horiz-adv-x="681" 
d="M341 -10q-134 0 -211.5 70t-77.5 206v434h151v-423q0 -77 36 -117t102 -40q65 0 101 40t36 117v423h151v-434q0 -136 -78 -206t-210 -70zM140 840q0 32 24 55t56 23q33 0 56.5 -22.5t23.5 -55.5t-23.5 -56t-56.5 -23q-32 0 -56 23t-24 56zM265 948l105 140h127l-106 -140
h-126zM380 840q0 33 23.5 55.5t56.5 22.5q32 0 56 -23t24 -55q0 -33 -24 -56t-56 -23q-33 0 -56.5 23t-23.5 56z" />
    <glyph glyph-name="uni01D8" unicode="&#x1d8;" 
d="M198 225q0 -114 96 -114q49 0 79 28.5t30 85.5v295h146v-520h-146v109h-6q-8 -45 -50.5 -82t-115.5 -37q-79 0 -129 51.5t-50 148.5v330h146v-295zM98 660q0 32 24 55t56 23q33 0 56.5 -22.5t23.5 -55.5t-23.5 -56t-56.5 -23q-32 0 -56 23t-24 56zM223 768l105 140h127
l-106 -140h-126zM338 660q0 33 23.5 55.5t56.5 22.5q32 0 56 -23t24 -55q0 -33 -24 -56t-56 -23q-33 0 -56.5 23t-23.5 56z" />
    <glyph glyph-name="uni01D9" unicode="&#x1d9;" horiz-adv-x="681" 
d="M341 -10q-134 0 -211.5 70t-77.5 206v434h151v-423q0 -77 36 -117t102 -40q65 0 101 40t36 117v423h151v-434q0 -136 -78 -206t-210 -70zM140 840q0 32 24 55t56 23q33 0 56.5 -22.5t23.5 -55.5t-23.5 -56t-56.5 -23q-32 0 -56 23t-24 56zM142 1087h131l68 -102l68 102
h131l-97 -140h-204zM380 840q0 33 23.5 55.5t56.5 22.5q32 0 56 -23t24 -55q0 -33 -24 -56t-56 -23q-33 0 -56.5 23t-23.5 56z" />
    <glyph glyph-name="uni01DA" unicode="&#x1da;" 
d="M198 225q0 -114 96 -114q49 0 79 28.5t30 85.5v295h146v-520h-146v109h-6q-8 -45 -50.5 -82t-115.5 -37q-79 0 -129 51.5t-50 148.5v330h146v-295zM98 660q0 32 24 55t56 23q33 0 56.5 -22.5t23.5 -55.5t-23.5 -56t-56.5 -23q-32 0 -56 23t-24 56zM101 906h131l68 -102
l68 102h131l-97 -140h-204zM338 660q0 33 23.5 55.5t56.5 22.5q32 0 56 -23t24 -55q0 -33 -24 -56t-56 -23q-33 0 -56.5 23t-23.5 56z" />
    <glyph glyph-name="uni01DB" unicode="&#x1db;" horiz-adv-x="681" 
d="M341 -10q-134 0 -211.5 70t-77.5 206v434h151v-423q0 -77 36 -117t102 -40q65 0 101 40t36 117v423h151v-434q0 -136 -78 -206t-210 -70zM140 840q0 32 24 55t56 23q33 0 56.5 -22.5t23.5 -55.5t-23.5 -56t-56.5 -23q-32 0 -56 23t-24 56zM177 1088h126l106 -140h-127z
M380 840q0 33 23.5 55.5t56.5 22.5q32 0 56 -23t24 -55q0 -33 -24 -56t-56 -23q-33 0 -56.5 23t-23.5 56z" />
    <glyph glyph-name="uni01DC" unicode="&#x1dc;" 
d="M198 225q0 -114 96 -114q49 0 79 28.5t30 85.5v295h146v-520h-146v109h-6q-8 -45 -50.5 -82t-115.5 -37q-79 0 -129 51.5t-50 148.5v330h146v-295zM98 660q0 32 24 55t56 23q33 0 56.5 -22.5t23.5 -55.5t-23.5 -56t-56.5 -23q-32 0 -56 23t-24 56zM135 908h126l106 -140
h-127zM338 660q0 33 23.5 55.5t56.5 22.5q32 0 56 -23t24 -55q0 -33 -24 -56t-56 -23q-33 0 -56.5 23t-23.5 56z" />
    <glyph glyph-name="Gcaron" unicode="&#x1e6;" horiz-adv-x="712" 
d="M364 -10q-157 0 -242 94.5t-85 262.5q0 171 87.5 266.5t236.5 95.5q117 0 199 -58.5t97 -172.5h-148q-26 102 -148 102q-89 0 -130.5 -62t-41.5 -166q0 -105 42.5 -169t132.5 -64q65 0 111 35t46 111h-135v120h284v-73q0 -157 -80.5 -239.5t-225.5 -82.5zM162 898h131
l68 -102l68 102h131l-97 -140h-204z" />
    <glyph glyph-name="gcaron" unicode="&#x1e7;" horiz-adv-x="598" 
d="M279 -209q-31 0 -60 3.5t-63.5 15.5t-59 30.5t-41.5 52t-17 77.5h129q2 -34 34 -50t74 -16q55 0 90 28.5t35 86.5v65h-2q-20 -31 -60 -51t-91 -20q-41 0 -79 14.5t-70 43.5t-51.5 81t-19.5 120q0 130 65.5 194t154.5 64q51 0 91 -20t60 -51h2v61h146v-501q0 -68 -26 -116
t-69.5 -71t-84.5 -32t-87 -9zM90 718h131l68 -102l68 102h131l-97 -140h-204zM165 272q0 -67 34.5 -102t87.5 -35q51 0 85.5 35t34.5 102q0 66 -34.5 101.5t-85.5 35.5q-53 0 -87.5 -35t-34.5 -102z" />
    <glyph glyph-name="uni01E8" unicode="&#x1e8;" horiz-adv-x="701" 
d="M52 0v700h150v-329l279 329h176l-268 -312l295 -388h-172l-215 281l-95 -111v-170h-150zM152 898h131l68 -102l68 102h131l-97 -140h-204z" />
    <glyph glyph-name="uni01E9" unicode="&#x1e9;" horiz-adv-x="584" 
d="M52 0v700h146v-394l191 214h161l-210 -221l237 -299h-161l-166 205l-52 -55v-150h-146zM-76 898h131l68 -102l68 102h131l-97 -140h-204z" />
    <glyph glyph-name="uni01EA" unicode="&#x1ea;" horiz-adv-x="742" 
d="M430 -192q-18 -8 -47 -8t-59 9t-52 35t-22 65q0 54 42 89q-118 26 -186.5 120t-68.5 232q0 162 91.5 260.5t242.5 98.5t242.5 -98.5t91.5 -260.5q0 -143 -73 -238.5t-197 -116.5q-37 -8 -57 -27t-20 -42q0 -26 21 -36.5t51 -0.5v-81zM191 350q0 -106 47.5 -168.5
t132.5 -62.5t132.5 62.5t47.5 168.5t-47.5 168t-132.5 62t-132.5 -62t-47.5 -168z" />
    <glyph glyph-name="uni01EB" unicode="&#x1eb;" horiz-adv-x="576" 
d="M340 -192q-17 -8 -46 -8t-59 9t-52 35t-22 65q0 56 45 92q-79 23 -129 88t-50 171q0 133 76.5 201.5t184.5 68.5t184.5 -68.5t76.5 -201.5q0 -114 -57 -181t-146 -84q-38 -8 -57.5 -27t-19.5 -42q0 -26 21 -36.5t50 -0.5v-81zM164 260q0 -74 34 -111.5t90 -37.5t90 37.5
t34 111.5t-34 111.5t-90 37.5t-90 -37.5t-34 -111.5z" />
    <glyph glyph-name="uni0218" unicode="&#x218;" horiz-adv-x="651" 
d="M329 -10q-137 0 -214.5 62.5t-77.5 176.5h155q2 -51 35.5 -83t102.5 -32q59 0 92 24t33 67q0 35 -23.5 54t-73.5 29l-98 20q-204 39 -204 196q0 99 73 152t197 53q126 0 197.5 -55t71.5 -161h-154q1 45 -31.5 68.5t-86.5 23.5q-57 0 -83.5 -23.5t-26.5 -57.5
q0 -59 83 -76l90 -18q122 -25 175 -74t53 -130q0 -108 -78.5 -162t-206.5 -54zM224 -117q0 37 24.5 60t62.5 23q44 0 71.5 -32.5t27.5 -96.5q0 -77 -40.5 -120.5t-108.5 -43.5h-11v59q42 1 60 16t18 47q-49 1 -76.5 26t-27.5 62z" />
    <glyph glyph-name="uni0219" unicode="&#x219;" horiz-adv-x="502" 
d="M247 -10q-106 0 -165 46t-60 135h131q7 -72 95 -72q82 0 82 54q0 36 -50 46l-96 20q-148 34 -148 152q0 75 58.5 117t154.5 42q103 0 157.5 -47.5t56.5 -132.5h-122q-8 71 -90 71q-73 0 -73 -46q0 -39 54 -50l98 -21q150 -33 150 -148q0 -83 -65.5 -124.5t-167.5 -41.5z
M161 -126q0 37 24.5 60t62.5 23q44 0 71.5 -32.5t27.5 -96.5q0 -77 -40.5 -120.5t-108.5 -43.5h-11v59q42 1 60 16t18 47q-49 1 -76.5 26t-27.5 62z" />
    <glyph glyph-name="uni021A" unicode="&#x21a;" horiz-adv-x="600" 
d="M225 0v567h-203v133h556v-133h-203v-567h-150zM179 -117q0 37 24.5 60t62.5 23q44 0 71.5 -32.5t27.5 -96.5q0 -77 -40.5 -120.5t-108.5 -43.5h-11v59q42 1 60 16t18 47q-49 1 -76.5 26t-27.5 62z" />
    <glyph glyph-name="uni021B" unicode="&#x21b;" horiz-adv-x="380" 
d="M278 -7q-173 0 -173 163v251h-88v113h88v134h146v-134h103v-113h-103v-230q0 -33 14 -50t52 -17q20 0 41 2v-109q-38 -10 -80 -10zM164 -117q0 37 24.5 60t62.5 23q44 0 71.5 -32.5t27.5 -96.5q0 -77 -40.5 -120.5t-108.5 -43.5h-11v59q42 1 60 16t18 47q-49 1 -76.5 26
t-27.5 62z" />
    <glyph glyph-name="uni0237" unicode="&#x237;" horiz-adv-x="255" 
d="M39 -195q-56 0 -85 3v114h51q59 0 59 68v530h146v-552q0 -163 -171 -163z" />
    <glyph glyph-name="uni0259" unicode="&#x259;" horiz-adv-x="562" 
d="M274 -13q-110 0 -178.5 66t-68.5 208q0 17 3 33h367q-5 67 -35 97t-87 30q-89 0 -112 -71h-129q19 87 82.5 133.5t156.5 46.5q111 0 186.5 -66.5t75.5 -204.5t-74 -205t-187 -67zM165 215q2 -53 29 -85t84 -32q106 0 118 117h-231z" />
    <glyph glyph-name="circumflex" unicode="&#x2c6;" horiz-adv-x="398" 
d="M0 580l97 140h204l97 -140h-131l-68 102l-68 -102h-131z" />
    <glyph glyph-name="caron" unicode="&#x2c7;" horiz-adv-x="407" 
d="M0 718h131l68 -102l68 102h131l-97 -140h-204z" />
    <glyph glyph-name="breve" unicode="&#x2d8;" horiz-adv-x="334" 
d="M167 566q-78 0 -120 41t-42 113h96q1 -37 17 -53.5t49 -16.5t49 16.5t17 53.5h96q0 -72 -42 -113t-120 -41z" />
    <glyph glyph-name="dotaccent" unicode="&#x2d9;" horiz-adv-x="160" 
d="M80 581q-32 0 -56 23t-24 56q0 32 24 55t56 23q33 0 56.5 -22.5t23.5 -55.5t-23.5 -56t-56.5 -23z" />
    <glyph glyph-name="ring" unicode="&#x2da;" horiz-adv-x="207" 
d="M103 558q-43 0 -73 29t-30 71t30 71t73 29q44 0 74 -29t30 -71t-30 -71t-74 -29zM68 658q0 -16 10 -25.5t25 -9.5t25.5 10t10.5 25q0 16 -10.5 26t-25.5 10t-25 -10t-10 -26z" />
    <glyph glyph-name="ogonek" unicode="&#x2db;" horiz-adv-x="235" 
d="M180 -192q-18 -8 -47 -8t-59 9t-52 35t-22 65q0 58 44.5 91.5t96.5 33.5l94 -34q-61 0 -94 -22t-33 -52q0 -26 21 -36.5t51 -0.5v-81z" />
    <glyph glyph-name="tilde" unicode="&#x2dc;" horiz-adv-x="358" 
d="M253 589q-26 0 -47 8.5t-32.5 19t-24.5 19t-25 8.5q-11 0 -22 -6.5t-11 -22.5h-86q0 55 26 85.5t74 30.5q26 0 47 -8.5t32.5 -19t24.5 -19t25 -8.5q11 0 22 6.5t11 21.5h86q0 -55 -26 -85t-74 -30z" />
    <glyph glyph-name="hungarumlaut" unicode="&#x2dd;" horiz-adv-x="414" 
d="M182 580l105 140h127l-106 -140h-126zM0 580l105 140h127l-106 -140h-126z" />
    <glyph glyph-name="gravecomb" unicode="&#x300;" horiz-adv-x="0" 
d="M105 580l-105 140h126l106 -140h-127z" />
    <glyph glyph-name="acutecomb" unicode="&#x301;" horiz-adv-x="0" 
d="M0 580l105 140h127l-106 -140h-126z" />
    <glyph glyph-name="uni0302" unicode="&#x302;" horiz-adv-x="0" 
d="M0 580l97 140h204l97 -140h-131l-68 102l-68 -102h-131z" />
    <glyph glyph-name="tildecomb" unicode="&#x303;" horiz-adv-x="0" 
d="M253 589q-26 0 -47 8.5t-32.5 19t-24.5 19t-25 8.5q-11 0 -22 -6.5t-11 -22.5h-86q0 55 26 85.5t74 30.5q26 0 47 -8.5t32.5 -19t24.5 -19t25 -8.5q11 0 22 6.5t11 21.5h86q0 -55 -26 -85t-74 -30z" />
    <glyph glyph-name="uni0304" unicode="&#x304;" horiz-adv-x="0" 
d="M0 635v85h328v-85h-328z" />
    <glyph glyph-name="uni0306" unicode="&#x306;" horiz-adv-x="0" 
d="M167 566q-78 0 -120 41t-42 113h96q1 -37 17 -53.5t49 -16.5t49 16.5t17 53.5h96q0 -72 -42 -113t-120 -41z" />
    <glyph glyph-name="uni0307" unicode="&#x307;" horiz-adv-x="0" 
d="M80 581q-32 0 -56 23t-24 56q0 32 24 55t56 23q33 0 56.5 -22.5t23.5 -55.5t-23.5 -56t-56.5 -23z" />
    <glyph glyph-name="uni0308" unicode="&#x308;" horiz-adv-x="0" 
d="M320 581q-33 0 -56.5 23t-23.5 56t23.5 55.5t56.5 22.5q32 0 56 -23t24 -55q0 -33 -24 -56t-56 -23zM0 660q0 32 24 55t56 23q33 0 56.5 -22.5t23.5 -55.5t-23.5 -56t-56.5 -23q-32 0 -56 23t-24 56z" />
    <glyph glyph-name="hookabovecomb" unicode="&#x309;" horiz-adv-x="0" 
d="M123 628q43 1 43 35q0 15 -8.5 23t-21.5 8q-25 0 -28 -27h-74q0 53 31 78.5t73 25.5q45 0 76.5 -26.5t31.5 -75.5q0 -43 -25 -68.5t-64 -31.5z" />
    <glyph glyph-name="uni030A" unicode="&#x30a;" horiz-adv-x="0" 
d="M103 558q-43 0 -73 29t-30 71t30 71t73 29q44 0 74 -29t30 -71t-30 -71t-74 -29zM68 658q0 -16 10 -25.5t25 -9.5t25.5 10t10.5 25q0 16 -10.5 26t-25.5 10t-25 -10t-10 -26z" />
    <glyph glyph-name="uni030B" unicode="&#x30b;" horiz-adv-x="0" 
d="M182 580l105 140h127l-106 -140h-126zM0 580l105 140h127l-106 -140h-126z" />
    <glyph glyph-name="uni030C" unicode="&#x30c;" horiz-adv-x="0" 
d="M0 718h131l68 -102l68 102h131l-97 -140h-204z" />
    <glyph glyph-name="uni0312" unicode="&#x312;" horiz-adv-x="0" 
d="M192 633q-42 -1 -60 -16t-18 -47q49 -1 76.5 -26t27.5 -62t-24.5 -60t-62.5 -23q-44 0 -71.5 32.5t-27.5 96.5q0 77 40.5 120.5t108.5 43.5h11v-59z" />
    <glyph glyph-name="uni031B" unicode="&#x31b;" horiz-adv-x="0" 
d="M0 409v111h142v88h123v-199h-265z" />
    <glyph glyph-name="dotbelowcomb" unicode="&#x323;" horiz-adv-x="0" 
d="M138 -230q-36 0 -62 25.5t-26 61.5t26 61.5t62 25.5q37 0 63 -25.5t26 -61.5q0 -37 -26 -62t-63 -25z" />
    <glyph glyph-name="uni0326" unicode="&#x326;" horiz-adv-x="0" 
d="M13 -268q42 1 60 16t18 47q-49 1 -76.5 26t-27.5 62t24.5 60t62.5 23q44 0 71.5 -32.5t27.5 -96.5q0 -77 -40.5 -120.5t-108.5 -43.5h-11v59z" />
    <glyph glyph-name="uni0327" unicode="&#x327;" horiz-adv-x="0" 
d="M37 -180q29 -2 48 7.5t19 28.5q0 22 -22 29t-43 -7l-39 48l67 74h96l-53 -52h7q38 0 62.5 -26.5t24.5 -67.5q0 -57 -48 -81.5t-119 -24.5v72z" />
    <glyph glyph-name="uni0328" unicode="&#x328;" horiz-adv-x="0" 
d="M180 -192q-18 -8 -47 -8t-59 9t-52 35t-22 65q0 58 44.5 91.5t96.5 33.5l94 -34q-61 0 -94 -22t-33 -52q0 -26 21 -36.5t51 -0.5v-81z" />
    <glyph glyph-name="uni0394" unicode="&#x394;" horiz-adv-x="667" 
d="M17 0l316 713h1l316 -713h-633zM196 113h275l-137 338z" />
    <glyph glyph-name="uni03A9" unicode="&#x3a9;" horiz-adv-x="774" 
d="M57 0v118h98q-118 94 -118 243t105 247.5t245 98.5t245 -98.5t105 -247.5t-117 -243h97v-118h-265v158q66 29 100.5 84t34.5 119q0 88 -57.5 146.5t-142.5 58.5t-142 -58.5t-57 -146.5q0 -65 34.5 -119.5t100.5 -83.5v-158h-266z" />
    <glyph glyph-name="uni03BC" unicode="&#x3bc;" 
d="M52 -190v710h146v-295q0 -114 96 -114q47 0 78 29t31 85v295h146v-520h-146v81q-12 -40 -47 -65.5t-81 -25.5q-52 0 -77 26v-206h-146z" />
    <glyph glyph-name="pi" unicode="&#x3c0;" horiz-adv-x="723" 
d="M585 -6q-28 0 -52.5 6t-49 20.5t-39 46t-14.5 75.5v253h-142v-395h-146v395h-100v125h633v-125h-99v-219q0 -33 13.5 -46t41.5 -13t55 14v-111q-26 -26 -101 -26z" />
    <glyph glyph-name="uni0401" unicode="&#x401;" horiz-adv-x="567" 
d="M52 0v700h478v-130h-328v-157h298v-117h-298v-166h338v-130h-488zM101 840q0 32 24 55t56 23q33 0 56.5 -22.5t23.5 -55.5t-23.5 -56t-56.5 -23q-32 0 -56 23t-24 56zM341 840q0 33 23.5 55.5t56.5 22.5q32 0 56 -23t24 -55q0 -33 -24 -56t-56 -23q-33 0 -56.5 23
t-23.5 56z" />
    <glyph glyph-name="uni0403" unicode="&#x403;" horiz-adv-x="525" 
d="M52 0v700h451v-132h-298v-568h-153zM207 760l105 140h127l-106 -140h-126z" />
    <glyph glyph-name="uni0404" unicode="&#x404;" horiz-adv-x="688" 
d="M366 -10q-152 0 -240.5 95.5t-88.5 264.5q0 168 89 263.5t242 95.5q121 0 200.5 -63.5t89.5 -188.5h-146q-28 123 -149 123q-72 0 -114 -44t-54 -120h196v-122h-198q11 -81 53 -128t117 -47q121 0 149 124h146q-10 -126 -89.5 -189.5t-202.5 -63.5z" />
    <glyph glyph-name="uni0407" unicode="&#x407;" horiz-adv-x="254" 
d="M52 0v700h150v-700h-150zM-76 840q0 32 24 55t56 23q33 0 56.5 -22.5t23.5 -55.5t-23.5 -56t-56.5 -23q-32 0 -56 23t-24 56zM164 840q0 33 23.5 55.5t56.5 22.5q32 0 56 -23t24 -55q0 -33 -24 -56t-56 -23q-33 0 -56.5 23t-23.5 56z" />
    <glyph glyph-name="uni040C" unicode="&#x40c;" horiz-adv-x="701" 
d="M52 0v700h150v-329l279 329h176l-268 -312l295 -388h-172l-215 281l-95 -111v-170h-150zM284 760l105 140h127l-106 -140h-126z" />
    <glyph glyph-name="uni040E" unicode="&#x40e;" horiz-adv-x="607" 
d="M90 119q44 -5 71.5 3.5t36 19t17.5 29.5q15 38 -13 103l-180 426h169l111 -307l114 307h169l-223 -518q-53 -122 -110.5 -165t-161.5 -33v135zM141 900h96q1 -37 17 -53.5t49 -16.5t49 16.5t17 53.5h96q0 -72 -42 -113t-120 -41t-120 41t-42 113z" />
    <glyph glyph-name="uni0410" unicode="&#x410;" horiz-adv-x="733" 
d="M17 0l253 700h193l253 -700h-157l-45 131h-295l-45 -131h-157zM257 242h219l-105 305h-9z" />
    <glyph glyph-name="uni0411" unicode="&#x411;" horiz-adv-x="629" 
d="M52 0v700h451v-132h-298v-102h132q133 0 199 -62t66 -171t-66.5 -171t-198.5 -62h-285zM205 130h126q53 0 81 27t28 76q0 50 -28 77t-81 27h-126v-207z" />
    <glyph glyph-name="uni0412" unicode="&#x412;" horiz-adv-x="638" 
d="M52 0v700h284q114 0 170.5 -46.5t56.5 -128.5q0 -108 -101 -140q149 -40 149 -180q0 -91 -65.5 -148t-197.5 -57h-296zM202 126h141q59 0 86 27t27 69q0 44 -27 71.5t-86 27.5h-141v-195zM202 416h128q36 0 59.5 20t23.5 61q0 77 -83 77h-128v-158z" />
    <glyph glyph-name="uni0413" unicode="&#x413;" horiz-adv-x="525" 
d="M52 0v700h451v-132h-298v-568h-153z" />
    <glyph glyph-name="uni0414" unicode="&#x414;" horiz-adv-x="770" 
d="M17 -69v194h49q89 70 89 371v204h521v-575h67v-194h-146v69h-434v-69h-146zM227 125h296v443h-215v-72q0 -300 -81 -371z" />
    <glyph glyph-name="uni0415" unicode="&#x415;" horiz-adv-x="567" 
d="M52 0v700h478v-130h-328v-157h298v-117h-298v-166h338v-130h-488z" />
    <glyph glyph-name="uni0416" unicode="&#x416;" horiz-adv-x="1020" 
d="M829 0l-243 287v-287h-152v287l-243 -287h-174l295 353l-291 347h174l239 -281v281h152v-281l239 281h174l-291 -347l295 -353h-174z" />
    <glyph glyph-name="uni0417" unicode="&#x417;" horiz-adv-x="597" 
d="M291 -10q-131 0 -195.5 66.5t-63.5 181.5h138q1 -65 36.5 -95t89.5 -30q50 0 85.5 25t35.5 74q0 44 -32 71t-100 27h-41v105h35q115 0 115 85q0 42 -27.5 63t-69.5 21q-44 0 -74.5 -26.5t-31.5 -85.5h-136q0 112 63 174.5t182 62.5q108 0 172 -50t64 -134
q0 -64 -34.5 -103t-79.5 -50q49 -5 96 -47t47 -122q0 -94 -74.5 -153.5t-199.5 -59.5z" />
    <glyph glyph-name="uni0418" unicode="&#x418;" horiz-adv-x="695" 
d="M643 0h-150v451h-3l-276 -451h-162v700h150v-460h3l282 460h156v-700z" />
    <glyph glyph-name="uni0419" unicode="&#x419;" horiz-adv-x="695" 
d="M643 0h-150v451h-3l-276 -451h-162v700h150v-460h3l282 460h156v-700zM185 900h96q1 -37 17 -53.5t49 -16.5t49 16.5t17 53.5h96q0 -72 -42 -113t-120 -41t-120 41t-42 113z" />
    <glyph glyph-name="uni041A" unicode="&#x41a;" horiz-adv-x="701" 
d="M52 0v700h150v-329l279 329h176l-268 -312l295 -388h-172l-215 281l-95 -111v-170h-150z" />
    <glyph glyph-name="uni041B" unicode="&#x41b;" horiz-adv-x="685" 
d="M15 125q50 -1 76.5 19.5t26.5 82.5v473h515v-700h-153v568h-209v-348q0 -123 -70 -181t-186 -46v132z" />
    <glyph glyph-name="uni041C" unicode="&#x41c;" horiz-adv-x="849" 
d="M52 0v700h189l183 -496l184 496h189v-700h-150v441h-5l-162 -441h-112l-161 441h-5v-441h-150z" />
    <glyph glyph-name="uni041D" unicode="&#x41d;" horiz-adv-x="678" 
d="M476 0v288h-274v-288h-150v700h150v-288h274v288h150v-700h-150z" />
    <glyph glyph-name="uni041E" unicode="&#x41e;" horiz-adv-x="742" 
d="M371 -10q-151 0 -242.5 99.5t-91.5 260.5q0 162 91.5 260.5t242.5 98.5t242.5 -98.5t91.5 -260.5q0 -161 -91.5 -260.5t-242.5 -99.5zM191 350q0 -106 47.5 -168.5t132.5 -62.5t132.5 62.5t47.5 168.5t-47.5 168t-132.5 62t-132.5 -62t-47.5 -168z" />
    <glyph glyph-name="uni041F" unicode="&#x41f;" horiz-adv-x="678" 
d="M52 0v700h574v-700h-153v568h-268v-568h-153z" />
    <glyph glyph-name="uni0420" unicode="&#x420;" horiz-adv-x="629" 
d="M52 0v700h283q134 0 200.5 -63t66.5 -171q0 -107 -66.5 -170t-200.5 -63h-133v-233h-150zM202 363h128q60 0 89 27.5t29 75.5q0 104 -118 104h-128v-207z" />
    <glyph glyph-name="uni0421" unicode="&#x421;" horiz-adv-x="688" 
d="M366 -10q-152 0 -240.5 95.5t-88.5 264.5q0 168 89 263.5t242 95.5q121 0 200.5 -63.5t89.5 -188.5h-146q-28 123 -149 123q-87 0 -130 -63.5t-43 -166.5q0 -104 42.5 -167.5t130.5 -63.5q121 0 149 124h146q-10 -126 -89.5 -189.5t-202.5 -63.5z" />
    <glyph glyph-name="uni0422" unicode="&#x422;" horiz-adv-x="600" 
d="M225 0v567h-203v133h556v-133h-203v-567h-150z" />
    <glyph glyph-name="uni0423" unicode="&#x423;" horiz-adv-x="607" 
d="M90 119q44 -5 71.5 3.5t36 19t17.5 29.5q15 38 -13 103l-180 426h169l111 -307l114 307h169l-223 -518q-53 -122 -110.5 -165t-161.5 -33v135z" />
    <glyph glyph-name="uni0424" unicode="&#x424;" horiz-adv-x="738" 
d="M292 -15v80q-119 19 -187 94t-68 191q0 117 68 192t187 93v80h153v-80q120 -18 188 -93t68 -192q0 -116 -68.5 -191t-187.5 -94v-80h-153zM183 350q0 -61 27.5 -104t81.5 -60v328q-109 -34 -109 -164zM445 186q54 17 82 60t28 104q0 130 -110 164v-328z" />
    <glyph glyph-name="uni0425" unicode="&#x425;" horiz-adv-x="678" 
d="M493 0l-154 233l-154 -233h-168l238 361l-224 339h168l140 -212l140 212h168l-224 -339l238 -361h-168z" />
    <glyph glyph-name="uni0426" unicode="&#x426;" horiz-adv-x="712" 
d="M52 0v700h153v-568h268v568h153v-568h69v-273h-146v141h-497z" />
    <glyph glyph-name="uni0427" unicode="&#x427;" horiz-adv-x="658" 
d="M241 152q-96 0 -150 56.5t-54 177.5v314h153v-307q0 -106 112 -106q64 0 105 36t46 69v308h153v-700h-153v273q-16 -39 -72 -80t-140 -41z" />
    <glyph glyph-name="uni0428" unicode="&#x428;" horiz-adv-x="838" 
d="M52 0v700h153v-568h138v568h152v-568h138v568h153v-700h-734z" />
    <glyph glyph-name="uni0429" unicode="&#x429;" horiz-adv-x="870" 
d="M52 0v700h153v-568h138v568h152v-568h138v568h153v-568h67v-273h-146v141h-655z" />
    <glyph glyph-name="uni042A" unicode="&#x42a;" horiz-adv-x="682" 
d="M17 568v132h241v-234h128q135 0 202 -61.5t67 -171.5q0 -109 -67 -171t-202 -62h-281v568h-88zM258 130h126q53 0 81 27t28 76q0 50 -28 77t-81 27h-126v-207z" />
    <glyph glyph-name="uni042B" unicode="&#x42b;" horiz-adv-x="876" 
d="M52 0v700h153v-234h128q135 0 202 -61.5t67 -171.5q0 -109 -67 -171t-202 -62h-281zM205 130h126q53 0 81 27t28 76q0 50 -28 77t-81 27h-126v-207zM675 0v700h150v-700h-150z" />
    <glyph glyph-name="uni042C" unicode="&#x42c;" horiz-adv-x="629" 
d="M52 0v700h153v-234h128q135 0 202 -61.5t67 -171.5q0 -109 -67 -171t-202 -62h-281zM205 130h126q53 0 81 27t28 76q0 50 -28 77t-81 27h-126v-207z" />
    <glyph glyph-name="uni042D" unicode="&#x42d;" horiz-adv-x="685" 
d="M294 294v122h196q-12 76 -54 120t-114 44q-121 0 -149 -123h-146q10 125 89.5 188.5t200.5 63.5q153 0 242 -95.5t89 -263.5q0 -169 -88.5 -264.5t-240.5 -95.5q-123 0 -202.5 63.5t-89.5 189.5h146q28 -124 149 -124q75 0 117 47t53 128h-198z" />
    <glyph glyph-name="uni042E" unicode="&#x42e;" horiz-adv-x="998" 
d="M52 0v700h150v-288h95q17 136 105.5 216.5t224.5 80.5q151 0 242.5 -98.5t91.5 -260.5q0 -161 -91.5 -260.5t-242.5 -99.5q-135 0 -224 81t-106 217h-95v-288h-150zM447 350q0 -106 47.5 -168.5t132.5 -62.5t132.5 62.5t47.5 168.5t-47.5 168t-132.5 62t-132.5 -62
t-47.5 -168z" />
    <glyph glyph-name="uni042F" unicode="&#x42f;" horiz-adv-x="636" 
d="M584 0h-150v233h-126l-133 -233h-148l147 252q-140 51 -140 214q0 108 66.5 171t200.5 63h283v-700zM188 466q0 -48 29 -75.5t89 -27.5h128v207h-128q-118 0 -118 -104z" />
    <glyph glyph-name="uni0430" unicode="&#x430;" horiz-adv-x="555" 
d="M195 -10q-70 0 -119 35.5t-49 108.5q0 40 15.5 68.5t43.5 44t55.5 23.5t64.5 12l100 13q33 4 42.5 14.5t9.5 36.5v6q0 40 -20.5 55.5t-57.5 15.5q-85 0 -85 -67v-6h-138v20q0 160 227 160q116 0 168 -41.5t52 -129.5v-224q0 -25 7.5 -32t26.5 -8v-86q-18 -15 -60 -15
q-48 0 -80.5 21.5t-32.5 68.5v7h-5q-7 -31 -48.5 -66t-116.5 -35zM171 153q0 -24 18 -40.5t60 -16.5q52 0 80.5 27t28.5 57v55q-9 -11 -50 -16l-66 -10q-35 -6 -53 -18.5t-18 -37.5z" />
    <glyph glyph-name="uni0431" unicode="&#x431;" horiz-adv-x="581" 
d="M296 -9q-45 0 -87.5 16t-82.5 50.5t-64.5 100t-24.5 153.5v120q-1 139 59 204t177 65h33q52 0 78 22h129q-20 -75 -61 -105.5t-124 -30.5h-55q-45 0 -71 -29.5t-26 -72.5v-31q7 25 48.5 46.5t94.5 21.5q40 0 79 -14.5t75 -43.5t58.5 -82.5t22.5 -123.5q0 -72 -24.5 -126
t-64 -83t-82.5 -43t-87 -14zM178 257q0 -75 34 -111.5t85 -36.5t85 37t34 111q0 76 -34 115t-85 39t-85 -39t-34 -115z" />
    <glyph glyph-name="uni0432" unicode="&#x432;" horiz-adv-x="591" 
d="M52 0v520h274q89 0 143 -33t54 -98q0 -75 -73 -100q54 -16 84 -52t30 -86q0 -75 -61.5 -113t-147.5 -38h-303zM198 117h132q89 0 89 56q0 57 -90 57h-131v-113zM198 313h126q64 0 64 46q0 44 -63 44h-127v-90z" />
    <glyph glyph-name="uni0433" unicode="&#x433;" horiz-adv-x="440" 
d="M52 0v520h371v-114h-225v-406h-146z" />
    <glyph glyph-name="uni0434" unicode="&#x434;" horiz-adv-x="657" 
d="M149 0v-53h-132v167h48q31 31 39.5 88.5t8.5 169.5v148h477v-406h50v-167h-133v53h-358zM204 114h240v292h-185v-34q0 -105 -11 -166t-44 -92z" />
    <glyph glyph-name="uni0435" unicode="&#x435;" horiz-adv-x="562" 
d="M289 -10q-52 0 -97 15t-83 46t-60 85t-22 125q0 137 74 203t187 66q110 0 178.5 -64t68.5 -203q0 -23 -3 -40h-366q11 -122 125 -122q88 0 108 69h129q-19 -87 -82.5 -133.5t-156.5 -46.5zM166 309h231q-2 49 -29.5 79.5t-83.5 30.5q-103 0 -118 -110z" />
    <glyph glyph-name="uni0436" unicode="&#x436;" horiz-adv-x="886" 
d="M698 0l-182 192v-192h-146v193l-183 -193h-180l251 257l-246 263h181l177 -196v196h146v-196l177 196h180l-245 -263l251 -257h-181z" />
    <glyph glyph-name="uni0437" unicode="&#x437;" horiz-adv-x="538" 
d="M263 -9q-236 0 -236 207h130q0 -47 27 -74.5t83 -27.5q43 0 68.5 17.5t25.5 47.5q0 72 -121 72v74q103 1 103 59q0 28 -23 41.5t-56 13.5q-40 0 -64 -20.5t-24 -59.5h-132q0 91 57.5 138.5t162.5 47.5q96 0 156 -38t60 -108q0 -79 -88 -107q14 -3 28.5 -8.5t36.5 -19
t35.5 -38t13.5 -57.5q0 -75 -68.5 -117.5t-174.5 -42.5z" />
    <glyph glyph-name="uni0438" unicode="&#x438;" horiz-adv-x="612" 
d="M52 0v520h146v-315h4l210 315h148v-520h-146v305h-3l-205 -305h-154z" />
    <glyph glyph-name="uni0439" unicode="&#x439;" horiz-adv-x="612" 
d="M52 0v520h146v-315h4l210 315h148v-520h-146v305h-3l-205 -305h-154zM145 720h96q1 -37 17 -53.5t49 -16.5t49 16.5t17 53.5h96q0 -72 -42 -113t-120 -41t-120 41t-42 113z" />
    <glyph glyph-name="uni043A" unicode="&#x43a;" horiz-adv-x="581" 
d="M52 0v520h146v-204l182 204h165l-207 -222l236 -298h-159l-166 201l-51 -54v-147h-146z" />
    <glyph glyph-name="uni043B" unicode="&#x43b;" horiz-adv-x="624" 
d="M15 111q48 -1 76 23t28 90v296h453v-520h-145v406h-162v-189q0 -124 -66.5 -178t-183.5 -42v114z" />
    <glyph glyph-name="uni043C" unicode="&#x43c;" horiz-adv-x="744" 
d="M52 0v520h171l149 -350l149 350h171v-520h-146v292h-5l-116 -292h-106l-116 292h-5v-292h-146z" />
    <glyph glyph-name="uni043D" unicode="&#x43d;" horiz-adv-x="574" 
d="M52 0v520h146v-192h178v192h146v-520h-146v214h-178v-214h-146z" />
    <glyph glyph-name="uni043E" unicode="&#x43e;" horiz-adv-x="576" 
d="M288 -10q-108 0 -184.5 68.5t-76.5 201.5t76.5 201.5t184.5 68.5t184.5 -68.5t76.5 -201.5t-76.5 -201.5t-184.5 -68.5zM164 260q0 -74 34 -111.5t90 -37.5t90 37.5t34 111.5t-34 111.5t-90 37.5t-90 -37.5t-34 -111.5z" />
    <glyph glyph-name="uni043F" unicode="&#x43f;" horiz-adv-x="568" 
d="M52 0v520h464v-520h-146v406h-172v-406h-146z" />
    <glyph glyph-name="uni0440" unicode="&#x440;" horiz-adv-x="606" 
d="M52 -190v710h146v-75q15 36 56.5 60.5t96.5 24.5q92 0 160 -68.5t68 -201.5t-68 -201.5t-160 -68.5q-55 0 -96.5 24.5t-56.5 60.5v-265h-146zM192 260q0 -72 36 -110.5t88 -38.5q53 0 89 38.5t36 110.5t-36 110.5t-89 38.5q-52 0 -88 -38.5t-36 -110.5z" />
    <glyph glyph-name="uni0441" unicode="&#x441;" horiz-adv-x="557" 
d="M289 -10q-50 0 -95 15t-83.5 46t-61 84.5t-22.5 123.5t22.5 124t60.5 85t83.5 46.5t95.5 15.5q39 0 74 -9t71.5 -30.5t61 -65.5t31.5 -106h-132q-18 89 -107 89q-60 0 -91.5 -41t-31.5 -108t31.5 -107t91.5 -40q88 0 107 91h132q-6 -62 -30.5 -106.5t-61 -66.5t-72 -31
t-74.5 -9z" />
    <glyph glyph-name="uni0442" unicode="&#x442;" horiz-adv-x="530" 
d="M192 0v406h-162v114h470v-114h-162v-406h-146z" />
    <glyph glyph-name="uni0443" unicode="&#x443;" horiz-adv-x="579" 
d="M69 -77q48 -6 79.5 2.5t42 20.5t18.5 30q14 34 -1 71l-191 473h150l121 -336l124 336h150l-213 -524q-49 -122 -109 -165t-171 -31v123z" />
    <glyph glyph-name="uni0444" unicode="&#x444;" horiz-adv-x="614" 
d="M239 -190v189q-91 19 -151.5 82.5t-60.5 175.5q0 113 60.5 178.5t151.5 84.5v180h138v-180q90 -20 150 -85.5t60 -177.5q0 -111 -60.5 -176t-149.5 -83v-188h-138zM146 257q0 -120 93 -148v300q-93 -30 -93 -152zM377 109q91 30 91 148q0 121 -91 152v-300z" />
    <glyph glyph-name="uni0445" unicode="&#x445;" horiz-adv-x="580" 
d="M27 0l180 263l-169 257h157l95 -152l95 152h157l-169 -257l180 -263h-157l-106 158l-106 -158h-157z" />
    <glyph glyph-name="uni0446" unicode="&#x446;" horiz-adv-x="634" 
d="M52 0v520h146v-406h172v406h146v-406h66v-254h-140v140h-390z" />
    <glyph glyph-name="uni0447" unicode="&#x447;" horiz-adv-x="577" 
d="M216 134q-83 0 -136 49.5t-53 153.5v183h146v-165q0 -51 27 -75.5t72 -24.5q50 0 78.5 29t28.5 71v165h146v-520h-146v233q-7 -36 -49.5 -67.5t-113.5 -31.5z" />
    <glyph glyph-name="uni0448" unicode="&#x448;" horiz-adv-x="798" 
d="M52 0v520h146v-406h132v406h138v-406h132v406h146v-520h-694z" />
    <glyph glyph-name="uni0449" unicode="&#x449;" horiz-adv-x="863" 
d="M672 -140v140h-620v520h146v-406h132v406h138v-406h132v406h146v-406h65v-254h-139z" />
    <glyph glyph-name="uni044A" unicode="&#x44a;" horiz-adv-x="629" 
d="M17 406v114h236v-174h141q99 0 153.5 -46.5t54.5 -126.5q0 -81 -54.5 -127t-153.5 -46h-287v406h-90zM253 114h136q73 0 73 59t-73 59h-136v-118z" />
    <glyph glyph-name="uni044B" unicode="&#x44b;" horiz-adv-x="803" 
d="M52 0v520h146v-174h141q99 0 153.5 -46.5t54.5 -126.5q0 -81 -54.5 -127t-153.5 -46h-287zM198 114h136q73 0 73 59t-73 59h-136v-118zM605 0v520h146v-520h-146z" />
    <glyph glyph-name="uni044C" unicode="&#x44c;" horiz-adv-x="574" 
d="M52 0v520h146v-174h141q99 0 153.5 -46.5t54.5 -126.5q0 -81 -54.5 -127t-153.5 -46h-287zM198 114h136q73 0 73 59t-73 59h-136v-118z" />
    <glyph glyph-name="uni044D" unicode="&#x44d;" horiz-adv-x="554" 
d="M242 217v89h142q-9 47 -39 74.5t-79 27.5q-89 0 -107 -89h-132q7 62 31.5 106t61 65.5t71.5 30.5t74 9q50 0 95.5 -15.5t83.5 -46.5t60.5 -85t22.5 -124t-22.5 -123.5t-61 -84.5t-83.5 -46t-95 -15q-39 0 -74.5 9t-72 31t-61 66.5t-30.5 106.5h132q19 -91 107 -91
q50 0 80 28t39 77h-143z" />
    <glyph glyph-name="uni044E" unicode="&#x44e;" horiz-adv-x="796" 
d="M45 0v520h146v-203h60q17 105 89.5 159t167.5 54q108 0 184.5 -68.5t76.5 -201.5t-76.5 -201.5t-184.5 -68.5q-95 0 -167.5 54t-89.5 159h-60v-203h-146zM384 260q0 -74 34 -111.5t90 -37.5t90 37.5t34 111.5t-34 111.5t-90 37.5t-90 -37.5t-34 -111.5z" />
    <glyph glyph-name="uni044F" unicode="&#x44f;" horiz-adv-x="579" 
d="M162 182q-63 17 -96.5 60t-33.5 105q0 81 54.5 127t153.5 46h287v-520h-146v174h-75l-116 -174h-153zM172 347q0 -59 73 -59h136v118h-136q-73 0 -73 -59z" />
    <glyph glyph-name="uni0451" unicode="&#x451;" horiz-adv-x="562" 
d="M289 -10q-52 0 -97 15t-83 46t-60 85t-22 125q0 137 74 203t187 66q110 0 178.5 -64t68.5 -203q0 -23 -3 -40h-366q11 -122 125 -122q88 0 108 69h129q-19 -87 -82.5 -133.5t-156.5 -46.5zM79 660q0 32 24 55t56 23q33 0 56.5 -22.5t23.5 -55.5t-23.5 -56t-56.5 -23
q-32 0 -56 23t-24 56zM166 309h231q-2 49 -29.5 79.5t-83.5 30.5q-103 0 -118 -110zM319 660q0 33 23.5 55.5t56.5 22.5q32 0 56 -23t24 -55q0 -33 -24 -56t-56 -23q-33 0 -56.5 23t-23.5 56z" />
    <glyph glyph-name="uni0453" unicode="&#x453;" horiz-adv-x="440" 
d="M52 0v520h371v-114h-225v-406h-146zM154 580l105 140h127l-106 -140h-126z" />
    <glyph glyph-name="uni0454" unicode="&#x454;" horiz-adv-x="557" 
d="M289 -10q-50 0 -95 15t-83.5 46t-61 84.5t-22.5 123.5t22.5 124t60.5 85t83.5 46.5t95.5 15.5q39 0 74 -9t71.5 -30.5t61 -65.5t31.5 -106h-132q-18 89 -107 89q-49 0 -79 -27.5t-39 -74.5h142v-89h-143q9 -49 39 -77t80 -28q88 0 107 91h132q-6 -62 -30.5 -106.5
t-61 -66.5t-72 -31t-74.5 -9z" />
    <glyph glyph-name="uni0457" unicode="&#x457;" horiz-adv-x="236" 
d="M45 0v520h146v-520h-146zM-84 660q0 32 24 55t56 23q33 0 56.5 -22.5t23.5 -55.5t-23.5 -56t-56.5 -23q-32 0 -56 23t-24 56zM156 660q0 33 23.5 55.5t56.5 22.5q32 0 56 -23t24 -55q0 -33 -24 -56t-56 -23q-33 0 -56.5 23t-23.5 56z" />
    <glyph glyph-name="uni045C" unicode="&#x45c;" horiz-adv-x="581" 
d="M52 0v520h146v-204l182 204h165l-207 -222l236 -298h-159l-166 201l-51 -54v-147h-146zM222 580l105 140h127l-106 -140h-126z" />
    <glyph glyph-name="uni045E" unicode="&#x45e;" horiz-adv-x="579" 
d="M69 -77q48 -6 79.5 2.5t42 20.5t18.5 30q14 34 -1 71l-191 473h150l121 -336l124 336h150l-213 -524q-49 -122 -109 -165t-171 -31v123zM126 720h96q1 -37 17 -53.5t49 -16.5t49 16.5t17 53.5h96q0 -72 -42 -113t-120 -41t-120 41t-42 113z" />
    <glyph glyph-name="uni0490" unicode="&#x490;" horiz-adv-x="525" 
d="M52 0v700h299v100h152v-232h-298v-568h-153z" />
    <glyph glyph-name="uni0491" unicode="&#x491;" horiz-adv-x="440" 
d="M52 0v520h246v66h125v-180h-225v-406h-146z" />
    <glyph glyph-name="uni1E0C" unicode="&#x1e0c;" horiz-adv-x="685" 
d="M52 0v700h265q163 0 247 -90t84 -260t-84 -260t-247 -90h-265zM202 130h100q106 0 149.5 51.5t43.5 168.5t-43.5 168.5t-149.5 51.5h-100v-440zM254 -143q0 36 26 61.5t62 25.5q37 0 63 -25.5t26 -61.5q0 -37 -26 -62t-63 -25q-36 0 -62 25.5t-26 61.5z" />
    <glyph glyph-name="uni1E0D" unicode="&#x1e0d;" horiz-adv-x="606" 
d="M255 -10q-92 0 -160 68.5t-68 201.5t68 201.5t160 68.5q55 0 96.5 -24.5t56.5 -60.5v255h146v-700h-146v75q-15 -36 -56.5 -60.5t-96.5 -24.5zM165 260q0 -72 36 -110.5t89 -38.5q52 0 88 38.5t36 110.5t-36 110.5t-88 38.5q-53 0 -89 -38.5t-36 -110.5zM211 -143
q0 36 26 61.5t62 25.5q37 0 63 -25.5t26 -61.5q0 -37 -26 -62t-63 -25q-36 0 -62 25.5t-26 61.5z" />
    <glyph glyph-name="uni1E20" unicode="&#x1e20;" horiz-adv-x="712" 
d="M364 -10q-157 0 -242 94.5t-85 262.5q0 171 87.5 266.5t236.5 95.5q117 0 199 -58.5t97 -172.5h-148q-26 102 -148 102q-89 0 -130.5 -62t-41.5 -166q0 -105 42.5 -169t132.5 -64q65 0 111 35t46 111h-135v120h284v-73q0 -157 -80.5 -239.5t-225.5 -82.5zM196 815v85h328
v-85h-328z" />
    <glyph glyph-name="uni1E21" unicode="&#x1e21;" horiz-adv-x="598" 
d="M279 -209q-31 0 -60 3.5t-63.5 15.5t-59 30.5t-41.5 52t-17 77.5h129q2 -34 34 -50t74 -16q55 0 90 28.5t35 86.5v65h-2q-20 -31 -60 -51t-91 -20q-41 0 -79 14.5t-70 43.5t-51.5 81t-19.5 120q0 130 65.5 194t154.5 64q51 0 91 -20t60 -51h2v61h146v-501q0 -68 -26 -116
t-69.5 -71t-84.5 -32t-87 -9zM124 635v85h328v-85h-328zM165 272q0 -67 34.5 -102t87.5 -35q51 0 85.5 35t34.5 102q0 66 -34.5 101.5t-85.5 35.5q-53 0 -87.5 -35t-34.5 -102z" />
    <glyph glyph-name="uni1E24" unicode="&#x1e24;" horiz-adv-x="678" 
d="M476 0v288h-274v-288h-150v700h150v-288h274v288h150v-700h-150zM250 -143q0 36 26 61.5t62 25.5q37 0 63 -25.5t26 -61.5q0 -37 -26 -62t-63 -25q-36 0 -62 25.5t-26 61.5z" />
    <glyph glyph-name="uni1E25" unicode="&#x1e25;" 
d="M403 295q0 114 -96 114q-49 0 -79 -28.5t-30 -85.5v-295h-146v700h146v-289h6q8 45 50.5 82t115.5 37q79 0 129 -51.5t50 -148.5v-330h-146v295zM202 -143q0 36 26 61.5t62 25.5q37 0 63 -25.5t26 -61.5q0 -37 -26 -62t-63 -25q-36 0 -62 25.5t-26 61.5z" />
    <glyph glyph-name="uni1E62" unicode="&#x1e62;" horiz-adv-x="651" 
d="M329 -10q-137 0 -214.5 62.5t-77.5 176.5h155q2 -51 35.5 -83t102.5 -32q59 0 92 24t33 67q0 35 -23.5 54t-73.5 29l-98 20q-204 39 -204 196q0 99 73 152t197 53q126 0 197.5 -55t71.5 -161h-154q1 45 -31.5 68.5t-86.5 23.5q-57 0 -83.5 -23.5t-26.5 -57.5
q0 -59 83 -76l90 -18q122 -25 175 -74t53 -130q0 -108 -78.5 -162t-206.5 -54zM227 -143q0 36 26 61.5t62 25.5q37 0 63 -25.5t26 -61.5q0 -37 -26 -62t-63 -25q-36 0 -62 25.5t-26 61.5z" />
    <glyph glyph-name="uni1E63" unicode="&#x1e63;" horiz-adv-x="502" 
d="M247 -10q-106 0 -165 46t-60 135h131q7 -72 95 -72q82 0 82 54q0 36 -50 46l-96 20q-148 34 -148 152q0 75 58.5 117t154.5 42q103 0 157.5 -47.5t56.5 -132.5h-122q-8 71 -90 71q-73 0 -73 -46q0 -39 54 -50l98 -21q150 -33 150 -148q0 -83 -65.5 -124.5t-167.5 -41.5z
M161 -143q0 36 26 61.5t62 25.5q37 0 63 -25.5t26 -61.5q0 -37 -26 -62t-63 -25q-36 0 -62 25.5t-26 61.5z" />
    <glyph glyph-name="uni1E6C" unicode="&#x1e6c;" horiz-adv-x="600" 
d="M225 0v567h-203v133h556v-133h-203v-567h-150zM181 -143q0 36 26 61.5t62 25.5q37 0 63 -25.5t26 -61.5q0 -37 -26 -62t-63 -25q-36 0 -62 25.5t-26 61.5z" />
    <glyph glyph-name="uni1E6D" unicode="&#x1e6d;" horiz-adv-x="380" 
d="M278 -7q-173 0 -173 163v251h-88v113h88v134h146v-134h103v-113h-103v-230q0 -33 14 -50t52 -17q20 0 41 2v-109q-38 -10 -80 -10zM167 -143q0 36 26 61.5t62 25.5q37 0 63 -25.5t26 -61.5q0 -37 -26 -62t-63 -25q-36 0 -62 25.5t-26 61.5z" />
    <glyph glyph-name="Wgrave" unicode="&#x1e80;" horiz-adv-x="1014" 
d="M204 0l-182 700h154l112 -489h7l135 489h154l135 -489h7l112 489h154l-182 -700h-156l-147 511l-147 -511h-156zM353 900h126l106 -140h-127z" />
    <glyph glyph-name="wgrave" unicode="&#x1e81;" horiz-adv-x="828" 
d="M156 0l-139 520h138l89 -379h4l103 379h126l103 -379h4l89 379h138l-139 -520h-163l-95 326l-94 -326h-164zM260 720h126l106 -140h-127z" />
    <glyph glyph-name="Wacute" unicode="&#x1e82;" horiz-adv-x="1014" 
d="M204 0l-182 700h154l112 -489h7l135 489h154l135 -489h7l112 489h154l-182 -700h-156l-147 511l-147 -511h-156zM439 760l105 140h127l-106 -140h-126z" />
    <glyph glyph-name="wacute" unicode="&#x1e83;" horiz-adv-x="828" 
d="M156 0l-139 520h138l89 -379h4l103 379h126l103 -379h4l89 379h138l-139 -520h-163l-95 326l-94 -326h-164zM345 580l105 140h127l-106 -140h-126z" />
    <glyph glyph-name="Wdieresis" unicode="&#x1e84;" horiz-adv-x="1014" 
d="M204 0l-182 700h154l112 -489h7l135 489h154l135 -489h7l112 489h154l-182 -700h-156l-147 511l-147 -511h-156zM305 840q0 32 24 55t56 23q33 0 56.5 -22.5t23.5 -55.5t-23.5 -56t-56.5 -23q-32 0 -56 23t-24 56zM545 840q0 33 23.5 55.5t56.5 22.5q32 0 56 -23t24 -55
q0 -33 -24 -56t-56 -23q-33 0 -56.5 23t-23.5 56z" />
    <glyph glyph-name="wdieresis" unicode="&#x1e85;" horiz-adv-x="828" 
d="M156 0l-139 520h138l89 -379h4l103 379h126l103 -379h4l89 379h138l-139 -520h-163l-95 326l-94 -326h-164zM212 660q0 32 24 55t56 23q33 0 56.5 -22.5t23.5 -55.5t-23.5 -56t-56.5 -23q-32 0 -56 23t-24 56zM452 660q0 33 23.5 55.5t56.5 22.5q32 0 56 -23t24 -55
q0 -33 -24 -56t-56 -23q-33 0 -56.5 23t-23.5 56z" />
    <glyph glyph-name="uni1E92" unicode="&#x1e92;" horiz-adv-x="621" 
d="M40 0v130l371 440h-363v130h529v-130l-372 -440h376v-130h-541zM232 -143q0 36 26 61.5t62 25.5q37 0 63 -25.5t26 -61.5q0 -37 -26 -62t-63 -25q-36 0 -62 25.5t-26 61.5z" />
    <glyph glyph-name="uni1E93" unicode="&#x1e93;" horiz-adv-x="510" 
d="M40 0v122l255 276h-245v122h420v-122l-256 -276h256v-122h-430zM167 -143q0 36 26 61.5t62 25.5q37 0 63 -25.5t26 -61.5q0 -37 -26 -62t-63 -25q-36 0 -62 25.5t-26 61.5z" />
    <glyph glyph-name="uni1E9E" unicode="&#x1e9e;" horiz-adv-x="733" 
d="M461 -10q-107 0 -160 57t-53 163h137q0 -37 17.5 -63.5t57.5 -26.5q39 0 57.5 27t18.5 66q0 109 -140 109h-115l149 257h-142q-45 0 -64 -20t-19 -63v-496h-153v512q0 103 54 151t166 48h374l-166 -269q97 -11 156.5 -68.5t59.5 -160.5q0 -101 -60.5 -162t-174.5 -61z
" />
    <glyph glyph-name="uni1EA0" unicode="&#x1ea0;" horiz-adv-x="733" 
d="M17 0l253 700h193l253 -700h-157l-45 131h-295l-45 -131h-157zM257 242h219l-105 305h-9zM279 -143q0 36 26 61.5t62 25.5q37 0 63 -25.5t26 -61.5q0 -37 -26 -62t-63 -25q-36 0 -62 25.5t-26 61.5z" />
    <glyph glyph-name="uni1EA1" unicode="&#x1ea1;" horiz-adv-x="557" 
d="M194 -10q-71 0 -119 36.5t-48 111.5q0 41 15 70t44 45t57 24t68 14l88 13q37 5 50 14t13 30v7q0 70 -81 70q-89 0 -89 -69v-10h-137v24q0 160 230 160q116 0 168 -41.5t52 -127.5v-361h-139v92h-6q-5 -14 -15 -28.5t-28.5 -32.5t-50.5 -29.5t-72 -11.5zM173 150
q0 -56 71 -56q50 0 84 27.5t34 59.5v58q-8 -12 -56 -20l-73 -13q-60 -9 -60 -56zM192 -143q0 36 26 61.5t62 25.5q37 0 63 -25.5t26 -61.5q0 -37 -26 -62t-63 -25q-36 0 -62 25.5t-26 61.5z" />
    <glyph glyph-name="uni1EA2" unicode="&#x1ea2;" horiz-adv-x="733" 
d="M17 0l253 700h193l253 -700h-157l-45 131h-295l-45 -131h-157zM257 242h219l-105 305h-9zM268 847q0 53 31 78.5t73 25.5q45 0 76.5 -26.5t31.5 -75.5q0 -43 -25 -68.5t-64 -31.5l-34 59q43 1 43 35q0 15 -8.5 23t-21.5 8q-25 0 -28 -27h-74z" />
    <glyph glyph-name="uni1EA3" unicode="&#x1ea3;" horiz-adv-x="557" 
d="M194 -10q-71 0 -119 36.5t-48 111.5q0 41 15 70t44 45t57 24t68 14l88 13q37 5 50 14t13 30v7q0 70 -81 70q-89 0 -89 -69v-10h-137v24q0 160 230 160q116 0 168 -41.5t52 -127.5v-361h-139v92h-6q-5 -14 -15 -28.5t-28.5 -32.5t-50.5 -29.5t-72 -11.5zM173 150
q0 -56 71 -56q50 0 84 27.5t34 59.5v58q-8 -12 -56 -20l-73 -13q-60 -9 -60 -56zM185 667q0 53 31 78.5t73 25.5q45 0 76.5 -26.5t31.5 -75.5q0 -43 -25 -68.5t-64 -31.5l-34 59q43 1 43 35q0 15 -8.5 23t-21.5 8q-25 0 -28 -27h-74z" />
    <glyph glyph-name="uni1EA4" unicode="&#x1ea4;" horiz-adv-x="733" 
d="M17 0l253 700h193l253 -700h-157l-45 131h-295l-45 -131h-157zM170 760l97 140h204l97 -140h-131l-68 102l-68 -102h-131zM257 242h219l-105 305h-9zM524 860l105 140h127l-106 -140h-126z" />
    <glyph glyph-name="uni1EA5" unicode="&#x1ea5;" horiz-adv-x="557" 
d="M194 -10q-71 0 -119 36.5t-48 111.5q0 41 15 70t44 45t57 24t68 14l88 13q37 5 50 14t13 30v7q0 70 -81 70q-89 0 -89 -69v-10h-137v24q0 160 230 160q116 0 168 -41.5t52 -127.5v-361h-139v92h-6q-5 -14 -15 -28.5t-28.5 -32.5t-50.5 -29.5t-72 -11.5zM87 580l97 140
h204l97 -140h-131l-68 102l-68 -102h-131zM173 150q0 -56 71 -56q50 0 84 27.5t34 59.5v58q-8 -12 -56 -20l-73 -13q-60 -9 -60 -56zM442 680l105 140h127l-106 -140h-126z" />
    <glyph glyph-name="uni1EA6" unicode="&#x1ea6;" horiz-adv-x="733" 
d="M17 0l253 700h193l253 -700h-157l-45 131h-295l-45 -131h-157zM170 760l97 140h204l97 -140h-131l-68 102l-68 -102h-131zM257 242h219l-105 305h-9zM462 1000h126l91 -139h-127z" />
    <glyph glyph-name="uni1EA7" unicode="&#x1ea7;" horiz-adv-x="557" 
d="M194 -10q-71 0 -119 36.5t-48 111.5q0 41 15 70t44 45t57 24t68 14l88 13q37 5 50 14t13 30v7q0 70 -81 70q-89 0 -89 -69v-10h-137v24q0 160 230 160q116 0 168 -41.5t52 -127.5v-361h-139v92h-6q-5 -14 -15 -28.5t-28.5 -32.5t-50.5 -29.5t-72 -11.5zM87 580l97 140
h204l97 -140h-131l-68 102l-68 -102h-131zM173 150q0 -56 71 -56q50 0 84 27.5t34 59.5v58q-8 -12 -56 -20l-73 -13q-60 -9 -60 -56zM379 820h126l91 -139h-127z" />
    <glyph glyph-name="uni1EA8" unicode="&#x1ea8;" horiz-adv-x="733" 
d="M17 0l253 700h193l253 -700h-157l-45 131h-295l-45 -131h-157zM170 760l97 140h204l97 -140h-131l-68 102l-68 -102h-131zM257 242h219l-105 305h-9zM427 980q0 53 31 78.5t73 25.5q45 0 76.5 -26.5t31.5 -75.5q0 -43 -25 -68.5t-64 -31.5l-34 59q43 1 43 35
q0 15 -8.5 23t-21.5 8q-25 0 -28 -27h-74z" />
    <glyph glyph-name="uni1EA9" unicode="&#x1ea9;" horiz-adv-x="557" 
d="M194 -10q-71 0 -119 36.5t-48 111.5q0 41 15 70t44 45t57 24t68 14l88 13q37 5 50 14t13 30v7q0 70 -81 70q-89 0 -89 -69v-10h-137v24q0 160 230 160q116 0 168 -41.5t52 -127.5v-361h-139v92h-6q-5 -14 -15 -28.5t-28.5 -32.5t-50.5 -29.5t-72 -11.5zM87 580l97 140
h204l97 -140h-131l-68 102l-68 -102h-131zM173 150q0 -56 71 -56q50 0 84 27.5t34 59.5v58q-8 -12 -56 -20l-73 -13q-60 -9 -60 -56zM345 800q0 53 31 78.5t73 25.5q45 0 76.5 -26.5t31.5 -75.5q0 -43 -25 -68.5t-64 -31.5l-34 59q43 1 43 35q0 15 -8.5 23t-21.5 8
q-25 0 -28 -27h-74z" />
    <glyph glyph-name="uni1EAA" unicode="&#x1eaa;" horiz-adv-x="733" 
d="M17 0l253 700h193l253 -700h-157l-45 131h-295l-45 -131h-157zM170 760l97 140h204l97 -140h-131l-68 102l-68 -102h-131zM193 960q0 55 26 85.5t74 30.5q33 0 57.5 -14t41 -27.5t30.5 -13.5q11 0 22 6.5t11 21.5h86q0 -55 -26 -85t-74 -30q-33 0 -57.5 14t-41 27.5
t-30.5 13.5q-11 0 -22 -6.5t-11 -22.5h-86zM257 242h219l-105 305h-9z" />
    <glyph glyph-name="uni1EAB" unicode="&#x1eab;" horiz-adv-x="557" 
d="M194 -10q-71 0 -119 36.5t-48 111.5q0 41 15 70t44 45t57 24t68 14l88 13q37 5 50 14t13 30v7q0 70 -81 70q-89 0 -89 -69v-10h-137v24q0 160 230 160q116 0 168 -41.5t52 -127.5v-361h-139v92h-6q-5 -14 -15 -28.5t-28.5 -32.5t-50.5 -29.5t-72 -11.5zM87 580l97 140
h204l97 -140h-131l-68 102l-68 -102h-131zM111 780q0 55 26 85.5t74 30.5q33 0 57.5 -14t41 -27.5t30.5 -13.5q11 0 22 6.5t11 21.5h86q0 -55 -26 -85t-74 -30q-33 0 -57.5 14t-41 27.5t-30.5 13.5q-11 0 -22 -6.5t-11 -22.5h-86zM173 150q0 -56 71 -56q50 0 84 27.5
t34 59.5v58q-8 -12 -56 -20l-73 -13q-60 -9 -60 -56z" />
    <glyph glyph-name="uni1EAC" unicode="&#x1eac;" horiz-adv-x="733" 
d="M17 0l253 700h193l253 -700h-157l-45 131h-295l-45 -131h-157zM170 760l97 140h204l97 -140h-131l-68 102l-68 -102h-131zM257 242h219l-105 305h-9zM279 -143q0 36 26 61.5t62 25.5q37 0 63 -25.5t26 -61.5q0 -37 -26 -62t-63 -25q-36 0 -62 25.5t-26 61.5z" />
    <glyph glyph-name="uni1EAD" unicode="&#x1ead;" horiz-adv-x="557" 
d="M194 -10q-71 0 -119 36.5t-48 111.5q0 41 15 70t44 45t57 24t68 14l88 13q37 5 50 14t13 30v7q0 70 -81 70q-89 0 -89 -69v-10h-137v24q0 160 230 160q116 0 168 -41.5t52 -127.5v-361h-139v92h-6q-5 -14 -15 -28.5t-28.5 -32.5t-50.5 -29.5t-72 -11.5zM87 580l97 140
h204l97 -140h-131l-68 102l-68 -102h-131zM173 150q0 -56 71 -56q50 0 84 27.5t34 59.5v58q-8 -12 -56 -20l-73 -13q-60 -9 -60 -56zM192 -143q0 36 26 61.5t62 25.5q37 0 63 -25.5t26 -61.5q0 -37 -26 -62t-63 -25q-36 0 -62 25.5t-26 61.5z" />
    <glyph glyph-name="uni1EAE" unicode="&#x1eae;" horiz-adv-x="733" 
d="M17 0l253 700h193l253 -700h-157l-45 131h-295l-45 -131h-157zM205 900h96q1 -37 17 -53.5t49 -16.5t49 16.5t17 53.5h96q0 -72 -42 -113t-120 -41t-120 41t-42 113zM257 242h219l-105 305h-9zM292 930l105 140h127l-106 -140h-126z" />
    <glyph glyph-name="uni1EAF" unicode="&#x1eaf;" horiz-adv-x="557" 
d="M194 -10q-71 0 -119 36.5t-48 111.5q0 41 15 70t44 45t57 24t68 14l88 13q37 5 50 14t13 30v7q0 70 -81 70q-89 0 -89 -69v-10h-137v24q0 160 230 160q116 0 168 -41.5t52 -127.5v-361h-139v92h-6q-5 -14 -15 -28.5t-28.5 -32.5t-50.5 -29.5t-72 -11.5zM122 720h96
q1 -37 17 -53.5t49 -16.5t49 16.5t17 53.5h96q0 -72 -42 -113t-120 -41t-120 41t-42 113zM173 150q0 -56 71 -56q50 0 84 27.5t34 59.5v58q-8 -12 -56 -20l-73 -13q-60 -9 -60 -56zM209 750l105 140h127l-106 -140h-126z" />
    <glyph glyph-name="uni1EB0" unicode="&#x1eb0;" horiz-adv-x="733" 
d="M17 0l253 700h193l253 -700h-157l-45 131h-295l-45 -131h-157zM204 1070h126l106 -140h-127zM205 900h96q1 -37 17 -53.5t49 -16.5t49 16.5t17 53.5h96q0 -72 -42 -113t-120 -41t-120 41t-42 113zM257 242h219l-105 305h-9z" />
    <glyph glyph-name="uni1EB1" unicode="&#x1eb1;" horiz-adv-x="557" 
d="M194 -10q-71 0 -119 36.5t-48 111.5q0 41 15 70t44 45t57 24t68 14l88 13q37 5 50 14t13 30v7q0 70 -81 70q-89 0 -89 -69v-10h-137v24q0 160 230 160q116 0 168 -41.5t52 -127.5v-361h-139v92h-6q-5 -14 -15 -28.5t-28.5 -32.5t-50.5 -29.5t-72 -11.5zM120 890h126
l106 -140h-127zM122 720h96q1 -37 17 -53.5t49 -16.5t49 16.5t17 53.5h96q0 -72 -42 -113t-120 -41t-120 41t-42 113zM173 150q0 -56 71 -56q50 0 84 27.5t34 59.5v58q-8 -12 -56 -20l-73 -13q-60 -9 -60 -56z" />
    <glyph glyph-name="uni1EB2" unicode="&#x1eb2;" horiz-adv-x="733" 
d="M17 0l253 700h193l253 -700h-157l-45 131h-295l-45 -131h-157zM205 900h96q1 -37 17 -53.5t49 -16.5t49 16.5t17 53.5h96q0 -72 -42 -113t-120 -41t-120 41t-42 113zM226 978q0 53 31 78.5t73 25.5q45 0 76.5 -26.5t31.5 -75.5q0 -43 -25 -68.5t-64 -31.5l-34 59
q43 1 43 35q0 15 -8.5 23t-21.5 8q-25 0 -28 -27h-74zM257 242h219l-105 305h-9z" />
    <glyph glyph-name="uni1EB3" unicode="&#x1eb3;" horiz-adv-x="557" 
d="M194 -10q-71 0 -119 36.5t-48 111.5q0 41 15 70t44 45t57 24t68 14l88 13q37 5 50 14t13 30v7q0 70 -81 70q-89 0 -89 -69v-10h-137v24q0 160 230 160q116 0 168 -41.5t52 -127.5v-361h-139v92h-6q-5 -14 -15 -28.5t-28.5 -32.5t-50.5 -29.5t-72 -11.5zM122 720h96
q1 -37 17 -53.5t49 -16.5t49 16.5t17 53.5h96q0 -72 -42 -113t-120 -41t-120 41t-42 113zM143 798q0 53 31 78.5t73 25.5q45 0 76.5 -26.5t31.5 -75.5q0 -43 -25 -68.5t-64 -31.5l-34 59q43 1 43 35q0 15 -8.5 23t-21.5 8q-25 0 -28 -27h-74zM173 150q0 -56 71 -56
q50 0 84 27.5t34 59.5v58q-8 -12 -56 -20l-73 -13q-60 -9 -60 -56z" />
    <glyph glyph-name="uni1EB4" unicode="&#x1eb4;" horiz-adv-x="733" 
d="M17 0l253 700h193l253 -700h-157l-45 131h-295l-45 -131h-157zM193 965q0 55 26 85.5t74 30.5q26 0 47 -8.5t32.5 -19t24.5 -19t25 -8.5q11 0 22 6.5t11 21.5h86q0 -55 -26 -85t-74 -30q-26 0 -47 8.5t-32.5 19t-24.5 19t-25 8.5q-11 0 -22 -6.5t-11 -22.5h-86zM205 900
h96q1 -37 17 -53.5t49 -16.5t49 16.5t17 53.5h96q0 -72 -42 -113t-120 -41t-120 41t-42 113zM257 242h219l-105 305h-9z" />
    <glyph glyph-name="uni1EB5" unicode="&#x1eb5;" horiz-adv-x="557" 
d="M194 -10q-71 0 -119 36.5t-48 111.5q0 41 15 70t44 45t57 24t68 14l88 13q37 5 50 14t13 30v7q0 70 -81 70q-89 0 -89 -69v-10h-137v24q0 160 230 160q116 0 168 -41.5t52 -127.5v-361h-139v92h-6q-5 -14 -15 -28.5t-28.5 -32.5t-50.5 -29.5t-72 -11.5zM110 785
q0 55 26 85.5t74 30.5q26 0 47 -8.5t32.5 -19t24.5 -19t25 -8.5q11 0 22 6.5t11 21.5h86q0 -55 -26 -85t-74 -30q-26 0 -47 8.5t-32.5 19t-24.5 19t-25 8.5q-11 0 -22 -6.5t-11 -22.5h-86zM122 720h96q1 -37 17 -53.5t49 -16.5t49 16.5t17 53.5h96q0 -72 -42 -113t-120 -41
t-120 41t-42 113zM173 150q0 -56 71 -56q50 0 84 27.5t34 59.5v58q-8 -12 -56 -20l-73 -13q-60 -9 -60 -56z" />
    <glyph glyph-name="uni1EB6" unicode="&#x1eb6;" horiz-adv-x="733" 
d="M17 0l253 700h193l253 -700h-157l-45 131h-295l-45 -131h-157zM205 900h96q1 -37 17 -53.5t49 -16.5t49 16.5t17 53.5h96q0 -72 -42 -113t-120 -41t-120 41t-42 113zM257 242h219l-105 305h-9zM279 -143q0 36 26 61.5t62 25.5q37 0 63 -25.5t26 -61.5q0 -37 -26 -62
t-63 -25q-36 0 -62 25.5t-26 61.5z" />
    <glyph glyph-name="uni1EB7" unicode="&#x1eb7;" horiz-adv-x="557" 
d="M194 -10q-71 0 -119 36.5t-48 111.5q0 41 15 70t44 45t57 24t68 14l88 13q37 5 50 14t13 30v7q0 70 -81 70q-89 0 -89 -69v-10h-137v24q0 160 230 160q116 0 168 -41.5t52 -127.5v-361h-139v92h-6q-5 -14 -15 -28.5t-28.5 -32.5t-50.5 -29.5t-72 -11.5zM122 720h96
q1 -37 17 -53.5t49 -16.5t49 16.5t17 53.5h96q0 -72 -42 -113t-120 -41t-120 41t-42 113zM173 150q0 -56 71 -56q50 0 84 27.5t34 59.5v58q-8 -12 -56 -20l-73 -13q-60 -9 -60 -56zM192 -143q0 36 26 61.5t62 25.5q37 0 63 -25.5t26 -61.5q0 -37 -26 -62t-63 -25
q-36 0 -62 25.5t-26 61.5z" />
    <glyph glyph-name="uni1EB8" unicode="&#x1eb8;" horiz-adv-x="567" 
d="M52 0v700h478v-130h-328v-157h298v-117h-298v-166h338v-130h-488zM215 -143q0 36 26 61.5t62 25.5q37 0 63 -25.5t26 -61.5q0 -37 -26 -62t-63 -25q-36 0 -62 25.5t-26 61.5z" />
    <glyph glyph-name="uni1EB9" unicode="&#x1eb9;" horiz-adv-x="562" 
d="M289 -10q-52 0 -97 15t-83 46t-60 85t-22 125q0 137 74 203t187 66q110 0 178.5 -64t68.5 -203q0 -23 -3 -40h-366q11 -122 125 -122q88 0 108 69h129q-19 -87 -82.5 -133.5t-156.5 -46.5zM166 309h231q-2 49 -29.5 79.5t-83.5 30.5q-103 0 -118 -110zM195 -143
q0 36 26 61.5t62 25.5q37 0 63 -25.5t26 -61.5q0 -37 -26 -62t-63 -25q-36 0 -62 25.5t-26 61.5z" />
    <glyph glyph-name="uni1EBA" unicode="&#x1eba;" horiz-adv-x="567" 
d="M52 0v700h478v-130h-328v-157h298v-117h-298v-166h338v-130h-488zM203 847q0 53 31 78.5t73 25.5q45 0 76.5 -26.5t31.5 -75.5q0 -43 -25 -68.5t-64 -31.5l-34 59q43 1 43 35q0 15 -8.5 23t-21.5 8q-25 0 -28 -27h-74z" />
    <glyph glyph-name="uni1EBB" unicode="&#x1ebb;" horiz-adv-x="562" 
d="M289 -10q-52 0 -97 15t-83 46t-60 85t-22 125q0 137 74 203t187 66q110 0 178.5 -64t68.5 -203q0 -23 -3 -40h-366q11 -122 125 -122q88 0 108 69h129q-19 -87 -82.5 -133.5t-156.5 -46.5zM166 309h231q-2 49 -29.5 79.5t-83.5 30.5q-103 0 -118 -110zM181 667
q0 53 31 78.5t73 25.5q45 0 76.5 -26.5t31.5 -75.5q0 -43 -25 -68.5t-64 -31.5l-34 59q43 1 43 35q0 15 -8.5 23t-21.5 8q-25 0 -28 -27h-74z" />
    <glyph glyph-name="uni1EBC" unicode="&#x1ebc;" horiz-adv-x="567" 
d="M52 0v700h478v-130h-328v-157h298v-117h-298v-166h338v-130h-488zM129 795q0 55 26 85.5t74 30.5q26 0 47 -8.5t32.5 -19t24.5 -19t25 -8.5q11 0 22 6.5t11 21.5h86q0 -55 -26 -85t-74 -30q-26 0 -47 8.5t-32.5 19t-24.5 19t-25 8.5q-11 0 -22 -6.5t-11 -22.5h-86z" />
    <glyph glyph-name="uni1EBD" unicode="&#x1ebd;" horiz-adv-x="562" 
d="M289 -10q-52 0 -97 15t-83 46t-60 85t-22 125q0 137 74 203t187 66q110 0 178.5 -64t68.5 -203q0 -23 -3 -40h-366q11 -122 125 -122q88 0 108 69h129q-19 -87 -82.5 -133.5t-156.5 -46.5zM107 615q0 55 26 85.5t74 30.5q26 0 47 -8.5t32.5 -19t24.5 -19t25 -8.5
q11 0 22 6.5t11 21.5h86q0 -55 -26 -85t-74 -30q-26 0 -47 8.5t-32.5 19t-24.5 19t-25 8.5q-11 0 -22 -6.5t-11 -22.5h-86zM166 309h231q-2 49 -29.5 79.5t-83.5 30.5q-103 0 -118 -110z" />
    <glyph glyph-name="uni1EBE" unicode="&#x1ebe;" horiz-adv-x="567" 
d="M52 0v700h478v-130h-328v-157h298v-117h-298v-166h338v-130h-488zM105 760l97 140h204l97 -140h-131l-68 102l-68 -102h-131zM460 860l105 140h127l-106 -140h-126z" />
    <glyph glyph-name="uni1EBF" unicode="&#x1ebf;" horiz-adv-x="562" 
d="M289 -10q-52 0 -97 15t-83 46t-60 85t-22 125q0 137 74 203t187 66q110 0 178.5 -64t68.5 -203q0 -23 -3 -40h-366q11 -122 125 -122q88 0 108 69h129q-19 -87 -82.5 -133.5t-156.5 -46.5zM83 580l97 140h204l97 -140h-131l-68 102l-68 -102h-131zM166 309h231
q-2 49 -29.5 79.5t-83.5 30.5q-103 0 -118 -110zM438 680l105 140h127l-106 -140h-126z" />
    <glyph glyph-name="uni1EC0" unicode="&#x1ec0;" horiz-adv-x="567" 
d="M52 0v700h478v-130h-328v-157h298v-117h-298v-166h338v-130h-488zM105 760l97 140h204l97 -140h-131l-68 102l-68 -102h-131zM397 1000h126l91 -139h-127z" />
    <glyph glyph-name="uni1EC1" unicode="&#x1ec1;" horiz-adv-x="562" 
d="M289 -10q-52 0 -97 15t-83 46t-60 85t-22 125q0 137 74 203t187 66q110 0 178.5 -64t68.5 -203q0 -23 -3 -40h-366q11 -122 125 -122q88 0 108 69h129q-19 -87 -82.5 -133.5t-156.5 -46.5zM83 580l97 140h204l97 -140h-131l-68 102l-68 -102h-131zM166 309h231
q-2 49 -29.5 79.5t-83.5 30.5q-103 0 -118 -110zM375 820h126l91 -139h-127z" />
    <glyph glyph-name="uni1EC2" unicode="&#x1ec2;" horiz-adv-x="567" 
d="M52 0v700h478v-130h-328v-157h298v-117h-298v-166h338v-130h-488zM105 760l97 140h204l97 -140h-131l-68 102l-68 -102h-131zM363 980q0 53 31 78.5t73 25.5q45 0 76.5 -26.5t31.5 -75.5q0 -43 -25 -68.5t-64 -31.5l-34 59q43 1 43 35q0 15 -8.5 23t-21.5 8
q-25 0 -28 -27h-74z" />
    <glyph glyph-name="uni1EC3" unicode="&#x1ec3;" horiz-adv-x="562" 
d="M289 -10q-52 0 -97 15t-83 46t-60 85t-22 125q0 137 74 203t187 66q110 0 178.5 -64t68.5 -203q0 -23 -3 -40h-366q11 -122 125 -122q88 0 108 69h129q-19 -87 -82.5 -133.5t-156.5 -46.5zM83 580l97 140h204l97 -140h-131l-68 102l-68 -102h-131zM166 309h231
q-2 49 -29.5 79.5t-83.5 30.5q-103 0 -118 -110zM341 800q0 53 31 78.5t73 25.5q45 0 76.5 -26.5t31.5 -75.5q0 -43 -25 -68.5t-64 -31.5l-34 59q43 1 43 35q0 15 -8.5 23t-21.5 8q-25 0 -28 -27h-74z" />
    <glyph glyph-name="uni1EC4" unicode="&#x1ec4;" horiz-adv-x="567" 
d="M52 0v700h478v-130h-328v-157h298v-117h-298v-166h338v-130h-488zM105 760l97 140h204l97 -140h-131l-68 102l-68 -102h-131zM129 960q0 55 26 85.5t74 30.5q33 0 57.5 -14t41 -27.5t30.5 -13.5q11 0 22 6.5t11 21.5h86q0 -55 -26 -85t-74 -30q-33 0 -57.5 14t-41 27.5
t-30.5 13.5q-11 0 -22 -6.5t-11 -22.5h-86z" />
    <glyph glyph-name="uni1EC5" unicode="&#x1ec5;" horiz-adv-x="562" 
d="M289 -10q-52 0 -97 15t-83 46t-60 85t-22 125q0 137 74 203t187 66q110 0 178.5 -64t68.5 -203q0 -23 -3 -40h-366q11 -122 125 -122q88 0 108 69h129q-19 -87 -82.5 -133.5t-156.5 -46.5zM83 580l97 140h204l97 -140h-131l-68 102l-68 -102h-131zM107 780q0 55 26 85.5
t74 30.5q33 0 57.5 -14t41 -27.5t30.5 -13.5q11 0 22 6.5t11 21.5h86q0 -55 -26 -85t-74 -30q-33 0 -57.5 14t-41 27.5t-30.5 13.5q-11 0 -22 -6.5t-11 -22.5h-86zM166 309h231q-2 49 -29.5 79.5t-83.5 30.5q-103 0 -118 -110z" />
    <glyph glyph-name="uni1EC6" unicode="&#x1ec6;" horiz-adv-x="567" 
d="M52 0v700h478v-130h-328v-157h298v-117h-298v-166h338v-130h-488zM105 760l97 140h204l97 -140h-131l-68 102l-68 -102h-131zM215 -143q0 36 26 61.5t62 25.5q37 0 63 -25.5t26 -61.5q0 -37 -26 -62t-63 -25q-36 0 -62 25.5t-26 61.5z" />
    <glyph glyph-name="uni1EC7" unicode="&#x1ec7;" horiz-adv-x="562" 
d="M289 -10q-52 0 -97 15t-83 46t-60 85t-22 125q0 137 74 203t187 66q110 0 178.5 -64t68.5 -203q0 -23 -3 -40h-366q11 -122 125 -122q88 0 108 69h129q-19 -87 -82.5 -133.5t-156.5 -46.5zM83 580l97 140h204l97 -140h-131l-68 102l-68 -102h-131zM166 309h231
q-2 49 -29.5 79.5t-83.5 30.5q-103 0 -118 -110zM195 -143q0 36 26 61.5t62 25.5q37 0 63 -25.5t26 -61.5q0 -37 -26 -62t-63 -25q-36 0 -62 25.5t-26 61.5z" />
    <glyph glyph-name="uni1EC8" unicode="&#x1ec8;" horiz-adv-x="254" 
d="M52 0v700h150v-700h-150zM26 847q0 53 31 78.5t73 25.5q45 0 76.5 -26.5t31.5 -75.5q0 -43 -25 -68.5t-64 -31.5l-34 59q43 1 43 35q0 15 -8.5 23t-21.5 8q-25 0 -28 -27h-74z" />
    <glyph glyph-name="uni1EC9" unicode="&#x1ec9;" horiz-adv-x="236" 
d="M45 0v520h146v-520h-146zM18 667q0 53 31 78.5t73 25.5q45 0 76.5 -26.5t31.5 -75.5q0 -43 -25 -68.5t-64 -31.5l-34 59q43 1 43 35q0 15 -8.5 23t-21.5 8q-25 0 -28 -27h-74z" />
    <glyph glyph-name="uni1ECA" unicode="&#x1eca;" horiz-adv-x="254" 
d="M52 0v700h150v-700h-150zM38 -143q0 36 26 61.5t62 25.5q37 0 63 -25.5t26 -61.5q0 -37 -26 -62t-63 -25q-36 0 -62 25.5t-26 61.5z" />
    <glyph glyph-name="uni1ECB" unicode="&#x1ecb;" horiz-adv-x="250" 
d="M52 0v520h146v-520h-146zM45 661q0 34 24 57.5t56 23.5t56 -23.5t24 -57.5q0 -33 -24 -56.5t-56 -23.5t-56 23.5t-24 56.5zM50 -143q0 36 26 61.5t62 25.5q37 0 63 -25.5t26 -61.5q0 -37 -26 -62t-63 -25q-36 0 -62 25.5t-26 61.5z" />
    <glyph glyph-name="uni1ECC" unicode="&#x1ecc;" horiz-adv-x="742" 
d="M371 -10q-151 0 -242.5 99.5t-91.5 260.5q0 162 91.5 260.5t242.5 98.5t242.5 -98.5t91.5 -260.5q0 -161 -91.5 -260.5t-242.5 -99.5zM191 350q0 -106 47.5 -168.5t132.5 -62.5t132.5 62.5t47.5 168.5t-47.5 168t-132.5 62t-132.5 -62t-47.5 -168zM283 -143q0 36 26 61.5
t62 25.5q37 0 63 -25.5t26 -61.5q0 -37 -26 -62t-63 -25q-36 0 -62 25.5t-26 61.5z" />
    <glyph glyph-name="uni1ECD" unicode="&#x1ecd;" horiz-adv-x="576" 
d="M288 -10q-108 0 -184.5 68.5t-76.5 201.5t76.5 201.5t184.5 68.5t184.5 -68.5t76.5 -201.5t-76.5 -201.5t-184.5 -68.5zM164 260q0 -74 34 -111.5t90 -37.5t90 37.5t34 111.5t-34 111.5t-90 37.5t-90 -37.5t-34 -111.5zM200 -143q0 36 26 61.5t62 25.5q37 0 63 -25.5
t26 -61.5q0 -37 -26 -62t-63 -25q-36 0 -62 25.5t-26 61.5z" />
    <glyph glyph-name="uni1ECE" unicode="&#x1ece;" horiz-adv-x="742" 
d="M371 -10q-151 0 -242.5 99.5t-91.5 260.5q0 162 91.5 260.5t242.5 98.5t242.5 -98.5t91.5 -260.5q0 -161 -91.5 -260.5t-242.5 -99.5zM191 350q0 -106 47.5 -168.5t132.5 -62.5t132.5 62.5t47.5 168.5t-47.5 168t-132.5 62t-132.5 -62t-47.5 -168zM271 847q0 53 31 78.5
t73 25.5q45 0 76.5 -26.5t31.5 -75.5q0 -43 -25 -68.5t-64 -31.5l-34 59q43 1 43 35q0 15 -8.5 23t-21.5 8q-25 0 -28 -27h-74z" />
    <glyph glyph-name="uni1ECF" unicode="&#x1ecf;" horiz-adv-x="576" 
d="M288 -10q-108 0 -184.5 68.5t-76.5 201.5t76.5 201.5t184.5 68.5t184.5 -68.5t76.5 -201.5t-76.5 -201.5t-184.5 -68.5zM164 260q0 -74 34 -111.5t90 -37.5t90 37.5t34 111.5t-34 111.5t-90 37.5t-90 -37.5t-34 -111.5zM188 667q0 53 31 78.5t73 25.5q45 0 76.5 -26.5
t31.5 -75.5q0 -43 -25 -68.5t-64 -31.5l-34 59q43 1 43 35q0 15 -8.5 23t-21.5 8q-25 0 -28 -27h-74z" />
    <glyph glyph-name="uni1ED0" unicode="&#x1ed0;" horiz-adv-x="742" 
d="M371 -10q-151 0 -242.5 99.5t-91.5 260.5q0 162 91.5 260.5t242.5 98.5t242.5 -98.5t91.5 -260.5q0 -161 -91.5 -260.5t-242.5 -99.5zM173 760l97 140h204l97 -140h-131l-68 102l-68 -102h-131zM191 350q0 -106 47.5 -168.5t132.5 -62.5t132.5 62.5t47.5 168.5t-47.5 168
t-132.5 62t-132.5 -62t-47.5 -168zM528 860l105 140h127l-106 -140h-126z" />
    <glyph glyph-name="uni1ED1" unicode="&#x1ed1;" horiz-adv-x="576" 
d="M288 -10q-108 0 -184.5 68.5t-76.5 201.5t76.5 201.5t184.5 68.5t184.5 -68.5t76.5 -201.5t-76.5 -201.5t-184.5 -68.5zM90 580l97 140h204l97 -140h-131l-68 102l-68 -102h-131zM164 260q0 -74 34 -111.5t90 -37.5t90 37.5t34 111.5t-34 111.5t-90 37.5t-90 -37.5
t-34 -111.5zM445 680l105 140h127l-106 -140h-126z" />
    <glyph glyph-name="uni1ED2" unicode="&#x1ed2;" horiz-adv-x="742" 
d="M371 -10q-151 0 -242.5 99.5t-91.5 260.5q0 162 91.5 260.5t242.5 98.5t242.5 -98.5t91.5 -260.5q0 -161 -91.5 -260.5t-242.5 -99.5zM173 760l97 140h204l97 -140h-131l-68 102l-68 -102h-131zM191 350q0 -106 47.5 -168.5t132.5 -62.5t132.5 62.5t47.5 168.5t-47.5 168
t-132.5 62t-132.5 -62t-47.5 -168zM465 1000h126l91 -139h-127z" />
    <glyph glyph-name="uni1ED3" unicode="&#x1ed3;" horiz-adv-x="576" 
d="M288 -10q-108 0 -184.5 68.5t-76.5 201.5t76.5 201.5t184.5 68.5t184.5 -68.5t76.5 -201.5t-76.5 -201.5t-184.5 -68.5zM90 580l97 140h204l97 -140h-131l-68 102l-68 -102h-131zM164 260q0 -74 34 -111.5t90 -37.5t90 37.5t34 111.5t-34 111.5t-90 37.5t-90 -37.5
t-34 -111.5zM382 820h126l91 -139h-127z" />
    <glyph glyph-name="uni1ED4" unicode="&#x1ed4;" horiz-adv-x="742" 
d="M371 -10q-151 0 -242.5 99.5t-91.5 260.5q0 162 91.5 260.5t242.5 98.5t242.5 -98.5t91.5 -260.5q0 -161 -91.5 -260.5t-242.5 -99.5zM173 760l97 140h204l97 -140h-131l-68 102l-68 -102h-131zM191 350q0 -106 47.5 -168.5t132.5 -62.5t132.5 62.5t47.5 168.5t-47.5 168
t-132.5 62t-132.5 -62t-47.5 -168zM431 980q0 53 31 78.5t73 25.5q45 0 76.5 -26.5t31.5 -75.5q0 -43 -25 -68.5t-64 -31.5l-34 59q43 1 43 35q0 15 -8.5 23t-21.5 8q-25 0 -28 -27h-74z" />
    <glyph glyph-name="uni1ED5" unicode="&#x1ed5;" horiz-adv-x="576" 
d="M288 -10q-108 0 -184.5 68.5t-76.5 201.5t76.5 201.5t184.5 68.5t184.5 -68.5t76.5 -201.5t-76.5 -201.5t-184.5 -68.5zM90 580l97 140h204l97 -140h-131l-68 102l-68 -102h-131zM164 260q0 -74 34 -111.5t90 -37.5t90 37.5t34 111.5t-34 111.5t-90 37.5t-90 -37.5
t-34 -111.5zM348 800q0 53 31 78.5t73 25.5q45 0 76.5 -26.5t31.5 -75.5q0 -43 -25 -68.5t-64 -31.5l-34 59q43 1 43 35q0 15 -8.5 23t-21.5 8q-25 0 -28 -27h-74z" />
    <glyph glyph-name="uni1ED6" unicode="&#x1ed6;" horiz-adv-x="742" 
d="M371 -10q-151 0 -242.5 99.5t-91.5 260.5q0 162 91.5 260.5t242.5 98.5t242.5 -98.5t91.5 -260.5q0 -161 -91.5 -260.5t-242.5 -99.5zM173 760l97 140h204l97 -140h-131l-68 102l-68 -102h-131zM191 350q0 -106 47.5 -168.5t132.5 -62.5t132.5 62.5t47.5 168.5t-47.5 168
t-132.5 62t-132.5 -62t-47.5 -168zM197 960q0 55 26 85.5t74 30.5q33 0 57.5 -14t41 -27.5t30.5 -13.5q11 0 22 6.5t11 21.5h86q0 -55 -26 -85t-74 -30q-33 0 -57.5 14t-41 27.5t-30.5 13.5q-11 0 -22 -6.5t-11 -22.5h-86z" />
    <glyph glyph-name="uni1ED7" unicode="&#x1ed7;" horiz-adv-x="576" 
d="M288 -10q-108 0 -184.5 68.5t-76.5 201.5t76.5 201.5t184.5 68.5t184.5 -68.5t76.5 -201.5t-76.5 -201.5t-184.5 -68.5zM90 580l97 140h204l97 -140h-131l-68 102l-68 -102h-131zM114 780q0 55 26 85.5t74 30.5q33 0 57.5 -14t41 -27.5t30.5 -13.5q11 0 22 6.5t11 21.5
h86q0 -55 -26 -85t-74 -30q-33 0 -57.5 14t-41 27.5t-30.5 13.5q-11 0 -22 -6.5t-11 -22.5h-86zM164 260q0 -74 34 -111.5t90 -37.5t90 37.5t34 111.5t-34 111.5t-90 37.5t-90 -37.5t-34 -111.5z" />
    <glyph glyph-name="uni1ED8" unicode="&#x1ed8;" horiz-adv-x="742" 
d="M371 -10q-151 0 -242.5 99.5t-91.5 260.5q0 162 91.5 260.5t242.5 98.5t242.5 -98.5t91.5 -260.5q0 -161 -91.5 -260.5t-242.5 -99.5zM173 760l97 140h204l97 -140h-131l-68 102l-68 -102h-131zM191 350q0 -106 47.5 -168.5t132.5 -62.5t132.5 62.5t47.5 168.5t-47.5 168
t-132.5 62t-132.5 -62t-47.5 -168zM283 -143q0 36 26 61.5t62 25.5q37 0 63 -25.5t26 -61.5q0 -37 -26 -62t-63 -25q-36 0 -62 25.5t-26 61.5z" />
    <glyph glyph-name="uni1ED9" unicode="&#x1ed9;" horiz-adv-x="576" 
d="M288 -10q-108 0 -184.5 68.5t-76.5 201.5t76.5 201.5t184.5 68.5t184.5 -68.5t76.5 -201.5t-76.5 -201.5t-184.5 -68.5zM90 580l97 140h204l97 -140h-131l-68 102l-68 -102h-131zM164 260q0 -74 34 -111.5t90 -37.5t90 37.5t34 111.5t-34 111.5t-90 37.5t-90 -37.5
t-34 -111.5zM200 -143q0 36 26 61.5t62 25.5q37 0 63 -25.5t26 -61.5q0 -37 -26 -62t-63 -25q-36 0 -62 25.5t-26 61.5z" />
    <glyph glyph-name="uni1EDA" unicode="&#x1eda;" horiz-adv-x="742" 
d="M371 -10q-151 0 -242.5 99.5t-91.5 260.5q0 162 91.5 260.5t242.5 98.5h221v79h124v-190h-92q81 -97 81 -248q0 -161 -91.5 -260.5t-242.5 -99.5zM191 350q0 -106 47.5 -168.5t132.5 -62.5t132.5 62.5t47.5 168.5t-47.5 168t-132.5 62t-132.5 -62t-47.5 -168zM296 760
l105 140h127l-106 -140h-126z" />
    <glyph glyph-name="uni1EDB" unicode="&#x1edb;" horiz-adv-x="576" 
d="M288 -10q-108 0 -184.5 68.5t-76.5 201.5t76.5 201.5t184.5 68.5h156v78h117v-190h-53q41 -65 41 -158q0 -133 -76.5 -201.5t-184.5 -68.5zM164 260q0 -74 34 -111.5t90 -37.5t90 37.5t34 111.5t-34 111.5t-90 37.5t-90 -37.5t-34 -111.5zM213 580l105 140h127l-106 -140
h-126z" />
    <glyph glyph-name="uni1EDC" unicode="&#x1edc;" horiz-adv-x="742" 
d="M371 -10q-151 0 -242.5 99.5t-91.5 260.5q0 162 91.5 260.5t242.5 98.5h221v79h124v-190h-92q81 -97 81 -248q0 -161 -91.5 -260.5t-242.5 -99.5zM191 350q0 -106 47.5 -168.5t132.5 -62.5t132.5 62.5t47.5 168.5t-47.5 168t-132.5 62t-132.5 -62t-47.5 -168zM207 900
h126l106 -140h-127z" />
    <glyph glyph-name="uni1EDD" unicode="&#x1edd;" horiz-adv-x="576" 
d="M288 -10q-108 0 -184.5 68.5t-76.5 201.5t76.5 201.5t184.5 68.5h156v78h117v-190h-53q41 -65 41 -158q0 -133 -76.5 -201.5t-184.5 -68.5zM124 720h126l106 -140h-127zM164 260q0 -74 34 -111.5t90 -37.5t90 37.5t34 111.5t-34 111.5t-90 37.5t-90 -37.5t-34 -111.5z
" />
    <glyph glyph-name="uni1EDE" unicode="&#x1ede;" horiz-adv-x="742" 
d="M371 -10q-151 0 -242.5 99.5t-91.5 260.5q0 162 91.5 260.5t242.5 98.5h221v79h124v-190h-92q81 -97 81 -248q0 -161 -91.5 -260.5t-242.5 -99.5zM191 350q0 -106 47.5 -168.5t132.5 -62.5t132.5 62.5t47.5 168.5t-47.5 168t-132.5 62t-132.5 -62t-47.5 -168zM271 847
q0 53 31 78.5t73 25.5q45 0 76.5 -26.5t31.5 -75.5q0 -43 -25 -68.5t-64 -31.5l-34 59q43 1 43 35q0 15 -8.5 23t-21.5 8q-25 0 -28 -27h-74z" />
    <glyph glyph-name="uni1EDF" unicode="&#x1edf;" horiz-adv-x="576" 
d="M288 -10q-108 0 -184.5 68.5t-76.5 201.5t76.5 201.5t184.5 68.5h156v78h117v-190h-53q41 -65 41 -158q0 -133 -76.5 -201.5t-184.5 -68.5zM164 260q0 -74 34 -111.5t90 -37.5t90 37.5t34 111.5t-34 111.5t-90 37.5t-90 -37.5t-34 -111.5zM188 667q0 53 31 78.5t73 25.5
q45 0 76.5 -26.5t31.5 -75.5q0 -43 -25 -68.5t-64 -31.5l-34 59q43 1 43 35q0 15 -8.5 23t-21.5 8q-25 0 -28 -27h-74z" />
    <glyph glyph-name="uni1EE0" unicode="&#x1ee0;" horiz-adv-x="742" 
d="M371 -10q-151 0 -242.5 99.5t-91.5 260.5q0 162 91.5 260.5t242.5 98.5h221v79h124v-190h-92q81 -97 81 -248q0 -161 -91.5 -260.5t-242.5 -99.5zM191 350q0 -106 47.5 -168.5t132.5 -62.5t132.5 62.5t47.5 168.5t-47.5 168t-132.5 62t-132.5 -62t-47.5 -168zM197 795
q0 55 26 85.5t74 30.5q26 0 47 -8.5t32.5 -19t24.5 -19t25 -8.5q11 0 22 6.5t11 21.5h86q0 -55 -26 -85t-74 -30q-26 0 -47 8.5t-32.5 19t-24.5 19t-25 8.5q-11 0 -22 -6.5t-11 -22.5h-86z" />
    <glyph glyph-name="uni1EE1" unicode="&#x1ee1;" horiz-adv-x="576" 
d="M288 -10q-108 0 -184.5 68.5t-76.5 201.5t76.5 201.5t184.5 68.5h156v78h117v-190h-53q41 -65 41 -158q0 -133 -76.5 -201.5t-184.5 -68.5zM114 615q0 55 26 85.5t74 30.5q26 0 47 -8.5t32.5 -19t24.5 -19t25 -8.5q11 0 22 6.5t11 21.5h86q0 -55 -26 -85t-74 -30
q-26 0 -47 8.5t-32.5 19t-24.5 19t-25 8.5q-11 0 -22 -6.5t-11 -22.5h-86zM164 260q0 -74 34 -111.5t90 -37.5t90 37.5t34 111.5t-34 111.5t-90 37.5t-90 -37.5t-34 -111.5z" />
    <glyph glyph-name="uni1EE2" unicode="&#x1ee2;" horiz-adv-x="742" 
d="M371 -10q-151 0 -242.5 99.5t-91.5 260.5q0 162 91.5 260.5t242.5 98.5h221v79h124v-190h-92q81 -97 81 -248q0 -161 -91.5 -260.5t-242.5 -99.5zM191 350q0 -106 47.5 -168.5t132.5 -62.5t132.5 62.5t47.5 168.5t-47.5 168t-132.5 62t-132.5 -62t-47.5 -168zM283 -143
q0 36 26 61.5t62 25.5q37 0 63 -25.5t26 -61.5q0 -37 -26 -62t-63 -25q-36 0 -62 25.5t-26 61.5z" />
    <glyph glyph-name="uni1EE3" unicode="&#x1ee3;" horiz-adv-x="576" 
d="M288 -10q-108 0 -184.5 68.5t-76.5 201.5t76.5 201.5t184.5 68.5h156v78h117v-190h-53q41 -65 41 -158q0 -133 -76.5 -201.5t-184.5 -68.5zM164 260q0 -74 34 -111.5t90 -37.5t90 37.5t34 111.5t-34 111.5t-90 37.5t-90 -37.5t-34 -111.5zM200 -143q0 36 26 61.5t62 25.5
q37 0 63 -25.5t26 -61.5q0 -37 -26 -62t-63 -25q-36 0 -62 25.5t-26 61.5z" />
    <glyph glyph-name="uni1EE4" unicode="&#x1ee4;" horiz-adv-x="681" 
d="M341 -10q-134 0 -211.5 70t-77.5 206v434h151v-423q0 -77 36 -117t102 -40q65 0 101 40t36 117v423h151v-434q0 -136 -78 -206t-210 -70zM252 -143q0 36 26 61.5t62 25.5q37 0 63 -25.5t26 -61.5q0 -37 -26 -62t-63 -25q-36 0 -62 25.5t-26 61.5z" />
    <glyph glyph-name="uni1EE5" unicode="&#x1ee5;" 
d="M198 225q0 -114 96 -114q49 0 79 28.5t30 85.5v295h146v-520h-146v109h-6q-8 -45 -50.5 -82t-115.5 -37q-79 0 -129 51.5t-50 148.5v330h146v-295zM223 -143q0 36 26 61.5t62 25.5q37 0 63 -25.5t26 -61.5q0 -37 -26 -62t-63 -25q-36 0 -62 25.5t-26 61.5z" />
    <glyph glyph-name="uni1EE6" unicode="&#x1ee6;" horiz-adv-x="681" 
d="M341 -10q-134 0 -211.5 70t-77.5 206v434h151v-423q0 -77 36 -117t102 -40q65 0 101 40t36 117v423h151v-434q0 -136 -78 -206t-210 -70zM229 847q0 53 31 78.5t73 25.5q45 0 76.5 -26.5t31.5 -75.5q0 -43 -25 -68.5t-64 -31.5l-34 59q43 1 43 35q0 15 -8.5 23t-21.5 8
q-25 0 -28 -27h-74z" />
    <glyph glyph-name="uni1EE7" unicode="&#x1ee7;" 
d="M198 225q0 -114 96 -114q49 0 79 28.5t30 85.5v295h146v-520h-146v109h-6q-8 -45 -50.5 -82t-115.5 -37q-79 0 -129 51.5t-50 148.5v330h146v-295zM199 667q0 53 31 78.5t73 25.5q45 0 76.5 -26.5t31.5 -75.5q0 -43 -25 -68.5t-64 -31.5l-34 59q43 1 43 35q0 15 -8.5 23
t-21.5 8q-25 0 -28 -27h-74z" />
    <glyph glyph-name="uni1EE8" unicode="&#x1ee8;" horiz-adv-x="681" 
d="M341 -10q-134 0 -211.5 70t-77.5 206v434h151v-423q0 -77 36 -117t102 -40q65 0 101 40t36 117v423h142v88h123v-199h-114v-323q0 -136 -78 -206t-210 -70zM265 760l105 140h127l-106 -140h-126z" />
    <glyph glyph-name="uni1EE9" unicode="&#x1ee9;" 
d="M198 225q0 -114 96 -114q49 0 79 28.5t30 85.5v295h142v88h123v-199h-119v-409h-146v109h-6q-8 -45 -50.5 -82t-115.5 -37q-79 0 -129 51.5t-50 148.5v330h146v-295zM225 580l105 140h127l-106 -140h-126z" />
    <glyph glyph-name="uni1EEA" unicode="&#x1eea;" horiz-adv-x="681" 
d="M341 -10q-134 0 -211.5 70t-77.5 206v434h151v-423q0 -77 36 -117t102 -40q65 0 101 40t36 117v423h142v88h123v-199h-114v-323q0 -136 -78 -206t-210 -70zM177 900h126l106 -140h-127z" />
    <glyph glyph-name="uni1EEB" unicode="&#x1eeb;" 
d="M198 225q0 -114 96 -114q49 0 79 28.5t30 85.5v295h142v88h123v-199h-119v-409h-146v109h-6q-8 -45 -50.5 -82t-115.5 -37q-79 0 -129 51.5t-50 148.5v330h146v-295zM137 720h126l106 -140h-127z" />
    <glyph glyph-name="uni1EEC" unicode="&#x1eec;" horiz-adv-x="681" 
d="M341 -10q-134 0 -211.5 70t-77.5 206v434h151v-423q0 -77 36 -117t102 -40q65 0 101 40t36 117v423h142v88h123v-199h-114v-323q0 -136 -78 -206t-210 -70zM241 847q0 53 31 78.5t73 25.5q45 0 76.5 -26.5t31.5 -75.5q0 -43 -25 -68.5t-64 -31.5l-34 59q43 1 43 35
q0 15 -8.5 23t-21.5 8q-25 0 -28 -27h-74z" />
    <glyph glyph-name="uni1EED" unicode="&#x1eed;" 
d="M198 225q0 -114 96 -114q49 0 79 28.5t30 85.5v295h142v88h123v-199h-119v-409h-146v109h-6q-8 -45 -50.5 -82t-115.5 -37q-79 0 -129 51.5t-50 148.5v330h146v-295zM201 667q0 53 31 78.5t73 25.5q45 0 76.5 -26.5t31.5 -75.5q0 -43 -25 -68.5t-64 -31.5l-34 59
q43 1 43 35q0 15 -8.5 23t-21.5 8q-25 0 -28 -27h-74z" />
    <glyph glyph-name="uni1EEE" unicode="&#x1eee;" horiz-adv-x="681" 
d="M341 -10q-134 0 -211.5 70t-77.5 206v434h151v-423q0 -77 36 -117t102 -40q65 0 101 40t36 117v423h142v88h123v-199h-114v-323q0 -136 -78 -206t-210 -70zM166 795q0 55 26 85.5t74 30.5q26 0 47 -8.5t32.5 -19t24.5 -19t25 -8.5q11 0 22 6.5t11 21.5h86q0 -55 -26 -85
t-74 -30q-26 0 -47 8.5t-32.5 19t-24.5 19t-25 8.5q-11 0 -22 -6.5t-11 -22.5h-86z" />
    <glyph glyph-name="uni1EEF" unicode="&#x1eef;" 
d="M198 225q0 -114 96 -114q49 0 79 28.5t30 85.5v295h142v88h123v-199h-119v-409h-146v109h-6q-8 -45 -50.5 -82t-115.5 -37q-79 0 -129 51.5t-50 148.5v330h146v-295zM126 615q0 55 26 85.5t74 30.5q26 0 47 -8.5t32.5 -19t24.5 -19t25 -8.5q11 0 22 6.5t11 21.5h86
q0 -55 -26 -85t-74 -30q-26 0 -47 8.5t-32.5 19t-24.5 19t-25 8.5q-11 0 -22 -6.5t-11 -22.5h-86z" />
    <glyph glyph-name="uni1EF0" unicode="&#x1ef0;" horiz-adv-x="681" 
d="M341 -10q-134 0 -211.5 70t-77.5 206v434h151v-423q0 -77 36 -117t102 -40q65 0 101 40t36 117v423h142v88h123v-199h-114v-323q0 -136 -78 -206t-210 -70zM252 -143q0 36 26 61.5t62 25.5q37 0 63 -25.5t26 -61.5q0 -37 -26 -62t-63 -25q-36 0 -62 25.5t-26 61.5z" />
    <glyph glyph-name="uni1EF1" unicode="&#x1ef1;" 
d="M198 225q0 -114 96 -114q49 0 79 28.5t30 85.5v295h142v88h123v-199h-119v-409h-146v109h-6q-8 -45 -50.5 -82t-115.5 -37q-79 0 -129 51.5t-50 148.5v330h146v-295zM212 -143q0 36 26 61.5t62 25.5q37 0 63 -25.5t26 -61.5q0 -37 -26 -62t-63 -25q-36 0 -62 25.5
t-26 61.5z" />
    <glyph glyph-name="Ygrave" unicode="&#x1ef2;" horiz-adv-x="705" 
d="M275 0v257l-253 443h170l160 -298l161 298h170l-253 -443v-257h-155zM199 900h126l106 -140h-127z" />
    <glyph glyph-name="ygrave" unicode="&#x1ef3;" horiz-adv-x="579" 
d="M69 -77q48 -6 79.5 2.5t42 20.5t18.5 30q14 34 -1 71l-191 473h150l121 -336l124 336h150l-213 -524q-49 -122 -109 -165t-171 -31v123zM135 720h126l106 -140h-127z" />
    <glyph glyph-name="uni1EF4" unicode="&#x1ef4;" horiz-adv-x="705" 
d="M275 0v257l-253 443h170l160 -298l161 298h170l-253 -443v-257h-155zM264 -143q0 36 26 61.5t62 25.5q37 0 63 -25.5t26 -61.5q0 -37 -26 -62t-63 -25q-36 0 -62 25.5t-26 61.5z" />
    <glyph glyph-name="uni1EF5" unicode="&#x1ef5;" horiz-adv-x="579" 
d="M69 -77q48 -6 79.5 2.5t42 20.5t18.5 30q14 34 -1 71l-191 473h150l121 -336l124 336h150l-213 -524q-49 -122 -109 -165t-171 -31v123zM367 -143q0 36 26 61.5t62 25.5q37 0 63 -25.5t26 -61.5q0 -37 -26 -62t-63 -25q-36 0 -62 25.5t-26 61.5z" />
    <glyph glyph-name="uni1EF6" unicode="&#x1ef6;" horiz-adv-x="705" 
d="M275 0v257l-253 443h170l160 -298l161 298h170l-253 -443v-257h-155zM253 847q0 53 31 78.5t73 25.5q45 0 76.5 -26.5t31.5 -75.5q0 -43 -25 -68.5t-64 -31.5l-34 59q43 1 43 35q0 15 -8.5 23t-21.5 8q-25 0 -28 -27h-74z" />
    <glyph glyph-name="uni1EF7" unicode="&#x1ef7;" horiz-adv-x="579" 
d="M69 -77q48 -6 79.5 2.5t42 20.5t18.5 30q14 34 -1 71l-191 473h150l121 -336l124 336h150l-213 -524q-49 -122 -109 -165t-171 -31v123zM189 667q0 53 31 78.5t73 25.5q45 0 76.5 -26.5t31.5 -75.5q0 -43 -25 -68.5t-64 -31.5l-34 59q43 1 43 35q0 15 -8.5 23t-21.5 8
q-25 0 -28 -27h-74z" />
    <glyph glyph-name="uni1EF8" unicode="&#x1ef8;" horiz-adv-x="705" 
d="M275 0v257l-253 443h170l160 -298l161 298h170l-253 -443v-257h-155zM178 795q0 55 26 85.5t74 30.5q26 0 47 -8.5t32.5 -19t24.5 -19t25 -8.5q11 0 22 6.5t11 21.5h86q0 -55 -26 -85t-74 -30q-26 0 -47 8.5t-32.5 19t-24.5 19t-25 8.5q-11 0 -22 -6.5t-11 -22.5h-86z
" />
    <glyph glyph-name="uni1EF9" unicode="&#x1ef9;" horiz-adv-x="579" 
d="M69 -77q48 -6 79.5 2.5t42 20.5t18.5 30q14 34 -1 71l-191 473h150l121 -336l124 336h150l-213 -524q-49 -122 -109 -165t-171 -31v123zM115 615q0 55 26 85.5t74 30.5q26 0 47 -8.5t32.5 -19t24.5 -19t25 -8.5q11 0 22 6.5t11 21.5h86q0 -55 -26 -85t-74 -30
q-26 0 -47 8.5t-32.5 19t-24.5 19t-25 8.5q-11 0 -22 -6.5t-11 -22.5h-86z" />
    <glyph glyph-name="endash" unicode="&#x2013;" horiz-adv-x="600" 
d="M45 221v110h510v-110h-510z" />
    <glyph glyph-name="emdash" unicode="&#x2014;" horiz-adv-x="660" 
d="M45 221v110h570v-110h-570z" />
    <glyph glyph-name="quoteleft" unicode="&#x2018;" horiz-adv-x="255" 
d="M192 646q-42 -1 -60 -16t-18 -47q49 -1 76.5 -26t27.5 -62t-24.5 -60t-62.5 -23q-44 0 -71.5 32.5t-27.5 96.5q0 77 40.5 120.5t108.5 43.5h11v-59z" />
    <glyph glyph-name="quoteright" unicode="&#x2019;" horiz-adv-x="255" 
d="M63 475q42 1 60 16t18 47q-49 1 -76.5 26t-27.5 62t24.5 60t62.5 23q44 0 71.5 -32.5t27.5 -96.5q0 -77 -40.5 -120.5t-108.5 -43.5h-11v59z" />
    <glyph glyph-name="quotesinglbase" unicode="&#x201a;" horiz-adv-x="260" 
d="M63 -70q42 1 60 16t18 47q-49 1 -76.5 26t-27.5 62t24.5 60t62.5 23q44 0 71.5 -32.5t27.5 -96.5q0 -77 -40.5 -120.5t-108.5 -43.5h-11v59z" />
    <glyph glyph-name="quotedblleft" unicode="&#x201c;" horiz-adv-x="481" 
d="M192 646q-42 -1 -60 -16t-18 -47q49 -1 76.5 -26t27.5 -62t-24.5 -60t-62.5 -23q-44 0 -71.5 32.5t-27.5 96.5q0 77 40.5 120.5t108.5 43.5h11v-59zM258 541q0 77 40.5 120.5t108.5 43.5h11v-59q-42 -1 -60 -16t-18 -47q49 -1 76.5 -26t27.5 -62t-24.5 -60t-62.5 -23
q-44 0 -71.5 32.5t-27.5 96.5z" />
    <glyph glyph-name="quotedblright" unicode="&#x201d;" horiz-adv-x="481" 
d="M63 475q42 1 60 16t18 47q-49 1 -76.5 26t-27.5 62t24.5 60t62.5 23q44 0 71.5 -32.5t27.5 -96.5q0 -77 -40.5 -120.5t-108.5 -43.5h-11v59zM263 626q0 37 24.5 60t62.5 23q44 0 71.5 -32.5t27.5 -96.5q0 -77 -40.5 -120.5t-108.5 -43.5h-11v59q42 1 60 16t18 47
q-49 1 -76.5 26t-27.5 62z" />
    <glyph glyph-name="quotedblbase" unicode="&#x201e;" horiz-adv-x="486" 
d="M289 -84q42 1 60 16t18 47q-49 1 -76.5 26t-27.5 62t24.5 60t62.5 23q44 0 71.5 -32.5t27.5 -96.5q0 -77 -40.5 -120.5t-108.5 -43.5h-11v59zM37 67q0 37 24.5 60t62.5 23q44 0 71.5 -32.5t27.5 -96.5q0 -77 -40.5 -120.5t-108.5 -43.5h-11v59q42 1 60 16t18 47
q-49 1 -76.5 26t-27.5 62z" />
    <glyph glyph-name="dagger" unicode="&#x2020;" horiz-adv-x="427" 
d="M156 196v247h-106v110h106v147h116v-147h105v-110h-105v-247h-116z" />
    <glyph glyph-name="daggerdbl" unicode="&#x2021;" horiz-adv-x="427" 
d="M156 0v133h-106v110h106v214h-106v110h106v133h116v-133h105v-110h-105v-214h105v-110h-105v-133h-116z" />
    <glyph glyph-name="bullet" unicode="&#x2022;" horiz-adv-x="279" 
d="M140 174q-37 0 -63.5 26.5t-26.5 63.5q0 36 26.5 62.5t63.5 26.5q36 0 62.5 -26.5t26.5 -62.5q0 -37 -26.5 -63.5t-62.5 -26.5z" />
    <glyph glyph-name="ellipsis" unicode="&#x2026;" horiz-adv-x="764" 
d="M382 -10q-36 0 -62 25.5t-26 61.5t26 61.5t62 25.5q37 0 63 -25.5t26 -61.5q0 -37 -26 -62t-63 -25zM37 77q0 36 26 61.5t62 25.5q37 0 63 -25.5t26 -61.5q0 -37 -26 -62t-63 -25q-36 0 -62 25.5t-26 61.5zM550 77q0 36 26 61.5t62 25.5q37 0 63 -25.5t26 -61.5
q0 -37 -26 -62t-63 -25q-36 0 -62 25.5t-26 61.5z" />
    <glyph glyph-name="perthousand" unicode="&#x2030;" horiz-adv-x="1100" 
d="M915 -9q-65 0 -106.5 41.5t-41.5 121.5q0 77 42 119t106 42t106 -42.5t42 -118.5q0 -80 -41.5 -121.5t-106.5 -41.5zM37 551q0 76 42 118t106 42t106 -42t42 -118q0 -80 -41.5 -121.5t-106.5 -41.5t-106.5 42t-41.5 121zM67 192l552 401l60 -82l-552 -402zM140 551
q0 -36 13.5 -51.5t31.5 -15.5q45 0 45 67q0 35 -13.5 49.5t-31.5 14.5t-31.5 -15t-13.5 -49zM414 154q0 77 42 119t106 42t106 -42.5t42 -118.5q0 -80 -42 -121.5t-106 -41.5t-106 41.5t-42 121.5zM517 154q0 -66 45 -66q18 0 31.5 15t13.5 51q0 34 -13.5 49t-31.5 15
t-31.5 -14.5t-13.5 -49.5zM870 154q0 -66 45 -66q18 0 31.5 15t13.5 51q0 34 -13.5 49t-31.5 15t-31.5 -14.5t-13.5 -49.5z" />
    <glyph glyph-name="guilsinglleft" unicode="&#x2039;" horiz-adv-x="253" 
d="M213 100l-173 140v113l173 145v-132l-84 -66l84 -69v-131z" />
    <glyph glyph-name="guilsinglright" unicode="&#x203a;" horiz-adv-x="255" 
d="M47 100v131l84 69l-84 66v132l173 -145v-113z" />
    <glyph glyph-name="fraction" unicode="&#x2044;" horiz-adv-x="157" 
d="M-176 0l436 700h73l-436 -700h-73z" />
    <glyph glyph-name="Euro" unicode="&#x20ac;" horiz-adv-x="733" 
d="M35 357v73h53q20 133 105.5 206t219.5 73q121 0 200.5 -63.5t89.5 -188.5h-146q-28 123 -149 123q-68 0 -109.5 -40.5t-55.5 -109.5h142v-73h-150v-7q0 -22 1 -33h149v-73h-136q37 -125 159 -125q121 0 149 124h146q-10 -126 -89.5 -189.5t-202.5 -63.5
q-126 0 -209.5 66.5t-108.5 187.5h-58v73h48q-1 11 -1 33v7h-47z" />
    <glyph glyph-name="trademark" unicode="&#x2122;" horiz-adv-x="519" 
d="M249 520v180h60l55 -135l55 135h60v-180h-57v88l-33 -88h-50l-33 88v-88h-57zM40 653v47h177v-47h-60v-133h-57v133h-60z" />
    <glyph glyph-name="partialdiff" unicode="&#x2202;" horiz-adv-x="608" 
d="M301 -10q-45 0 -87.5 12t-82.5 38t-64.5 75t-24.5 116q0 62 21.5 109.5t56 73.5t73.5 38.5t79 12.5q96 0 163 -73q0 33 -5 63t-18.5 63.5t-43 54t-72.5 20.5q-96 0 -109 -86h-128q-1 36 12.5 70.5t40.5 64.5t74 48.5t107 18.5q141 0 209.5 -97t68.5 -261q0 -187 -76 -274
t-194 -87zM181 232q0 -62 36.5 -93t83.5 -31t83.5 31t36.5 93t-36.5 92t-82.5 30q-47 0 -84 -30t-37 -92z" />
    <glyph glyph-name="product" unicode="&#x220f;" horiz-adv-x="744" 
d="M45 -190v990h654v-990h-140v857h-374v-857h-140z" />
    <glyph glyph-name="summation" unicode="&#x2211;" horiz-adv-x="696" 
d="M45 -190l275 495l-275 495h606v-132h-373l200 -363l-200 -363h373v-132h-606z" />
    <glyph glyph-name="minus" unicode="&#x2212;" horiz-adv-x="437" 
d="M52 197v110h334v-110h-334z" />
    <glyph glyph-name="radical" unicode="&#x221a;" horiz-adv-x="819" 
d="M345 -190l-176 429h-124v156h221l156 -397l208 802h144l-259 -990h-170z" />
    <glyph glyph-name="infinity" unicode="&#x221e;" horiz-adv-x="831" 
d="M217 86q-75 0 -127.5 48.5t-52.5 127.5q0 78 52.5 125.5t127.5 47.5q98 0 199 -90q101 90 198 90q75 0 127.5 -47.5t52.5 -125.5q0 -79 -52.5 -127.5t-127.5 -48.5q-98 0 -198 91q-100 -91 -199 -91zM162 262q0 -27 19.5 -47t52.5 -20q58 0 109 67q-53 67 -109 67
q-33 0 -52.5 -20t-19.5 -47zM488 262q51 -67 110 -67q33 0 52 20t19 47t-19 47t-52 20q-57 0 -110 -67z" />
    <glyph glyph-name="integral" unicode="&#x222b;" horiz-adv-x="314" 
d="M17 -65q39 0 51 23.5t12 70.5v482q0 91 46 138t163 47v-125q-35 0 -49 -24t-14 -70v-483q0 -97 -47 -140.5t-162 -43.5v125z" />
    <glyph glyph-name="approxequal" unicode="&#x2248;" horiz-adv-x="592" 
d="M412 98q-34 0 -67 15.5t-54.5 33.5t-48.5 33.5t-50 15.5t-38 -13t-15 -35h-87q-3 59 33 98t95 39q34 0 67 -15.5t54.5 -33.5t48.5 -33.5t50 -15.5t38 13t15 35h87q3 -59 -33.5 -98t-94.5 -39zM52 308q-3 59 33 98t95 39q34 0 67 -15.5t54.5 -33.5t48.5 -33.5t50 -15.5
t38 13t15 35h87q3 -59 -33.5 -98t-94.5 -39q-34 0 -67 15.5t-54.5 33.5t-48.5 33.5t-50 15.5t-38 -13t-15 -35h-87z" />
    <glyph glyph-name="notequal" unicode="&#x2260;" horiz-adv-x="437" 
d="M63 0l57 141h-68v110h112l20 50h-132v110h177l60 150h87l-60 -150h70v-110h-115l-20 -50h135v-110h-179l-57 -141h-87z" />
    <glyph glyph-name="lessequal" unicode="&#x2264;" horiz-adv-x="442" 
d="M393 157l-343 163v113l343 162v-123l-234 -96l234 -96v-123zM50 0v110h342v-110h-342z" />
    <glyph glyph-name="greaterequal" unicode="&#x2265;" horiz-adv-x="444" 
d="M51 157v123l234 96l-234 96v123l343 -162v-113zM52 0v110h342v-110h-342z" />
    <glyph glyph-name="lozenge" unicode="&#x25ca;" horiz-adv-x="606" 
d="M200 0l-155 350l155 350h206l155 -350l-155 -350h-206zM193 350l110 -248l110 248l-110 248z" />
    <glyph glyph-name="uniA78B" unicode="&#xa78b;" horiz-adv-x="254" 
d="M52 240v460h150v-460h-150z" />
    <glyph glyph-name="uniA78C" unicode="&#xa78c;" horiz-adv-x="250" 
d="M52 298v402h146v-402h-146z" />
    <glyph glyph-name="uni004A0301" horiz-adv-x="675" 
d="M337 -10q-131 0 -208 70t-77 206h151q0 -72 35.5 -109t99.5 -37q135 0 135 157v423h150v-435q0 -135 -77.5 -205t-208.5 -70zM477 760l105 140h127l-106 -140h-126z" />
    <glyph glyph-name="G.ss01" horiz-adv-x="709" 
d="M345 -10q-139 0 -223.5 96t-84.5 264t90.5 263.5t238.5 95.5q116 0 196 -58.5t97 -172.5h-153q-31 102 -137 102q-88 0 -133 -61.5t-45 -168.5q0 -104 47.5 -167t137.5 -64q70 -1 109.5 36.5t39.5 105.5v4h-142v120h284v-385h-141v75q-61 -85 -181 -85z" />
    <glyph glyph-name="R.ss01" horiz-adv-x="661" 
d="M465 0q-10 21 -10 83v67q0 103 -110 103h-143v-253h-150v700h293q130 0 193.5 -57t63.5 -149q0 -122 -111 -172q66 -22 89.5 -64t23.5 -108v-67q0 -64 10 -83h-149zM202 374h138q52 0 81 25.5t29 73.5q0 96 -110 96h-138v-195z" />
    <glyph glyph-name="G.ss05" horiz-adv-x="709" 
d="M345 -10q-139 0 -223.5 96t-84.5 264t90.5 263.5t238.5 95.5q116 0 196 -58.5t97 -172.5h-153q-31 102 -137 102q-88 0 -133 -61.5t-45 -168.5q0 -104 47.5 -167t137.5 -64q70 -1 109.5 36.5t39.5 105.5v4h-142v120h284v-385h-141v75q-61 -85 -181 -85z" />
    <glyph glyph-name="i.loclTRK" horiz-adv-x="236" 
d="M45 0v520h146v-520h-146zM39 660q0 32 24 55t56 23q33 0 56.5 -22.5t23.5 -55.5t-23.5 -56t-56.5 -23q-32 0 -56 23t-24 56z" />
    <glyph glyph-name="uni006A0301" horiz-adv-x="255" 
d="M39 -195q-56 0 -85 3v114h51q59 0 59 68v530h146v-552q0 -163 -171 -163zM69 580l105 140h127l-106 -140h-126z" />
    <glyph glyph-name="a.ss01" horiz-adv-x="606" 
d="M254 -10q-92 0 -159.5 68.5t-67.5 201.5t67.5 201.5t159.5 68.5q56 0 97.5 -24.5t56.5 -60.5v75h146v-520h-146v75q-15 -36 -56.5 -60.5t-97.5 -24.5zM166 260q0 -71 36 -108t88 -37t88 37t36 108t-36 108t-88 37t-88 -37t-36 -108z" />
    <glyph glyph-name="aacute.ss01" horiz-adv-x="606" 
d="M254 -10q-92 0 -159.5 68.5t-67.5 201.5t67.5 201.5t159.5 68.5q56 0 97.5 -24.5t56.5 -60.5v75h146v-520h-146v75q-15 -36 -56.5 -60.5t-97.5 -24.5zM166 260q0 -71 36 -108t88 -37t88 37t36 108t-36 108t-88 37t-88 -37t-36 -108zM241 580l105 140h127l-106 -140h-126z
" />
    <glyph glyph-name="abreve.ss01" horiz-adv-x="606" 
d="M254 -10q-92 0 -159.5 68.5t-67.5 201.5t67.5 201.5t159.5 68.5q56 0 97.5 -24.5t56.5 -60.5v75h146v-520h-146v75q-15 -36 -56.5 -60.5t-97.5 -24.5zM147 720h96q1 -37 17 -53.5t49 -16.5t49 16.5t17 53.5h96q0 -72 -42 -113t-120 -41t-120 41t-42 113zM166 260
q0 -71 36 -108t88 -37t88 37t36 108t-36 108t-88 37t-88 -37t-36 -108z" />
    <glyph glyph-name="uni01CE.ss01" horiz-adv-x="606" 
d="M254 -10q-92 0 -159.5 68.5t-67.5 201.5t67.5 201.5t159.5 68.5q56 0 97.5 -24.5t56.5 -60.5v75h146v-520h-146v75q-15 -36 -56.5 -60.5t-97.5 -24.5zM104 718h131l68 -102l68 102h131l-97 -140h-204zM166 260q0 -71 36 -108t88 -37t88 37t36 108t-36 108t-88 37t-88 -37
t-36 -108z" />
    <glyph glyph-name="acircumflex.ss01" horiz-adv-x="606" 
d="M254 -10q-92 0 -159.5 68.5t-67.5 201.5t67.5 201.5t159.5 68.5q56 0 97.5 -24.5t56.5 -60.5v75h146v-520h-146v75q-15 -36 -56.5 -60.5t-97.5 -24.5zM109 580l97 140h204l97 -140h-131l-68 102l-68 -102h-131zM166 260q0 -71 36 -108t88 -37t88 37t36 108t-36 108
t-88 37t-88 -37t-36 -108z" />
    <glyph glyph-name="adieresis.ss01" horiz-adv-x="606" 
d="M254 -10q-92 0 -159.5 68.5t-67.5 201.5t67.5 201.5t159.5 68.5q56 0 97.5 -24.5t56.5 -60.5v75h146v-520h-146v75q-15 -36 -56.5 -60.5t-97.5 -24.5zM108 660q0 32 24 55t56 23q33 0 56.5 -22.5t23.5 -55.5t-23.5 -56t-56.5 -23q-32 0 -56 23t-24 56zM166 260
q0 -71 36 -108t88 -37t88 37t36 108t-36 108t-88 37t-88 -37t-36 -108zM348 660q0 33 23.5 55.5t56.5 22.5q32 0 56 -23t24 -55q0 -33 -24 -56t-56 -23q-33 0 -56.5 23t-23.5 56z" />
    <glyph glyph-name="agrave.ss01" horiz-adv-x="606" 
d="M254 -10q-92 0 -159.5 68.5t-67.5 201.5t67.5 201.5t159.5 68.5q56 0 97.5 -24.5t56.5 -60.5v75h146v-520h-146v75q-15 -36 -56.5 -60.5t-97.5 -24.5zM156 720h126l106 -140h-127zM166 260q0 -71 36 -108t88 -37t88 37t36 108t-36 108t-88 37t-88 -37t-36 -108z" />
    <glyph glyph-name="amacron.ss01" horiz-adv-x="606" 
d="M254 -10q-92 0 -159.5 68.5t-67.5 201.5t67.5 201.5t159.5 68.5q56 0 97.5 -24.5t56.5 -60.5v75h146v-520h-146v75q-15 -36 -56.5 -60.5t-97.5 -24.5zM145 635v85h328v-85h-328zM166 260q0 -71 36 -108t88 -37t88 37t36 108t-36 108t-88 37t-88 -37t-36 -108z" />
    <glyph glyph-name="aogonek.ss01" horiz-adv-x="606" 
d="M254 -10q-92 0 -159.5 68.5t-67.5 201.5t67.5 201.5t159.5 68.5q56 0 97.5 -24.5t56.5 -60.5v75h146v-520q-61 0 -94 -22t-33 -52q0 -26 21 -36.5t51 -0.5v-81q-18 -8 -47 -8t-59 9t-52 35t-22 65q0 43 25 72.5t64 43.5v50q-15 -36 -56.5 -60.5t-97.5 -24.5zM166 260
q0 -71 36 -108t88 -37t88 37t36 108t-36 108t-88 37t-88 -37t-36 -108z" />
    <glyph glyph-name="aring.ss01" horiz-adv-x="606" 
d="M254 -10q-92 0 -159.5 68.5t-67.5 201.5t67.5 201.5t159.5 68.5q56 0 97.5 -24.5t56.5 -60.5v75h146v-520h-146v75q-15 -36 -56.5 -60.5t-97.5 -24.5zM166 260q0 -71 36 -108t88 -37t88 37t36 108t-36 108t-88 37t-88 -37t-36 -108zM205 658q0 42 30 71t73 29
q44 0 74 -29t30 -71t-30 -71t-74 -29q-43 0 -73 29t-30 71zM273 658q0 -16 10 -25.5t25 -9.5t25.5 10t10.5 25q0 16 -10.5 26t-25.5 10t-25 -10t-10 -26z" />
    <glyph glyph-name="atilde.ss01" horiz-adv-x="606" 
d="M254 -10q-92 0 -159.5 68.5t-67.5 201.5t67.5 201.5t159.5 68.5q56 0 97.5 -24.5t56.5 -60.5v75h146v-520h-146v75q-15 -36 -56.5 -60.5t-97.5 -24.5zM135 615q0 55 26 85.5t74 30.5q26 0 47 -8.5t32.5 -19t24.5 -19t25 -8.5q11 0 22 6.5t11 21.5h86q0 -55 -26 -85
t-74 -30q-26 0 -47 8.5t-32.5 19t-24.5 19t-25 8.5q-11 0 -22 -6.5t-11 -22.5h-86zM166 260q0 -71 36 -108t88 -37t88 37t36 108t-36 108t-88 37t-88 -37t-36 -108z" />
    <glyph glyph-name="g.ss01" horiz-adv-x="555" 
d="M270 -200q-65 0 -117.5 15t-89 53.5t-36.5 94.5q0 53 27 84.5t67 44.5q-39 2 -65.5 24.5t-26.5 59.5q0 31 19 52.5t50 27.5q-31 40 -31 99q0 79 54.5 125t143.5 46t142 -45q34 40 105 39v-106q-32 0 -56 -12q6 -21 6 -47q0 -79 -54 -124.5t-143 -45.5q-53 0 -95 17
q-26 -2 -26 -25q0 -20 21.5 -25.5t68.5 -5.5h32q49 0 91.5 -8.5t80.5 -27t60 -53.5t22 -82t-21.5 -82.5t-58.5 -55t-79.5 -28.5t-90.5 -9zM166 -26q0 -30 26 -51t81 -21q56 0 81 21t25 51q0 31 -25.5 51t-81.5 20q-54 0 -80 -20.5t-26 -50.5zM188 355q0 -27 17.5 -47.5
t59.5 -20.5q41 0 59 21t18 47q0 27 -18 48t-59 21q-42 0 -59.5 -21t-17.5 -48z" />
    <glyph glyph-name="i.ss01" horiz-adv-x="250" 
d="M52 0v520h146v-520h-146zM52 598v111h146v-111h-146z" />
    <glyph glyph-name="l.ss01" horiz-adv-x="279" 
d="M251 0q-107 -12 -153 18t-46 124v565h146v-565q0 -37 53 -36v-106z" />
    <glyph glyph-name="a.ss02" horiz-adv-x="606" 
d="M254 -10q-92 0 -159.5 68.5t-67.5 201.5t67.5 201.5t159.5 68.5q56 0 97.5 -24.5t56.5 -60.5v75h146v-520h-146v75q-15 -36 -56.5 -60.5t-97.5 -24.5zM166 260q0 -71 36 -108t88 -37t88 37t36 108t-36 108t-88 37t-88 -37t-36 -108z" />
    <glyph glyph-name="aacute.ss02" horiz-adv-x="606" 
d="M254 -10q-92 0 -159.5 68.5t-67.5 201.5t67.5 201.5t159.5 68.5q56 0 97.5 -24.5t56.5 -60.5v75h146v-520h-146v75q-15 -36 -56.5 -60.5t-97.5 -24.5zM166 260q0 -71 36 -108t88 -37t88 37t36 108t-36 108t-88 37t-88 -37t-36 -108zM241 580l105 140h127l-106 -140h-126z
" />
    <glyph glyph-name="abreve.ss02" horiz-adv-x="606" 
d="M254 -10q-92 0 -159.5 68.5t-67.5 201.5t67.5 201.5t159.5 68.5q56 0 97.5 -24.5t56.5 -60.5v75h146v-520h-146v75q-15 -36 -56.5 -60.5t-97.5 -24.5zM147 720h96q1 -37 17 -53.5t49 -16.5t49 16.5t17 53.5h96q0 -72 -42 -113t-120 -41t-120 41t-42 113zM166 260
q0 -71 36 -108t88 -37t88 37t36 108t-36 108t-88 37t-88 -37t-36 -108z" />
    <glyph glyph-name="uni01CE.ss02" horiz-adv-x="606" 
d="M254 -10q-92 0 -159.5 68.5t-67.5 201.5t67.5 201.5t159.5 68.5q56 0 97.5 -24.5t56.5 -60.5v75h146v-520h-146v75q-15 -36 -56.5 -60.5t-97.5 -24.5zM104 718h131l68 -102l68 102h131l-97 -140h-204zM166 260q0 -71 36 -108t88 -37t88 37t36 108t-36 108t-88 37t-88 -37
t-36 -108z" />
    <glyph glyph-name="acircumflex.ss02" horiz-adv-x="606" 
d="M254 -10q-92 0 -159.5 68.5t-67.5 201.5t67.5 201.5t159.5 68.5q56 0 97.5 -24.5t56.5 -60.5v75h146v-520h-146v75q-15 -36 -56.5 -60.5t-97.5 -24.5zM109 580l97 140h204l97 -140h-131l-68 102l-68 -102h-131zM166 260q0 -71 36 -108t88 -37t88 37t36 108t-36 108
t-88 37t-88 -37t-36 -108z" />
    <glyph glyph-name="adieresis.ss02" horiz-adv-x="606" 
d="M254 -10q-92 0 -159.5 68.5t-67.5 201.5t67.5 201.5t159.5 68.5q56 0 97.5 -24.5t56.5 -60.5v75h146v-520h-146v75q-15 -36 -56.5 -60.5t-97.5 -24.5zM108 660q0 32 24 55t56 23q33 0 56.5 -22.5t23.5 -55.5t-23.5 -56t-56.5 -23q-32 0 -56 23t-24 56zM166 260
q0 -71 36 -108t88 -37t88 37t36 108t-36 108t-88 37t-88 -37t-36 -108zM348 660q0 33 23.5 55.5t56.5 22.5q32 0 56 -23t24 -55q0 -33 -24 -56t-56 -23q-33 0 -56.5 23t-23.5 56z" />
    <glyph glyph-name="agrave.ss02" horiz-adv-x="606" 
d="M254 -10q-92 0 -159.5 68.5t-67.5 201.5t67.5 201.5t159.5 68.5q56 0 97.5 -24.5t56.5 -60.5v75h146v-520h-146v75q-15 -36 -56.5 -60.5t-97.5 -24.5zM156 720h126l106 -140h-127zM166 260q0 -71 36 -108t88 -37t88 37t36 108t-36 108t-88 37t-88 -37t-36 -108z" />
    <glyph glyph-name="amacron.ss02" horiz-adv-x="606" 
d="M254 -10q-92 0 -159.5 68.5t-67.5 201.5t67.5 201.5t159.5 68.5q56 0 97.5 -24.5t56.5 -60.5v75h146v-520h-146v75q-15 -36 -56.5 -60.5t-97.5 -24.5zM145 635v85h328v-85h-328zM166 260q0 -71 36 -108t88 -37t88 37t36 108t-36 108t-88 37t-88 -37t-36 -108z" />
    <glyph glyph-name="aogonek.ss02" horiz-adv-x="606" 
d="M254 -10q-92 0 -159.5 68.5t-67.5 201.5t67.5 201.5t159.5 68.5q56 0 97.5 -24.5t56.5 -60.5v75h146v-520q-61 0 -94 -22t-33 -52q0 -26 21 -36.5t51 -0.5v-81q-18 -8 -47 -8t-59 9t-52 35t-22 65q0 43 25 72.5t64 43.5v50q-15 -36 -56.5 -60.5t-97.5 -24.5zM166 260
q0 -71 36 -108t88 -37t88 37t36 108t-36 108t-88 37t-88 -37t-36 -108z" />
    <glyph glyph-name="aring.ss02" horiz-adv-x="606" 
d="M254 -10q-92 0 -159.5 68.5t-67.5 201.5t67.5 201.5t159.5 68.5q56 0 97.5 -24.5t56.5 -60.5v75h146v-520h-146v75q-15 -36 -56.5 -60.5t-97.5 -24.5zM166 260q0 -71 36 -108t88 -37t88 37t36 108t-36 108t-88 37t-88 -37t-36 -108zM205 658q0 42 30 71t73 29
q44 0 74 -29t30 -71t-30 -71t-74 -29q-43 0 -73 29t-30 71zM273 658q0 -16 10 -25.5t25 -9.5t25.5 10t10.5 25q0 16 -10.5 26t-25.5 10t-25 -10t-10 -26z" />
    <glyph glyph-name="atilde.ss02" horiz-adv-x="606" 
d="M254 -10q-92 0 -159.5 68.5t-67.5 201.5t67.5 201.5t159.5 68.5q56 0 97.5 -24.5t56.5 -60.5v75h146v-520h-146v75q-15 -36 -56.5 -60.5t-97.5 -24.5zM135 615q0 55 26 85.5t74 30.5q26 0 47 -8.5t32.5 -19t24.5 -19t25 -8.5q11 0 22 6.5t11 21.5h86q0 -55 -26 -85
t-74 -30q-26 0 -47 8.5t-32.5 19t-24.5 19t-25 8.5q-11 0 -22 -6.5t-11 -22.5h-86zM166 260q0 -71 36 -108t88 -37t88 37t36 108t-36 108t-88 37t-88 -37t-36 -108z" />
    <glyph glyph-name="a.ss03" horiz-adv-x="555" 
d="M195 -10q-70 0 -119 35.5t-49 108.5q0 40 15.5 68.5t43.5 44t55.5 23.5t64.5 12l100 13q33 4 42.5 14.5t9.5 36.5v6q0 40 -20.5 55.5t-57.5 15.5q-85 0 -85 -67v-6h-138v20q0 160 227 160q116 0 168 -41.5t52 -129.5v-224q0 -25 7.5 -32t26.5 -8v-86q-18 -15 -60 -15
q-48 0 -80.5 21.5t-32.5 68.5v7h-5q-7 -31 -48.5 -66t-116.5 -35zM171 153q0 -24 18 -40.5t60 -16.5q52 0 80.5 27t28.5 57v55q-9 -11 -50 -16l-66 -10q-35 -6 -53 -18.5t-18 -37.5z" />
    <glyph glyph-name="g.ss03" horiz-adv-x="555" 
d="M270 -200q-65 0 -117.5 15t-89 53.5t-36.5 94.5q0 53 27 84.5t67 44.5q-39 2 -65.5 24.5t-26.5 59.5q0 31 19 52.5t50 27.5q-31 40 -31 99q0 79 54.5 125t143.5 46t142 -45q34 40 105 39v-106q-32 0 -56 -12q6 -21 6 -47q0 -79 -54 -124.5t-143 -45.5q-53 0 -95 17
q-26 -2 -26 -25q0 -20 21.5 -25.5t68.5 -5.5h32q49 0 91.5 -8.5t80.5 -27t60 -53.5t22 -82t-21.5 -82.5t-58.5 -55t-79.5 -28.5t-90.5 -9zM166 -26q0 -30 26 -51t81 -21q56 0 81 21t25 51q0 31 -25.5 51t-81.5 20q-54 0 -80 -20.5t-26 -50.5zM188 355q0 -27 17.5 -47.5
t59.5 -20.5q41 0 59 21t18 47q0 27 -18 48t-59 21q-42 0 -59.5 -21t-17.5 -48z" />
    <glyph glyph-name="l.ss04" horiz-adv-x="279" 
d="M251 0q-107 -12 -153 18t-46 124v565h146v-565q0 -37 53 -36v-106z" />
    <glyph glyph-name="f_t" horiz-adv-x="727" 
d="M17 408v112h74v34q0 162 171 162h78v-111h-43q-60 0 -60 -66v-19h215v134h146v-134h103v-113h-103v-230q0 -33 14 -50t52 -17q20 0 41 2v-109q-38 -10 -80 -10q-173 0 -173 163v251h-88v1h-127v-408h-146v408h-74z" />
    <glyph glyph-name="r_t" horiz-adv-x="693" 
d="M591 -7q-81 0 -127 40t-46 123v251h-35q-80 0 -132.5 -41.5t-52.5 -135.5v-230h-146v520h146v-149h4q15 71 63 110t124 39h29v134h146v-134h103v-113h-103v-230q0 -33 14 -50t52 -17q20 0 41 2v-109q-38 -10 -80 -10z" />
    <glyph glyph-name="zero.dnom" horiz-adv-x="286" 
d="M143 -2q-48 0 -78 34.5t-30 91.5v13q0 57 30 91.5t78 34.5q49 0 78.5 -34.5t29.5 -91.5v-13q0 -57 -29.5 -91.5t-78.5 -34.5zM92 124q0 -32 13.5 -52.5t37.5 -20.5t37.5 20.5t13.5 52.5v13q0 32 -13.5 52.5t-37.5 20.5t-37.5 -20.5t-13.5 -52.5v-13z" />
    <glyph glyph-name="one.dnom" horiz-adv-x="196" 
d="M97 190q-16 -28 -57 -18v53q18 -2 34.5 9.5t22.5 26.5h54v-261h-54v190z" />
    <glyph glyph-name="two.dnom" horiz-adv-x="266" 
d="M40 7q0 44 14 71.5t58 53.5q4 2 13 7t12.5 7t9.5 6.5t8.5 8.5t4.5 9.5t2 12.5q0 15 -10 23t-22 8q-13 0 -23.5 -9t-10.5 -27v-8h-56v8q0 39 22.5 63t67.5 24q44 0 67.5 -23t23.5 -59q0 -9 -2 -17t-4.5 -14.5t-8.5 -13.5t-10 -10.5t-13.5 -10.5t-13.5 -9.5t-15.5 -10
t-15.5 -9.5q-34 -18 -34 -35v-3h117v-50h-181v7z" />
    <glyph glyph-name="three.dnom" horiz-adv-x="276" 
d="M136 -4q-47 0 -71.5 23.5t-24.5 61.5h54q2 -40 43 -40q44 0 44 38q0 37 -50 37h-11v41h11q39 0 39 33q0 13 -9 21.5t-25 8.5q-15 0 -25.5 -9.5t-10.5 -27.5h-51q0 39 24 60.5t65 21.5q40 0 63 -19t23 -50q0 -22 -13 -37.5t-31 -19.5q20 -1 38 -17t18 -47q0 -35 -27.5 -57
t-72.5 -22z" />
    <glyph glyph-name="four.dnom" horiz-adv-x="281" 
d="M157 0v66h-117v43l117 152h54v-152h30v-43h-30v-66h-54zM87 109h70v90z" />
    <glyph glyph-name="five.dnom" horiz-adv-x="258" 
d="M125 -5q-44 0 -69.5 24t-25.5 61h53q1 -18 14.5 -28t29.5 -10q17 0 31.5 12t14.5 37q0 23 -14.5 34.5t-32.5 11.5q-25 0 -38 -18h-52l20 142h144v-50h-103l-7 -46q15 15 48 15q39 0 64.5 -25t25.5 -67q0 -44 -28 -68.5t-75 -24.5z" />
    <glyph glyph-name="six.dnom" horiz-adv-x="286" 
d="M145 -5q-46 0 -75.5 35t-29.5 99q0 60 27 97.5t80 37.5q41 0 65 -22t24 -50h-50q-6 24 -39 24q-30 0 -42 -22.5t-11 -50.5q6 12 24.5 21.5t39.5 9.5q88 0 88 -85q0 -47 -30 -70.5t-71 -23.5zM99 90q0 -22 14 -32.5t32 -10.5q19 0 30.5 11.5t11.5 32.5q0 20 -12.5 31.5
t-31.5 11.5q-17 0 -30.5 -11.5t-13.5 -32.5z" />
    <glyph glyph-name="seven.dnom" horiz-adv-x="231" 
d="M44 0l105 211h-129v50h181v-50l-101 -211h-56z" />
    <glyph glyph-name="eight.dnom" horiz-adv-x="243" 
d="M121 -2q-42 0 -69 21t-27 57q0 46 43 67q-29 18 -29 51q0 29 22 49t60 20t60 -20t22 -49q0 -33 -28 -51q43 -22 43 -67q0 -36 -27.5 -57t-69.5 -21zM77 79q0 -18 11.5 -28.5t32.5 -10.5t33 10.5t12 28.5t-12 29t-33 11q-20 0 -32 -11t-12 -29zM89 193q0 -29 32 -29
q33 0 33 29t-33 29q-32 0 -32 -29z" />
    <glyph glyph-name="nine.dnom" horiz-adv-x="286" 
d="M139 -5q-41 0 -65 22t-24 50h50q6 -24 39 -24q30 0 42 22.5t11 50.5q-6 -12 -24.5 -21.5t-39.5 -9.5q-88 0 -88 85q0 47 30 70.5t71 23.5q46 0 75.5 -35t29.5 -99q0 -60 -27 -97.5t-80 -37.5zM99 168q0 -20 12.5 -31.5t31.5 -11.5q17 0 30.5 11.5t13.5 32.5
q0 22 -14 32.5t-32 10.5q-19 0 -30.5 -12t-11.5 -32z" />
    <glyph glyph-name="zero.numr" horiz-adv-x="286" 
d="M143 438q-48 0 -78 34.5t-30 91.5v13q0 57 30 91.5t78 34.5q49 0 78.5 -34.5t29.5 -91.5v-13q0 -57 -29.5 -91.5t-78.5 -34.5zM92 564q0 -32 13.5 -52.5t37.5 -20.5t37.5 20.5t13.5 52.5v13q0 32 -13.5 52.5t-37.5 20.5t-37.5 -20.5t-13.5 -52.5v-13z" />
    <glyph glyph-name="one.numr" horiz-adv-x="196" 
d="M97 629q-16 -28 -57 -18v53q18 -2 34.5 9.5t22.5 26.5h54v-261h-54v190z" />
    <glyph glyph-name="two.numr" horiz-adv-x="266" 
d="M40 447q0 44 14 71.5t58 53.5q4 2 13 7t12.5 7t9.5 6.5t8.5 8.5t4.5 9.5t2 12.5q0 15 -10 23t-22 8q-13 0 -23.5 -9t-10.5 -27v-8h-56v8q0 39 22.5 63t67.5 24q44 0 67.5 -23t23.5 -59q0 -9 -2 -17t-4.5 -14.5t-8.5 -13.5t-10 -10.5t-13.5 -10.5t-13.5 -9.5t-15.5 -10
t-15.5 -9.5q-34 -18 -34 -35v-3h117v-50h-181v7z" />
    <glyph glyph-name="three.numr" horiz-adv-x="276" 
d="M136 436q-47 0 -71.5 23.5t-24.5 61.5h54q2 -40 43 -40q44 0 44 38q0 37 -50 37h-11v41h11q39 0 39 33q0 13 -9 21.5t-25 8.5q-15 0 -25.5 -9.5t-10.5 -27.5h-51q0 39 24 60.5t65 21.5q40 0 63 -19t23 -50q0 -22 -13 -37.5t-31 -19.5q20 -1 38 -17t18 -47
q0 -35 -27.5 -57t-72.5 -22z" />
    <glyph glyph-name="four.numr" horiz-adv-x="281" 
d="M157 440v66h-117v43l117 152h54v-152h30v-43h-30v-66h-54zM87 549h70v90z" />
    <glyph glyph-name="five.numr" horiz-adv-x="258" 
d="M125 435q-44 0 -69.5 24t-25.5 61h53q1 -18 14.5 -28t29.5 -10q17 0 31.5 12t14.5 37q0 23 -14.5 34.5t-32.5 11.5q-25 0 -38 -18h-52l20 142h144v-50h-103l-7 -46q15 15 48 15q39 0 64.5 -25t25.5 -67q0 -44 -28 -68.5t-75 -24.5z" />
    <glyph glyph-name="six.numr" horiz-adv-x="286" 
d="M145 434q-46 0 -75.5 35t-29.5 99q0 60 27 97.5t80 37.5q41 0 65 -22t24 -50h-50q-6 24 -39 24q-30 0 -42 -22.5t-11 -50.5q6 12 24.5 21.5t39.5 9.5q88 0 88 -85q0 -47 -30 -70.5t-71 -23.5zM99 529q0 -22 14 -32.5t32 -10.5q19 0 30.5 12t11.5 32t-12.5 31.5
t-31.5 11.5q-17 0 -30.5 -11.5t-13.5 -32.5z" />
    <glyph glyph-name="seven.numr" horiz-adv-x="231" 
d="M44 440l105 211h-129v50h181v-50l-101 -211h-56z" />
    <glyph glyph-name="eight.numr" horiz-adv-x="243" 
d="M121 438q-42 0 -69 21t-27 57q0 46 43 67q-29 18 -29 51q0 29 22 49t60 20t60 -20t22 -49q0 -33 -28 -51q43 -22 43 -67q0 -36 -27.5 -57t-69.5 -21zM77 519q0 -18 11.5 -28.5t32.5 -10.5t33 10.5t12 28.5t-12 29t-33 11q-20 0 -32 -11t-12 -29zM89 633q0 -29 32 -29
q33 0 33 29t-33 29q-32 0 -32 -29z" />
    <glyph glyph-name="nine.numr" horiz-adv-x="286" 
d="M139 435q-41 0 -65 22t-24 50h50q6 -24 39 -24q30 0 42 22.5t11 50.5q-6 -12 -24.5 -21.5t-39.5 -9.5q-88 0 -88 85q0 47 30 70.5t71 23.5q46 0 75.5 -35t29.5 -99q0 -60 -27 -97.5t-80 -37.5zM99 608q0 -20 12.5 -31.5t31.5 -11.5q17 0 30.5 11.5t13.5 32.5
q0 22 -14 32.5t-32 10.5q-19 0 -30.5 -12t-11.5 -32z" />
    <glyph glyph-name="period.ss01" horiz-adv-x="258" 
d="M50 0v166h158v-166h-158z" />
    <glyph glyph-name="uni03060301" horiz-adv-x="0" 
d="M167 566q-78 0 -120 41t-42 113h96q1 -37 17 -53.5t49 -16.5t49 16.5t17 53.5h96q0 -72 -42 -113t-120 -41zM92 750l105 140h127l-106 -140h-126z" />
    <glyph glyph-name="uni03060300" horiz-adv-x="0" 
d="M167 566q-78 0 -120 41t-42 113h96q1 -37 17 -53.5t49 -16.5t49 16.5t17 53.5h96q0 -72 -42 -113t-120 -41zM3 890h126l106 -140h-127z" />
    <glyph glyph-name="uni03060309" horiz-adv-x="0" 
d="M167 566q-78 0 -120 41t-42 113h96q1 -37 17 -53.5t49 -16.5t49 16.5t17 53.5h96q0 -72 -42 -113t-120 -41zM26 798q0 53 31 78.5t73 25.5q45 0 76.5 -26.5t31.5 -75.5q0 -43 -25 -68.5t-64 -31.5l-34 59q43 1 43 35q0 15 -8.5 23t-21.5 8q-25 0 -28 -27h-74z" />
    <glyph glyph-name="uni03060303" horiz-adv-x="0" 
d="M167 566q-78 0 -120 41t-42 113h96q1 -37 17 -53.5t49 -16.5t49 16.5t17 53.5h96q0 -72 -42 -113t-120 -41zM-7 785q0 55 26 85.5t74 30.5q26 0 47 -8.5t32.5 -19t24.5 -19t25 -8.5q11 0 22 6.5t11 21.5h86q0 -55 -26 -85t-74 -30q-26 0 -47 8.5t-32.5 19t-24.5 19
t-25 8.5q-11 0 -22 -6.5t-11 -22.5h-86z" />
    <glyph glyph-name="uni03020301" horiz-adv-x="0" 
d="M0 580l97 140h204l97 -140h-131l-68 102l-68 -102h-131zM355 680l105 140h127l-106 -140h-126z" />
    <glyph glyph-name="uni03020300" horiz-adv-x="0" 
d="M382 681l-90 139h126l91 -139h-127zM0 580l97 140h204l97 -140h-131l-68 102l-68 -102h-131z" />
    <glyph glyph-name="uni03020309" horiz-adv-x="0" 
d="M0 580l97 140h204l97 -140h-131l-68 102l-68 -102h-131zM258 800q0 53 31 78.5t73 25.5q45 0 76.5 -26.5t31.5 -75.5q0 -43 -25 -68.5t-64 -31.5l-34 59q43 1 43 35q0 15 -8.5 23t-21.5 8q-25 0 -28 -27h-74z" />
    <glyph glyph-name="uni03020303" horiz-adv-x="0" 
d="M0 580l97 140h204l97 -140h-131l-68 102l-68 -102h-131zM24 780q0 55 26 85.5t74 30.5q33 0 57.5 -14t41 -27.5t30.5 -13.5q11 0 22 6.5t11 21.5h86q0 -55 -26 -85t-74 -30q-33 0 -57.5 14t-41 27.5t-30.5 13.5q-11 0 -22 -6.5t-11 -22.5h-86z" />
    </font>
</defs>
</svg>
